&title=FLUFFY FLASH
&artist=Kobaryo
&first=0
&des_4=ロシェ@ペンギン
&des_5=はっぴー
&lv_2=6
&lv_3=8
&lv_4=12+
&lv_5=14
&inote_2=
(252){1},
{1},
{1},
{1},
{4},1xh[1:2],,,
{1},
{1},
{1},
{4},8xh[1:2],,,
{1},
{1},
{1},
{1}1x,
{1}1x,
{1}8x,
{1}1x/8x,
{2}1,1,
{1}1,
{2}2,2,
{1}2,
{2}3,3,
{1}3,
{2}4,4,
{1}4/5,
{2}5,5,
{1}5,
{2}6,6,
{1}6,
{2}7,7,
{1}7,
{2}8,8,
{1}1/8,
{1}8-5[4:7],
{1},
{1},
{1},
{1}1-4[4:7],
{1},
{1},
{1},
{1}8-4[4:7],
{1},
{1},
{1},
{1}1-5[4:7],
{1},
{1},
{1},
{4}8bx,8x,8x,,
{1}1x/8x,
{4}7,7,7,,
{1}7/8,
{4}1,1,1,,
{1}1/8,
{4}2,2,2,,
{1}1/2,
{4}3,3,3,,
{1}3/4,
{4}5,5,5,,
{1}4/5,
{4}6,6,6,,
{1}5/6,
{4}4,4,4,,
{1}4b/5b,
{1}4-1[4:7]/5-8[4:7],
{1},
{1},
{1},
{2}1x,1,
{2}8,8,
{2}1/8,1/8,
{1}2x/7x,
{1}B1,
{1}B8,
{1}B2,
{1}B7,
{1}B3,
{1}B6,
{1}B4,
{1}B5,
{1}E3,
{1}E2,
{1}E1,
{1}E8,
{1}E7,
{1}E6,
{1}C1f,
{1},
{1}1xh[1:1]/2xh[1:1],
{1},
{1}1/2,
{1}3,
{1}3h[1:1]/4h[1:1],
{1},
{1}3/4,
{1}5,
{1}5h[1:1]/6h[1:1],
{1},
{1}5/6,
{1}7,
{1}7h[1:1]/8h[1:1],
{1},
{1}7/8,
{1}1b,
{1}8x-4[4:7],
{1},
{1},
{1},
{1}3-6[4:7],
{1},
{1},
{1},
{1}7-3[4:7],
{1},
{1},
{1},
{2}1,1,
{2}1,1,
{2}8,8,
{2}8,8,
{1}1b/8b,
{1},
{4}8,8,8,,
{2}7,7,
{4}6,6,6,,
{1}5/6,
{4}4,4,4,,
{2}3,3,
{4}2,2,2,,
{1}1/8,
{4}1,1,1,,
{2}2,2,
{4}3,3,3,,
{2}4/5,4/5,
{4}5,5,5,,
{2}6,6,
{4}7,7,7,,
{2}1/8,1/8,
{1}1xh[1:2]/8xh[1:2],
{1},
{1},
{1},
{4}8,8,8,,
{4}7,7,7,,
{4}6,6,6,,
{2}4/5,4/5,
{4}3,3,3,,
{4}2,2,2,,
{4}1,1,1,,
{2}1/8,1/8,
{2}2/7,2/7,
{2}3/6,3/6,
{1}4b/5b,
{1},
{1},
{1},
E
&inote_3=
(252){1},
{1},
{1},
{1},
{4}4,4,4,,
{1}3h[8:3]/4h[8:3],
{4}5,5,5,,
{1}5h[8:3]/6h[8:3],
{4}4,4,4,,
{1}3h[8:3]/4h[8:3],
{4}5,5,5,,
{1}5h[8:3]/6h[8:3],
{1}7-4[4:3]/8-3[4:3],
{1},
{1}1-6[4:3]/2-5[4:3],
{1},
{4}7,7,7,,
{4}6,6,6,,
{4}5,5,5,,
{1}3/4,
{4}2,2,2,,
{4}3,3,3,,
{4}4,4,4,,
{1}5/6,
{4}7,7,7,,
{4}6,6,6,,
{4}5,5,5,,
{1}3/4,
{4}2,2,2,,
{4}3,3,3,,
{4}4,4,4,,
{1}5/6,
{1}6h[1:1],
{1}7h[1:1],
{1}8h[1:1],
{1}1h[1:1],
{1}2h[1:1],
{1}3h[1:1],
{1}4,
{1}4/5,
{1}3h[1:1],
{1}2h[1:1],
{1}1h[1:1],
{1}8h[1:1],
{1}7h[1:1],
{1}6h[1:1],
{1}5,
{1}4b/5b,
{4}3x,3,3,3,
{4}1x/2x,1/2,1/2,,
{4}2,2,3,3,
{4}4,4,5/6,,
{4}6x,6,6,6,
{4}7x/8x,7/8,7/8,,
{4}7,7,6,6,
{4}5,5,3/4,,
{4}3x,3,3,3,
{4}1x/2x,1/2,1/2,,
{4}2,2,3,3,
{4}4,4,5/6,,
{4}6x,6,6,6,
{4}7x/8x,7/8,7/8,,
{4}7,7,6,6,
{4}5,5,3/4,,
{1}1<6[1:1]/2>5[1:1],
{1},
{1}7<4[1:1]/8>3[1:1],
{1},
{1}1<6[1:1]/2>5[1:1],
{1},
{4}7,7,8,8,
{4}1/8,1/8,2b/7b,,
{2}B3,B2,
{2}B1,B8,
{2}B7,B6,
{1}B4/B5,
{2}E6,E7,
{2}E8,E1,
{2}E2,E3,
{1}E4/E5/E6,
{2}B6,B7,
{2}B8,B1,
{2}B2,B3,
{1}B4/B5,
{2}E4,E3,
{2}E2,E1,
{2}E8,E7,
{1}E4/E5/E6,
{1}2-7[4:3],
{1},
{1}6-3[4:3],
{1},
{1}4-1[4:3],
{1},
{1}8-5[4:3],
{1},
{8}3x/4x,,,3x/4x,,,,,
{8}5x/6x,,,5x/6x,,,,,
{8}2x/4x,,,2x/4x,,,,,
{8}5x/7x,,,5x/7x,,,,,
{2}8,8,
{2}1,1,
{2}1/8,1/8,
{1}1b/8b,
{2}2h[2:1],3h[2:1],
{2}4h[2:1],5h[2:1],
{2}6h[2:1],7h[2:1],
{1}8,
{2}7h[2:1],6h[2:1],
{2}5h[2:1],4h[2:1],
{2}3h[2:1],2h[2:1],
{1}1,
{2}1/2,1/2,
{2}3/4,3/4,
{2}5/6,5/6,
{2}7/8,7/8,
{4}6,6,6,,
{4}5,5,5,,
{4}4,4,4,,
{4}3,3,3,,
{1}C1f,
{1},
{4}2,2,1/2,1/2,
{4}3,3,3/4,3/4,
{4}2,2,3,4,
{4}5,6,7x/8x,,
{4}7,7,7/8,7/8,
{4}6,6,5/6,5/6,
{4}7,7,6,5,
{4}4,3,1x/2x,,
{4}2,2,1/2,1/2,
{4}3,3,3/4,3/4,
{4}2,2,3,4,
{4}5,6,7x/8x,,
{4}7,7,7/8,7/8,
{4}6,6,5/6,5/6,
{4}7,7,6,5,
{4}4,3,1x/2x,,
{1}1pp4[4:11]/8qq5[4:11],
{1},
{1},
{1},
{4}4,4,4,,
{8}3x/5x,,,3x/5x,,,,,
{4}5,5,5,,
{8}4x/6x,,,4x/6x,,,,,
{4}3,3,3,,
{8}2x/4x,,,2x/4x,,,,,
{4}6,6,6,,
{8}5x/7x,,,5x/7x,,,,,
{1}C1fh[1:2],
{1},
{1},
{1},
{1},
E
&inote_4=
(252){1},
{1},
{1},
{1},
{4}4/5,2,2h[8:9],,
{8}4,,,6x,,6x,,,
{4}4/5,7,7h[8:9],,
{8}5,,,3x,,3x,,,
{4}4/5,2,2h[8:7],,
{8}4,,,6x,,2x/6x,,,
{4}4/5,7,7h[8:7],,
{8}5,,,3x,,6xh[8:15]/3x<2[8:29],,,
{1},
{1},
{1}C1h[2:3],
{1},
{4}2,2,1/2,1/2,
{4}2/8,2/8,2/7,2/7,
{8}2/6h[2:1],,1,,3,,6,6,
{8},4,4,4,,4/5,4/5,,
{4}7,7,7/8,7/8,
{4}1/7,1/7,2/7,2/7,
{1}7h[4:3]/3<8[2:1],
{8}1/6,1/6,,5-3[8:1]/6-8[8:1],,,,,
{4}3,2/8x,3,2/4x,
{4}3,2/8x,3,2/4x,
{8}3h[2:1],,8,,6,,3,3,
{8},5,5,5,,4/5,4/5,,
{4}6,1x/7,6,5x/7,
{4}6,1x/7,6,5x/7,
{8}5/6,5/6,,3/4,,1/2,,7/8,
{1}7h[2:1]/8h[2:1],
{1}1x-3[4:1]v6[2:1],
{2}8<3[4:3],1,
{2}2h[2:1],4h[2:1],
{2}6>1[4:3],8,
{1}8x-6[4:1]v3[384:191],
{2}1>6[4:3],8,
{2}7h[2:1],5h[2:1],
{2}B2,B7,
{4}4,4,B7/B8/4x,4,
{4}3,3,B6/B7/3x,3,
{4}2,2,B5/B6/2x,2,
{4}1,1,B4/B5/1x,1,
{4}8,8,B3/B4/8x,8,
{4}7,7,B2/B3/7x,7,
{8}5x/6x,,5x/6x,,,4x/8x,,2xh[8:5]/6x,
{4},,4,8b,
{8}2h[4:1],,,1/3-7[8:1],,,,,
{1}8-3[4:1]*-5[4:1],
{4}2/4,1,3/5,1,
{4}4/6,7/1s5[2:1],,,
{8}7h[4:1],,,8/6-2[8:1],,,,,
{1}1-4[4:1]*-6[4:1],
{4}5/7,8,4/6,8,
{4}3/5,2/8-4[8:1],1b,,
{8}2h[4:1],,,1/3-7[8:1],,,,,
{1}8-3[4:1]*-5[4:1],
{4}2/4,1,3/5,1,
{4}4/6,7/1s5[2:1],,,
{8}7h[4:1],,,8/6-2[8:1],,,,,
{1}1-4[4:1]*-6[4:1],
{8}5,5,4,4,6,6,3,3,
{8}7,7,2,2,8x,,4x/6x,,
{1}1bxh[2:7]/5xh[2:7],
{1},
{1},
{1},
{4}E1,E8,E7,E6,
{4}E5,E4,E3,E2,
{4}8,8,1/7,1/7,
{4}5/6,5/6,2b/8b,,
{2}1xh[4:1]/3xh[4:1],4h[4:1]/6h[4:1],
{2}2h[4:1]/4h[4:1],4h[4:1]/7h[4:1],
{2}1h[4:1]/3h[4:1],5h[4:1]/6h[4:1],
{2}1h[4:1]/3h[4:1],5h[4:1]/6h[4:1],
{2}6xh[4:1]/8xh[4:1],3h[4:1]/5h[4:1],
{2}5h[4:1]/7h[4:1],2h[4:1]/5h[4:1],
{4}3h[4:1],4h[4:1],5h[4:1],6h[4:1],
{4}7h[4:1],8,1b/3b,,
{4}2xh[2:1]/5x,,6h[2:1],5,
{4}4h[2:1],5,7h[4:1],5,
{2}6h[4:1]/8h[4:1],3h[4:1]/4h[4:1],
{2}6h[4:1]/8h[4:1],3h[4:1]/4h[4:1],
{4}1x/3xh[2:1],,6h[2:1],5,
{4}4h[2:1],5,7h[2:1],6,
{1}5qq1[4:3],
{1}8<2[4:3],
{1}1h[1:1],
{8}6h[8:3],,,5h[8:3],,,4,,
{1}3<7[4:3],
{1}8p4[4:3],
{4}3h[4:3],,,4h[4:3],
{2},5h[2:1],
{4}6,7,6,5h[1:1],
{4},4h[2:1],,,
{8}6xh[4:1]/8xh[4:1],,,6/8,,,4,,
{8}3xh[4:1]/5xh[4:1],,,3/5,,,1,,
{8}2xh[4:1]/8xh[4:1],,,2/8,,,6,,
{8}5xh[4:1]/7xh[4:1],,,5/7,,,3,,
{2}1h[4:1]/2h[4:1],1h[4:1]/8h[4:1],
{2}7h[4:1]/8h[4:1],6h[4:1]/7h[4:1],
{4}5/6,5/6,3/4,3/4,
{1}1b/6b,
{1}2-8[4:1]-6[8:1]qq3[8:11],
{1},
{4},E7,E6,E5,
{4}E4,E3,E2f,,
{1}7-1[4:1]-3[8:1]pp6[8:11],
{1},
{4},E3,E4,E5,
{4}E6,E7,E8f,,
{4}4h[2:1],,2,1,
{4}8h[2:1],,6,5,
{4}4h[2:1],,2,1,
{4}8h[2:1],,6,5,
{4}4,4,3/5,3/5,
{4}2/6,2/6,1/7,1/7,
{8}8,8,1,1,7,7,2,2,
{8}6,6,3,3,5b,,,,
{8}2-7[8:1],,,6-3[8:1],,,1,,
{4}2,3,4/6,1b/8b,
{8}1x/6x,,2/4,,5/7,,3,3h[8:3],
{8},2,2,,3/4,,1/6,,
{8}5xh[4:3],,7,7,7,,1,,
{4}3/4,6/1-5b[8:1],8x,,
{8}3x/8x,,5/7,,2/4,,6,6h[8:3],
{8},7,7,,5/6,,3/8,,
{8}1h[4:3],,3,3,3,,8,,
{8}3/7,3/7,,1/2,1b-5[8:1]/2b-4[8:1],,,,
{8}3x,3,5,5,8-4[8:1],,7,,
{8}6x,6,4,4,1-5[8:1],,2,,
{8}3xh[2:1],,5,5,5,,2,,
{4}1/7,4/5-8b[4:1],1-4b[8:1],,
{8}7x,7,5,5,1<6[4:1],,3,,
{8}2x,2,4,4,8>3[4:1],,6,,
{8}5x,5,5,5,1x,1,1,1,
{16}8x,7x,6x,5x,4x,3x,2x,1x,8x,7x,6x,5x,4x,3x,2x,1x,
{1}8bxh[2:7],
{1},
{1},
{4}4,4,4,2x/7x,
{8}5,4,7,,7h[8:5],,,,
{8}5,5,,3x/8x,,3x/8x,,,
{8}4,5,2,,2h[8:5],,,,
{8}4,4,,1x/6x,,1x/6x,,,
{8}5,4,7,,7h[8:5],,,,
{8}5,5,,3x/8x,,3x/8x,,,
{8}4,5,2,,2h[8:5],,,,
{8}4,4-8[4:1],,,,,,,
{8}2x,2,2,2,7,7,7,7,
{8}1,1,1,1,1/8,1/8,1/8,1/8,
{1}2b/7b,
{1},
{1},
{1},
E
&inote_5=(252){1},,,,{4},
{4}2-8[8:1]/6-4[8:1],2/6,,
{8}1/5,1h[4:1]/5,,3,,2h[4:1]/4h[4:1],
{4},,
7-1[8:1]/3-5[8:1],7/3,,
{8}8/4,8h[4:1]/4,,6,,7h[4:1]/5h[4:1],
{4},,
2-8[8:1]/6-4[8:1],2/6,,
{8}1/5,1h[4:1]/5,,3,,2h[4:1]/4h[4:1],
{4},,
7-1[8:1]/3-5[8:1],7/3,,
{8}8/4,8h[4:1]/4,,6,,7/5,,6/2,6h[4:12]/2pp6pp3[4:10],,
{4},,,,,,,,,,,,A4f/B4/B5,A6f/B6/B5,1x/8x,3/7,3/7,7/4,
{8}5/7,5,5/7,,7/4,,7/3,3,7/3,,6-1[8:1],,5,,3h[4:1]
,,4,4,,2/6,2/6,2/6,,3/7,3/7,,1x/8x,,
6/2,,2/5,,4/2,4,4/2,,2/5,,2/6,6,2/6,,3-1[8:1],,4,,6h[4:1],,5,4,7/3,7/3,,2-6[8:1]/6,,7,7,,1x/8x,,
{4}
3/7,8-6[8:1]/4,5/8,8-2[8:1]/5,8/4,8-6[8:1]/3,8/3,
{8}2h[8:1],5h[8:1],1h[8:1],4h[8:1],2h[8:1],5h[8:1],3h[8:1],6h[8:1],4h[8:1],7h[8:1],5h[8:1],8h[8:1],4,4,6/3,,1x/8x,,2/6,,
{4}1-3[8:1]/5,4/1,1-7[8:1]/4,1/5,1-3[8:1]/6,1/6,
{8}7x,7x,2x,2x,
{16}1,8,1,8,1-7-3-5[4:3],8,1,8,1,,,,
{4},,,6-8-2-4^1-5[4:5],,5,,5,,4,,4-2-8-6^1-5[4:5],,5,,5,,4,,
6-8-2-4^1-5[4:5],,5
,,5,,4,,3-1-7-5^8-4[4:5],,4,,4,,5,,
3/4,3/4-8[2:1],3,3,4,5,8h[2:1],6,5,5-1[2:1],6,6,5,4,1h[2:1],3,4,4-8[2:1],3,3,4,5,8h[2:1],,1,2/7,
{8},4/5pp6[8:5],,4/5,,,,,
1-4[8:1],,1x,,
6,5,4,7^2[8:1]/3^6[8:1],,7/3,,,2,1,8,7h[8:2]/3,,1x,1x,,2-6[8:1],,1-5[8:1],,8-4[8:1],,7-3[8:1],,2-6[8:1],,1-5[8:1],,8,,7/2,,3,4,5,2^7[8:1]/6^3[8:1],,2/6,,,7,8,1,2h[8:7]/6,,4,4,,A6/E6/A5,,A3/E4/A4,,7h[8:8],,4,,A6/E6/A5,,A3/E4/A4
,,2x,,1x/8x,,
6,5,4,7^2[8:1]/3^6[8:1],,7/3,,,2,1,8,7h[8:2]/3,,1x,1x,,
8,8h[8:1],4,4h[8:1],6,6h[8:1],2,2h[8:1],4,4h[8:1],8,8h[8:1],5,,2/7,,
3,4,5,2^7[8:1]/6^3[8:1],,2/6,,,7,8,1,2h[8:3]/6,,4,4,,4/5,4/5,4/5,4/5,
3/6,3/6,3/6,3/6,2/7,2/7,2/7,2/7,
{16}1,8,1,8,1,8,1,7h[16:97]/2-8-6-4p3>4[16:53],
{1},,,
{4},,,,
{8}5x,5,5,5,5x,5,5,5,5x,5,5,5,5x,5,5x,5,5x-8[8:1]*-2[8:1],,,,1x-4[8:1]*-6[8:1],,,,
5x^8[8:1]*^2[8:1],,,,B6/Cf/B4,,,,1bx/8bx,,,,
{4}7h[8:1]/5h[8:1],,4h[8:1]/5h[8:1],,4h[8:1]/2h[8:1],,4h[4:2]/2p3[4:1],,,,5h[4:2]/7q6[4:1],,,,A7/B7/E7f/A3/B3/E3,,
2h[8:1]/4h[8:1],,5h[8:1]/4h[8:1],,5h[8:1]/7h[8:1],,7h[4:1]/3,5h[4:1],E1/B1/E2,2h[4:1],4h[4:1],E1/B8/E8,2x/6x,,E6/E5f/E4,,4h[1:1]/1-7-2v3[4:3],,,,,,4/5,4h[2:1]/5>1[4:1],,,5/4,5h[2:1]/4<8[4:1],,,E6/E5f/E4,,5h[1:1]/8-2-7v6[4:3],,,,,,
{8}3/4,,5/6,,4,4,5,5,3/6,3/6,2bx/7bx-3[8:1],,,,,,
{8}2>6[4:3],,,,7,,,,8h[8:3],,,7h[8:3],,,6,,5<6v8>1[4:3],,,,3,,,,4>3v1<8[4:3],,,,5,,,,6>3[4:2],,,,,,2<7[4:2],,,,,,6h[4:2],,,,5-8[4:1],,3,,1-4[4:1],,,,,,
3h[4:2]/8-5[4:1],,,,,,
7h[4:1]/4,,5,5-1[8:1],,3,3,,2h[4:1]/5,,4,4-8[8:1],,6,6,,7h[4:1]/4,,5,5-8[8:1],,1,1,,2h[4:1]/5,,4,4-1[8:1],,8,8,,7h[4:1]/5,,1,,2h[4:1]/4,,8,,7h[4:1]/4,,8,,2h[4:1]/5,,1,,4/6,7,8,,5/3,2,1>8[2:1],,Cf,,,,,,,,
1h[4:1],,4h[4:1],,3h[4:1],,5,5,,6/4,6/4,,8/2,,7/3,,6/4h[4:6],,E4,,E3,,E2,,E6,,E7,,E8,,E5,,
8h[4:1],,5h[4:1],,6h[4:1],,4,4,,3/5,3/5,,1/7,,2/6,,3/5h[4:6],,E6,,E7,,E8,,E4,,E3,,E2,,E5,,
6h[1:1],,4,,5x,,4,,3h[1:1],,5,,4x,,5,,6h[1:1],,4,,5x,,4,,3h[1:1],,5,,4x,,5,,
7h[1:1],,4,,5x,,3,,2h[1:1],,5,,4x,,6,,7,7,3,3,6,6,4,4,5,5,3,3,4,4,2,2,8bz4b[4:3],
{4},,,,,
{8},4x/5x,,8b/1b,,2-5[16:1],2,6-1[16:1],6,3,3,2/4,2/4,,3/5,3>7[4:1]/5,,7-1-3[4:1],,4,,6,,7-3[16:1],7,8-4[16:1],8,1-5[16:1],1,2-6[16:1],2,4-8[16:1],,8w4[16:1],,,,7-4[16:1],7,3-8[16:1],3,6,6,7/5,7/5,,6/4,6<2[4:1]/4,,2-8-6[4:1],,5,,3,,2-6[16:1],2,7-3[16:1],7,1-5[16:1],1,8,8h[4:1],,5,
{32}
D4,D3,D2,D1,D8,D7,D6,D5,D4,,,,,,,,
{8}8-4[16:1],8,3-7[16:1],3,6-2[16:1],6,1-5[16:1],1,4-8[16:1],4,2-6[16:1],2,7,7,
{16}5,4,3,2,1-5[16:1],,1,,
{8}6-2[16:1],6,3-7[16:1],3,8-4[16:1],8,5-1[16:1],5,7,7,8h[16:1]/2h[16:1],,6h[16:1]/4h[16:1],,
3-6[8:1],3,7-2[8:1],7,4-1[8:1],4,8-5[8:1],8,2-5[8:1],2,6,6,3,3
,7,7,
{16}1,8,1,8,1,8,1,8,2,7,2,7,2,7,2,7,1,8,1,8,1,8,1,8,
{32}1,2,3,4,5,6,7,8,1,2,3,4,5,6,7,8-2-7-3-6-4[8:20],1h[8:31],
{4},,,,,,,,,,,,,,,
{8}6b,,8/4,7/3,6-1[8:1]/2-5[8:1],,2x/6x,,,,
D2/E2/B2/B3/E4/D4f,,,D8f/E8/B7/B6/E6/D6,,1h[16:4]/5h[16:4],,,1/5,2/6,3-8[8:1]/7-4[8:1],,7x/3x,,,,D8/E8/B7/B6/E6/D6f,,,D2f/E2/B2/B3/E4/D4,,8h[16:4]/4h[16:4],,,8/4,7/3,6-3[8:1]/2-7[8:1],,6x/2x,,,,D3/E3/B3/B4/E5/D5f,,,D7/E7/B7/B8/E1/D1f,,1h[16:4]/5h[16:4],,,1/5,2/6,3-6[8:1]/7-2[8:1],,3x/7x,,,,3h[16:4]/5h[16:4],,,3/5,,1/7,1/7,,
{16}2,6,2,6,2,6,2,6,2,6,2,6,2,6,2,6,3b,7b,3b,7b,3b,7b,3b,7b,
4b,8b,4b,8b,4b,8b,4b,8b,
A1/B1/Cf/B5/A5,
