&title=Comet Panto Men!
&artist=MYUKKE.
&first=0.63
&des_4=翠楼屋
&des_5=Jack
&lv_2=5
&lv_3=7+
&lv_4=12
&lv_5=13+
&inote_2=
(170){1},
{1}1h[1:1],
{1},
{1}8h[1:1],
{1},
{2}1,1,
{1}1,
{2}8,8,
{1}1x/8x,
{2}1,1,
{2}2,2,
{2}3,3,
{1}3/4,
{2}5,5,
{2}6,6,
{2}7,7,
{1}1bx/8bx,
{1}7h[2:1]/8h[2:1],
{1}7/8,
{1}5h[2:1]/6h[2:1],
{1}5/6,
{1}3h[2:1]/4h[2:1],
{1}3/4,
{1}1h[2:1]/2h[2:1],
{1}1/2,
{2}2,2,
{1}1/2,
{2}3,3,
{1}3/4,
{2}6,6,
{1}5/6,
{2}7,7,
{1}7/8,
{4}8x,8,8,,
{2}7,7,
{4}6,6,6,,
{2}4/5,4/5,
{4}4,4,4,,
{2}3,3,
{4}2,2,2,,
{1}1bx/8bx,
{1}1-4[4:3],
{1},
{1}5-8[4:3],
{1},
{1}1-5[4:3],
{1},
{1}7-3[4:3],
{1},
{1}1b,
{4}1,1,1,,
{4}2,2,2,,
{4}3,3,3,,
{2}4/5,4/5,
{4}5,5,5,,
{4}6,6,6,,
{4}7,7,7,,
{2}1/8,1/8,
{4}8,8,8,,
{4}7,7,7,,
{4}6,6,6,,
{4}5,5,4/5,,
{4}4,4,4,,
{4}3,3,3,,
{4}2,2,2,,
{1}1x/8x,
{1}B1,
{1}B8,
{1}B2,
{1}B7,
{1}B3,
{1}B6,
{1}B4,
{1}C1h[1:1],
{1},
{4}1bx,1,1,1,
{4}2,2,1/2,,
{4}3,3,3,3,
{4}4,4,4/5,,
{4}5,5,5,5,
{4}6,6,5/6,,
{4}7,7,7,7,
{4}8,8,8,8,
{1}1x-4[4:3]/8x-5[4:3],
{1},
{2}4/5,4/5,
{2}3x/6x,3x/6x,
{4}4,4,3,3,
{4}2,2,1,1,
{4}8,8,7,7,
{4}6,6,4/5,4/5,
{1}3h[8:7]/6h[8:7],
{1},
{1},
{1},
E
&inote_3=
(170){1},
{2}1,1,
{2}2,2,
{2}3,3,
{2}4,4,
{2}5,5,
{2}6,6,
{2}7,7,
{4}8x,8x,8x,,
{4}7,7,7/8,,
{4}6,6,5/6,,
{4}4,4,3/4,,
{4}1/2,1/2,1/2,,
{4}2,2,1/2,,
{4}3,3,3/4,,
{4}5,5,5/6,,
{4}7/8,7/8,7/8,,
{2}6h[2:1],5h[2:1],
{2}4h[2:1],3,
{2}3h[2:1],4h[2:1],
{2}5h[2:1],6,
{2}7h[2:1],6h[2:1],
{2}5h[2:1],4,
{2}2h[2:1],3h[2:1],
{2}4h[2:1],5,
{4}6,6,7,7,
{4}8,8,1/2,,
{4}3,3,2,2,
{4}1,1,7/8,,
{4}6,6,7,7,
{4}8,8,1/2,,
{4}3/4,3/4,3/4,,
{4}5/6,5/6,5/6,,
{4}7,7,7/8,7/8,
{4}6,6,5/6,5/6,
{4}4,4,3/4,3/4,
{4}1/2,1/2,1/2,,
{4}2,2,1/2,1/2,
{4}3,3,3/4,3/4,
{4}5,5,5/6,5/6,
{4}7/8,7/8,7/8,,
{1}7-4[2:1],
{1}3-6[2:1],
{1}7-3[2:1],
{4}2,2,1/2,,
{1}2-5[2:1],
{1}6-3[2:1],
{1}2-6[2:1],
{4}7,7,7/8,,
{1}1b/8b,
{4}7,7,5/6,5/6,
{4}4,4,3/4,,
{4}2,2,3/4,3/4,
{4}5,5,5/6,,
{4}6,6,7/8,7/8,
{4}1,1,1/2,,
{4}3x/4x,3x/4x,5x/6x,5x/6x,
{4}7x/8x,7x/8x,1b/2b,,
{8}2,2,2,,3/4,,3/4,,
{8}5,5,5,,5/6,,,,
{8}7,7,7,,5/6,,5/6,,
{8}4,4,4,,3/4,,,,
{8}3,3,3,,1/2,,1/2,,
{8}8,8,8,,7/8,,,,
{4}5x/6x,5x/6x,3x/4x,3x/4x,
{4}1x/2x,1x/2x,1b/8b,,
{2}B1,B2,
{2}B3,B4,
{2}B5,B6,
{2}B7,B8,
{2}E1,E8,
{2}E7,E6,
{2}E5,E4,
{2}E3,E2,
{1}C1f,
{8}2,2,2,,1,1,1,,
{8}8,8,8,,7/8,,,,
{8}6,6,6,,7,7,7,,
{8}8,8,8,,1/2,,,,
{8}3,3,3,,2,2,2,,
{8}1,1,1,,7/8,,,,
{4}1x/2x,1x/2x,3x/4x,3x/4x,
{4}5x/6x,5x/6x,7b/8b,,
{4}7/8,7/8,6,5,
{4}4,3,3/4,,
{4}1/2,1/2,3,4,
{4}5,6,5/6,,
{4}7,6,5,4,
{4}3,2,1/8,,
{4}2,3,4,5,
{4}6,7,1/8,,
{8}1/8,,2/7,,3/6,,4bx/5bx,4bx/5bx,
{1},
{1},
{1},
E
&inote_4=
(170){1},
{4}6h[1:1],,,5,
{4}5h[1:1],,,4,
{4}4h[4:3],,,3,
{8}2/5,,3/4,3/4,,5/6,5b/6b,,
{4}7,7,4/6,3/5,
{4}2,2,1/2,1/8,
{8}1,1,8,8,2,2,7,7,
{8}3h[8:5],,,,,8bx,8bx,,
{4}5/7,4/6,3,3/4,
{4}2/4,3/5,6,5/6,
{4}7,7/8,2,1/2,
{8}3/8,,7,,4/6,4/6,4/6,,
{4}7h[4:1],5,4/6,3/5,
{4}2h[4:1],4,3/5,4/6,
{4}7h[4:1],8,2h[4:1],1-5[16:5],
{8},,,,,4x/6x,4x/6x,,
{8}3b/7b,,2,2,4,4,3,3,
{8}8,8,4,4,7,7,5h[4:1],,
{8}6,,7,7,5,5,6,6,
{8}1,1,5,5,3,3,3/4,,
{8}2b/5b,,5/6,,7,7,8,,
{8}3/8,,1/2,,3x,3x,2x/4x,,
{2}1-5[4:1],7-3[4:1],
{8}2,,2/4,,3/5,3/5,3/5,,
{16}6,5,6,5,6,,,,3,4,3,4,3,,,,
{4}2h[8:1]/4h[8:1],3h[8:1]/5h[8:1],4h[8:1]/6h[8:1],5/7,
{16}6,5,6,5,6,,,,3,4,3,4,3,,,,
{4}2h[8:1]/4h[8:1],3h[8:1]/5h[8:1],4h[8:1]/6h[8:1],5/7,
{16}7,8,7,8,7,,,,2,1,2,1,2,,,,
{4}3h[8:1]/8h[8:1],2h[8:1]/7h[8:1],1h[8:1]/6h[8:1],1/6,
{8}7,7,1,1,8,8,2,2,
{8}1h[4:1]/8h[4:1],,,1/8,,2/7,2/7-3[8:1],,
{8}1b-5[8:1],,8,,6,6,5/7,,
{16}3h[16:3],,,4,,,2/5,,2x/5x,,1bx/6bx,,8bx/7bx-3[8:1],,,,
{8}1-5[8:1],,8,,6,6,5/7,,
{16}3h[16:3],,,4,,,2/5,,2/5,,1bx/6bx,,7bx/8bx,,,,
{8}2,2,1,3h[4:1],,4,2/5,,
{8}6,6,5,7h[4:1],,8,1/6,,
{4}3/4,1/2,7/8,5/6,
{8}3,3,4,2,8,8,7b/1bqq3b[1:1],,
{1},
{1},
{1}6qq1[16:17],
{1},
{1}2<7[2:1],
{1}6>3[2:1],
{4}2,2,2/3,3/4,
{8}4h[4:1]/5h[4:1],,,,4/5,4/5,4>1[8:3]/5<8[8:3],,
{4},,,2b/7b,
{8}3,3,4,5-1[8:1],,2,2h[4:1],,
{8}8,8,1,1,2/8,3bx/7bx,4bx/6bx,,
{8}6,6,5,4-8[8:1],,7,7h[4:1],,
{8}1,1,8,8,1/7,2bx/6bx,3bx/5bx,,
{8}3,3,4,5-1[8:1],,2,2h[4:1],,
{8}8,8,3,3,3/4,2bx/5bx,1bx/6bx,,
{2}1-5[8:1]/6-1[8:1],3-8[8:1]/8-4[8:1],
{4}1bx/5bx,1/5,3/7,5b/6b,
{8}5/6,7,8,1-5[8:1],,6,6h[4:1],,
{8}5,5,8,8,1/2,3bx/8bx,4bx/7bx,,
{8}3/4,2,1,8-4[8:1],,2,2h[4:1],,
{8}4,4,1,1,2/8,3/7,4/6,,
{8}3,3,4,2h[4:1],,1,3/8,,
{8}6,6,5,7h[4:1],,8,1x/6x,,
{16}7,,7,,2,,2,,8,1,8,1,8,1,8,1,
{4}8-4[8:1],2-6[8:1],8,8b,
{4}1b/7b,E5/B6,E1,E3/B4,
{4}C1,B5/E7,E1,B3/E5,
{4}E2,B6/E6/E7,E8,B3/E3/E4,
{4}C1h[2:1],,,1x/8x,
{4}2/7,4/5,6h[4:1],5h[4:1],
{8}4h[4:1],,3h[4:1],,5,5,5/3qq6[4:3],,
{8},,,,,,8,8h[4:1],
{8},1,1h[4:1],,8,8,7/1>8[2:1],,
{4},,,2b/7b,
{8}7x/8x,6,4/5,3,1/2,3,4/5,6,
{8}7-4[8:1],,3-8[8:1],,6,7bx,7bx,,
{8}1x/2x,3,4/5,6,7/8,6,4/5,3,
{4}2-5[8:1],6-1[8:1],3,2/8,
{8}5/6,7,1/8,2,3/4,2,1/8,7,
{8}6-1[8:1],,2-5[8:1],,7,8bx,8bx,,
{8}1/6,,2,2/4,,6,5/7,4b/8b,
{8},3,2/4,5/1-5[8:1],,8,8<1[2:3],,
{1}4b,
{1},
{8}3h[4:1]/4h[4:1],,,4h[4:1]/5h[4:1],,,6,6,
{8}6h[4:1],,5,4/7,,1x/8x,1x/8x,,
{8}2,2,4,4,5,5,7,7,
{8}3,3,1,1,8,8,6,6,
{16}4,5,4,5,4,5,4,5,3,6,3,6,2,7,2,7,
{8}1b,,2/8,2/8,,4b/6b,3b/7b-3[8:1],,
{8}1xh[4:3],,,,,,5x,2x/6x,
{1},
{1},
{1},
E
&inote_5=(170){4},,Chf[4:2],,
{8}8h[4:1],,1,2h[4:1],,1,8,7,6h[4:1],,5,2h[4:1],,4,{16}2,3,4,5,
{8}7h[4:1],,5,3h[4:1],,4,3,2,8/1h[4:1],7,6,1-5-1b[4:1]/5h[4:1],,1x,,,
{16}2/8,,6,5,6,,3/4,,2,1,2,1,2,,3/8,,4/7,,6,5,6,,3/4,,{8}2-6[8:1]/6-4[8:1],1/7,2x/6x,,
{16}3,4,2,,6,5,7,,{24}1,8,1,8,1,8,A2,A3,A4,A5,A6,A7,{8}1b-7-5[8:1],,1/2b,3b-7[8:1],,3/5x,1bx,,
{16}8h[16:3],,,7h[16:3],,,{8}6>3[8:1],,1,1,2/8,3/7,4>1[8:1],6,8h[4:1],,1x,2x/7x,,
6,6<1[8:1],4,2h[4:1],,4,3/5,4/6,7-3[8:1],2<4[4:1],7,2,,8b,2b/6b,,
3,3-6[8:1],5,7h[4:1],,8,6,4,1/2,7/8,5/6,{16}2,4,3,5,4,6,5,,{8}7/8,
1,2/8,3/7,{16}4,5,4,5,4,5,{32}A2,A3,A4,A5,A6,A7,,,{8}1x/2x,3-6[8:1]/7-2[8:1],,3/7,,1/5,4bv1[8:1]/8bv5[8:1],,
Cf,,3/7,{16}6,6,5,,{8}8,2,4,7,5,{16}6xp4[8:3]*pp4[8:3],6x,6x,6x,{8},,,,
1h[8:1]/2h[8:1],,3/8,4,{16}6,5,6,5,{8}8,1/7,2-5[8:1],5>7[4:1],2<7[8:1],6h[4:1],,,6,4,
{4}3-1[8:1]/1-4[8:1],3/1,8-5[8:1]/5-7[8:1],8/5,2-4-8[4:1]/1xh[8:1],{8}5,5,1-5[8:1]/7-5[8:1],8,1/7,,
8h[4:1]/2>5[8:1],,2,7<4[8:1],,7/8,1,{4}2-4[8:1],2-5[8:1]/5h[8:1],2/6h[8:1],{8}7/8,1/6,,
{16}3-1[8:1],4,3,4,3,,,,2-4[8:1],1,2,1,2,,,,{8}5h[8:1]/6h[8:1],,7/8,6,4,1/2,{16}7,6,5,4,
2-5[8:1],1,2,1,2,,,,3-8[8:1],4,3,4,3,,,,{8}7,7p3[8:1],5,7,,2,8,5/6,
{16}3>8[8:1],4,3,4,3,,,,2>5[8:1],1,2,1,2,,,,{8}7h[8:1]/6h[8:1],,8/5,1V72[4:1]/4V63[4:1],,,,,
{16}8,1,8,,2,2,3,3,4,4,5,5,6,6,7pp3[8:3],,{8}5h[8:3],,,Cf,,1x/8x,2b>8[4:1]/7b,,
1b,,,{16}2,1,{8}2h[8:1],3h[8:1],4h[8:1],5h[8:1],{16}6,,,1/8,,,{8}3/4,,1b,3b/7b<1[4:1],,
8,,,{16}7,8,{8}7h[8:1],6h[8:1],5h[8:1],4h[8:1],{16}3,,,8/1,,,{8}6/5-1[8:1],,8b,8b,,
7-3[8:1],4>1[8:1],7,4,,7/8,5/6,3/4,2>5[8:1],1,2,{16}8,7,6,5,{8}3/4,1,3/7,
8-4[8:1],7-5[8:1],8,7,,2,8,5/6,4-8[8:1],3-1[8:1],4,3,,8x,2b/6bpp4>5b[4:7],,
{1}E4f/B3/B4,,
{8}3h[4:1],,4,2h[4:1],,4,3/5,,5h[8:1],,5h[8:1],,5,5,4/6,,
6h[4:1]/7h[4:1],,,6h[4:1]/7,,5,5,5,6h[4:1]/7h[4:1],,,7h[4:1]/6,,5,5,5,
E7/B6,E5/B4,E3/B2,E1/B8,{32}D5,D4,D3,D2,D1,D8,D7,D6,{8}D5,,1/8,2,1/8,7,1>4[8:1]/8<5[8:1],2/7,1b/8b,,
{4}Chf[4:3],,,B8/A8/B4/A4,
{8}1-5[8:1],6<4[4:1],1,6,,5,7,1/2,3>8[8:1],5,3,{16}7,6,5,4,{8}1x,2x/8x,3/7,
6v4[8:1],4-6-8[8:1],6,2h[4:1],,1,3,5/6,8,6,3/4,{16}2,1,2,,{8}3/8,5,7/8,
2,2>5[8:1],5qq7[4:1],2,,8h,8h,8h,6,5,3/4,{16}1,2,3,4,{8}5x/6x,4x>1[8:1]/8x<5[8:1],,
4/8,,4/8,2h[4:1]/6,,1,3/4,5/6,7-2[8:1],3-6[8:1],7,3,,1/8,2b/7b,,
{8}8-4[8:1],3>5[4:1],8,3,,4,2,8,6h[8:1]/7h[8:1],,5h[8:1]/8h[8:1],,6/7,1x/4x,6x/7x,,
3v5[8:1],5-3-1[8:1],3,7h[4:1],,8,6,4xh[4:1]/3,,1x,2/3,{16}4x,4,{8}2x-8[8:1],6-4[8:1],2x,6,
3,3qq5[4:1],5,3,,7-3[8:1]*-5[8:1],7,7,,4-8[8:1]*-2[8:1],4,4,,5x/6x,4x>1[8:1]/8x<5[8:1],,
8/4,,4/8,2/6h[4:1],,5,1/8,7/3h[4:1],,4w8[8:1],3/5,4,,1x/7x,{4}4bw8b[8:1],
,A2/A6,C,A3/A7,C,A4/A8,Ch[4:1],,
A1/A5,C,A2/A6,C,{8}A3,A4,A5,A6,,D2/D8,D4/D6,,
{4}Ch[4:1]/E1/E5,,A6/B6,A5/B5,A4/B4,A3/B3,{8}E1,C,E5,,
{8}3h[8:3],,,5h[4:1],,4,4,6-4[8:1],,2-6[8:1],,8-4[8:1],,1,1x>7[4:1],,
,,,{16}8x,8x,{8}8x-4b[8:1],2/6,,,
1x/7x,{16}3,5,4,6,5h[4:1],,,,8,7,6,5,4,3,{8}2>5[8:1]/8,1,2/6-3[8:1],7,6/1-5[8:1],8x,1x/7x,,
4/6,{16}3,5,2,4,1h[4:1],,,,5,6,7,8,1,2,{8}3/4,8,5/6,1,2/4,8,5/7,1/8,
2/7,{16}6,4,5,3,4h[4:1],,,,1,2,3,4,5,6,{8}7<4[8:1]/1,8,7/3-6[8:1],2,3/8-4[8:1],1x,8x/2x,,
3/5,,7/8,4/6,,1/2,4/5,{4}8-4[8:1]/7-5[8:1],8-2[8:1]/7-3[8:1],8/7,{8}5x/6x,2b/8b,,
4h[4:1],,5,7h[4:1],,5,4,3,5h[4:1],,4,2h[4:1],,4,{16}2,3,4,5,
{8}7h[4:1],,5,3h[4:1],,4,5,6,5/7,4,5,2/4,,1x/8x,1x/8x,,
1/7,4/5,2/8,{16}3,3,4,,{8}1/2,5/7,{16}6,6,5,7,7,,2/4,,1,1,8,,{8}4/5,2/7,,
{16}3,6,3,6,{24}2,7,2,7,2,7,{32}A1,A2,A3,A4,A5,A6,A7,A8,{8}C,,4bh[4:1]/5bh[4:1],,,2-4-8[8:1]/7-5-1[8:1],,2/7,D1f/A1/A8,,
4/5,,2,7,3-7[8:1],6-2[8:1],3,6,
