&title=魔法少女とチョコレゐト
&artist=ピノキオピー
&first=0.45
&des_4=はっぴー
&des_5=Redarrow
&lv_2=3
&lv_3=6
&lv_4=9
&lv_5=13
&inote_2=
(150){1},
{1},
{1}1xh[1:1],
{1},
{1}8xh[1:1],
{1},
{2}1,1,
{1}1/8,
{2}8,8,
{1}1/8,
{1}1xh[2:1]/2xh[2:1],
{1}1/2,
{1}3h[2:1]/4h[2:1],
{1}3/4,
{1}5h[2:1]/6h[2:1],
{1}5/6,
{1}7h[2:1]/8h[2:1],
{1}7x/8x,
{1}B8,
{1}B1,
{1}B7,
{1}B2,
{1}B6,
{1}B3,
{1}B5,
{1}C1,
{1}1h[1:1]/8h[1:1],
{1},
{2}8b,8,
{2}7,7,
{2}6,6,
{2}4/5,4/5,
{2}4x,4,
{2}3,3,
{2}2,2,
{2}1x/8x,1x/8x,
{4}1b,1,1,,
{2}2,2,
{4}3,3,3,,
{2}4,4/5,
{4}5,5,5,,
{2}6,6,
{4}7,7,7,,
{1}1x/8x,
{1}8-5[4:3],
{1},
{1}1-4[4:3],
{1},
{1}8-4[4:3],
{1},
{1}1-5[4:3],
{1},
{2}8x,8x,
{1}1xh[1:1]/8xh[1:1],
{1},
{1}1bx/8bx,
{1}1x-4[4:3]/8x-5[4:3],
{1},
{2}4/5,4/5,
{1}4/5,
{2}3,3,
{1}3/4,
{2}6,6,
{1}5/6,
{4}4b,4,4,,
{4}3,3,3,,
{4}2,2,2,,
{4}1,1,1/8,,
{4}8,8,8,,
{4}7,7,7,,
{4}6,6,6,,
{4}5,5,4/5,,
{1}4x-1[4:3]/5x-8[4:3],
{1},
{2}1/8,1/8,
{1}1/8,
{4}7,7,7/8,,
{4}1,1,1/8,,
{4}2,2,1/2,,
{1}8xh[4:3],
{1},
{1},
{1},
E
&inote_3=
(150){1},
{1},
{4},3,,3,
{4},4,,4,
{4},5,,5,
{4},5/6,,,
{4}6,6,6,,
{4}5,5,5,,
{4}4,4,4,,
{1}3b/4b,
{1}1h[8:3]/2h[8:3],
{1}3h[8:3]/4h[8:3],
{1}5h[8:3]/6h[8:3],
{1}7h[8:3]/8h[8:3],
{8}5x/6x,,,5x/6x,,,,,
{8}3x/4x,,,3x/4x,,,,,
{4}2,2,1/8,1h[8:3]/8h[8:3],
{1},
{4}B1,B2,B3/B4,,
{4}B8,B7,B5/B6,,
{2}B3/B4,B1/B2,
{2}B7/B8,B5/B6,
{4}B4,B3,B1/B2,,
{4}B5,B6,B7/B8,,
{2}B1/B2,B3/B4,
{2}B5/B6,B7/B8,
{1}C1fh[1:1],
{1},
{4}1/2,1/2,1b/2b,,
{4}7/8,7/8,7b/8b,,
{4}7,7,6,6,
{4}5,5,3/4,,
{4}1/2,1bx/2bx,3/4,3bx/4bx,
{4}5/6,5bx/6bx,7/8,7bx/8bx,
{4}1,1,1,,
{4}1x/8x,1x/8x,1x/8x,,
{4}7,7,7,7/8,
{4}6,6,6,5/6,
{4}4,4,4,3/4,
{1}1h[8:3]/2h[8:3],
{4}7/8,7/8,7b/8b,,
{4}1/2,1/2,1b/2b,,
{4}3,4,5,6,
{4}7x/8x,7x/8x,7x/8x,,
{1}7-4[2:1]/8-3[2:1],
{1}1h[2:1]/2h[2:1],
{1}1-6[2:1]/2-5[2:1],
{1}7h[2:1]/8h[2:1],
{1}6-3[2:1],
{1}2-7[2:1],
{4}8,8,1,1,
{4}2,2,1/8,1xh[8:5]/8xh[8:5],
{1},
{1}7x<4[2:1]/8x>3[2:1],
{1}1x<6[2:1]/2x>5[2:1],
{1},
{1}7b/8b,
{1}1b/2b,
{4}3,3,3/4,,
{4}6,6,5/6,,
{4}7/8,7bx/8bx,5/6,5bx/6bx,
{4}3/4,3bx/4bx,1/2,1bx/2bx,
{4}8,8,8,,
{4}1x/8x,1x/8x,1x/8x,,
{4}2,2,2,1/2,
{4}3,3,3,3/4,
{4}5,5,5,5/6,
{1}7h[8:3]/8h[8:3],
{4}1/2,1/2,1b/2b,,
{4}7/8,7/8,7b/8b,,
{4}6,5,4,3,
{4}1x/2x,1x/2x,1x/2x,,
{2}2h[2:1],3h[2:1],
{2}4h[2:1],5,
{2}7h[2:1],6h[2:1],
{2}5h[2:1],4,
{4}3,3,3,3/4,
{4}6,6,6,5/6,
{4}7,7,8,8,
{1}1h[8:3]/8h[8:3],
{1},
{1},
{1},
E
&inote_4=
(150){4}3,4,5p4[2:1],,
{2},3bxh[4:1],
{4}3,2h[4:7],,4,
{4},4,,4,
{4}6,7h[2:3],,5p4[2:1],
{4},,,4,
{4}3,2/4,6,5/7,
{4}3,2/4,8,1/7,
{4}2h[4:1],1,7h[4:1],8,
{1}1>8[2:1],
{8}7h[8:3],,,5,,,4,,
{8}2h[8:3],,,4,,,5b,,
{8}7h[8:3],,,5,,4,4,,
{8}2h[8:3],,,4,,,E5,,
{8}6h[8:3],,,5,,,1,,
{8}2h[8:3],,,4,,,8x,,
{8}4/7,,3/6,,2/5,,1,1h[4:1],
{8},8-4[4:1],,,,3x,3x,,
{8}2h[4:1]/4h[4:1],,,,,1/8,1/8,,
{8}5h[4:1]/7h[4:1],,,,,1/8,1/8,,
{4}2h[4:1],4h[4:1],5h[4:1],7xh[4:1],
{8}2,,8,8h[4:1],,1,1,,
{4}3,2>5[4:1],,,
{4}6,7<4[4:1],,,
{8}3h[4:1],,1h[4:1],,8h[4:1],,6,6<3[8:5],
{1},
{2},B3/B4,
{4}B5/B6,,E5,3x/4x,
{8}2,2,1-4[8:1]*-5[8:1],,,,3x/6x,,
{8}7,7,8-3[8:1]*-4[8:1],,,,,2,
{4}2h[4:1],4,7h[4:1],5,
{4}2/4,5/7,2/4,5/7,
{4}4/6,8b,3/5,1b,
{4}5/6,8b,3/4,1b,
{4}7h[2:1],8,2h[2:1],1,
{4}7,4/5,3/6,1b/8b,
{4}2/8,1/7,2/8,1/7,
{4}2/8,1/7,2/8,1/7,
{8}6,6,5,,3,3,4,,
{4}5/6,7/8,1/2,3/4,
{8}2,2,1-4[8:1]*-5[8:1],,,,3x/6x,,
{8}7,7,8-3[8:1]*-4[8:1],,,,,,
{2}2-5[8:1],7-4[8:1],
{4}3h[4:1],5,2b/6b,,
{8}7,7h[8:9],,5,5,,6,,
{4}4,5h[4:1],,4/6,
{8}2,2h[8:9],,4,4,,3,,
{4}5,4h[4:1],,5/3V57[2:1]v1[384:95],
{1},
{1}7-5[4:1]v3[4:1],
{8}2h[4:1]/4h[4:1],,,2/4,2h[4:1]/4h[4:1],,,4/5,
{8}4h[4:1]/5h[4:1],,,5/7,5h[4:1]/7h[4:1],,,8<1[8:5],
{1},
{1}C1h[2:1],
{1}C1h[2:1]/B3/B6,
{1}C1h[2:1]/B2/B7,
{1}1h[8:7]/8h[8:7],
{8}2/7,2h[8:5]/7h[8:5],,,,,,,
{2}3-8[4:1],6-1[4:1],
{8}3,3h[4:1],,4,,2/5,,1/8,
{4}1/8,3b/6b,4/6,8b,
{4}3/4,1b,5/6,8b,
{4}2h[2:1],1,7h[2:1],8,
{4}2,4/5,3/6,1b/8b,
{4}1/7,2/8,1/7,2/8,
{4}7/8,1/2,7/8,1/2,
{8}3,3,2/4,,6,6,5/7,,
{4}3/4,1/2,7/8,5/6,
{8}7,7,8-4[8:1]*-5[8:1],,,,3x/6x,,
{8}2,2,1-5[8:1]*-6[8:1],,,,,,
{2}7-3[4:1],2-6[4:1],
{4}7h[4:1],1,2b/6b,,
{4}3,2h[4:3],,4,
{4}6,7h[4:3],,5,
{4}3,2h[4:3],,4,
{4}6,7h[2:1],,1b,
{4}2/4,5/7,2/4,5/7,
{4}1/2,7/8,1/2,7/8,
{4}1bh[4:7],,,4qq8[4:3],
{1},
{1},
{1},
E
&inote_5=(150)
{8}
B1,B2,B3,B4,B5,B6,B7,B8,1xs5[8:1],,,,6hx[4:1]/5hx[4:1],,,,
3h[1:2],,4,,,,4,,,,4,,,,4,,6h[8:10],,5,,,,5,,,,5-1[8:1]*-8[8:1],,,,2b/7b,,
{16}
4/6-1[8:1],,4,,6,5h[4:1],,1x,,8x,,4x/7x,4x/7x,,6x,,
5/3-8[8:1],,5,,3,4h[4:1],,8x,,1x,,5x/2x,5x/2x,,3x,,
3/5,,4,,3,,5,,4/6,,5,,7,,5,,4/6,,,,2z6[4:1]/7s3[4:1],,,,,,,,,,,,
3h[4:1],,,,4,,3h[2:1],,,,,,E4,,E3,,6h[4:1],,,,5,,6h[2:1],,,,,,E6f,,,,
3h[4:1],,,,4,,3h[2:1],,,,,,E4,,E3,,1,,1,,2,,3h[4:1],,,,4,,5,,5,,
6h[4:1],,,,5,,6/7h[2:1],,,,,,E8,,E7,,3h[4:1],,,,4,,3/2h[2:1],,,,,,E2,,E3,,
3/4,,,,5/7,,,,2/4,,,,1/5,,3-6[8:3]/7-2[8:3],,,,,,,,,,,,,,C,,,,1hx[8:1]/8hx[8:1],,,,
2>5[8:2],,2,,,,,,,,,,5hx[8:1]/6hx[8:1],,,,7<4[8:2],,7,,,,,,,,,,2-7[8:1],,,,6-3[8:1],,,,,,,,
1hx[8:1]/2hx[8:1],,,,8-4[8:1],,,,1-5[8:1],,,,,,,,4/6,,,,
3<6[4:1],,,,6V84[8:3],,,,,,,,,,,,
6>3[4:1],,,,3V15[8:3],,,,,,,,,,,,
2p6[4:1],,,,6p2[4:1],,,,8,,8-4-8[2:1],,,,1,,,,1-5-1[2:1],,,,,,,,,,,,,,
6h[4:1],,,,5,,,,3h[4:1],,,,4,,,,5,,4/6,,3-8[8:1]/7-4[8:1],,,,{32}E8/E4,C,,,,,,,
{16}2b/6b,,,,
1-5[8:1]/8,,7,7,1>4[8:1],,6,6,1,,,,7,,5,,4/8-4[8:1],,3,,2/8<5[8:1],,1,1,8w4[8:1],,,,,,,,
2,,1/3,,4,,3/5,,7,,8/6,,5,,6/4,,2hx[16:3],,,3h[16:3],,,4,,4/5,,,,
5,4,5,4,5bx<3[4:1],,,,3,,3,,4bx>6[4:1],,,,6,,6,,5bx<3[4:1],,,,3,,3,,4bx>6[4:1],,,,
6,,6,,5,,4,,3/5,,4,,5,,6,,5/7,,6,,7/3,,5,,2/8,,6,,1-4b[8:1]*s5b[8:1]/2,,,,1b,,,,
3/6-2[8:1],,4,,6,5h[4:1],,2x,,1x,,4x/8x,4x/8x,,2x/6x,,
7/3-7[8:1],,5,,3,4h[4:1],,7x,,8x,,5x/1x,5x/1x,,7x/3x,,
2>5[8:1],,2,,7-3[8:1],,7,,1<6[8:1],,1,,5-1[8:1],,5,,4,,4,,
3v8[8:1]/5v8[8:1],,3/5,,,,,,1b/7b,,,,
8-4[8:1]/1,,2,2,8<5[8:1],,3,3,8,,,,2,,4,,5/1-5[8:1],,6,,7/1>4[8:1],,8,8,1w5[8:1],,,,,,,,
3xh[4:1]/1x,,,,4,,5,,6xh[4:1]/8x,,,,5,,4,,3-7[8:1]/5-1[8:1],,,,3<6[4:1]/5>2[4:1],,,,,,,,,,,,
6,,6h[1:1],,,,5,,,,5,,,,7,,,,7,,7xh[8:1]/8xh[8:1],,,,6,,5,,4,,,,
3,,3h[1:1],,,,4,,,,4,,,,2,,,,2,,2xh[8:1]/1xh[8:1],,,,3,,,,
8xh[999:1],7xh[999:1],6xh[999:1],5xh[999:1],4xh[8:1]/3xh[8:1],,,,3xh[999:1],2xh[999:1],1xh[999:1],,7xh[999:1],,8xh[999:1],7xh[8:1]/8xh[8:1],,,,,
4xh[8:1]/5xh[8:1],,,,5xh[999:1],,6xh[999:1],,7xh[999:1],,8xh[999:1],1xh[8:1]/8xh[8:1],,,,,
3,,3>8[8:1],,,,7<4[8:1],,,,2<7[8:1],,,,6>3[8:1],,,,1-5[8:1],,1,,1,,,,4-8[8:1],,4,,4,,,,
1h[8:1]/7h[8:1],,,,4h[8:1]/6h[8:1],,,,1h[8:1]/2h[8:1],,,,5h[8:1]/6h[8:1],,,,,,,,,,
{64},
{16}
Ch[8:10],,,,,,,,,,B1/B8,,,,,,E1/A8,,,,,,1,,1,,1w5[8:1],,,,,,,,,,3/7,,,,
1h[4:3]/2>6[2:1],,,,,,,,,,,,,,,,7h[4:3]/6>2[2:1],,,,,,,,,,,,,,,,
4<8[2:1]/5>1[2:1],,,,,,,,,,,,,,,,1/8,,1-5[8:1]/8-4[8:1],,,,1/8,,,,,,
4/6,,3/5,,5bx<3[4:1]/4bx,,,,2,,3,,4bx>6[4:1],,,,6,,5,,4bx<3[4:1],,,,3,,4,,5bx>6[4:1],,,,
7,,6,,5,,4,,3/1,,2,,1,,8,,7/5,,6,,3/7,,4/5,,2/8,,5/6,,2/1-4b[8:1]*s5b[8:1],,,,1b,,,,
3/6-2[8:1],,4,,6,5h[4:1],,2x,,1x,,4x/8x,4x/8x,,2x/6x,,
7/3-7[8:1],,5,,3,4h[4:1],,7x,,8x,,5x/1x,5x/1x,,7x/3x,,
2>5[8:1],,2,,7-3[8:1],,7,,1<6[8:1],,1,,5-1[8:1],,5,,4,,4,,
3v8[8:1]/5v8[8:1],,3/5,,,,,,1b/7b,,,,
1-5[8:1]/8,,7,7,1>4[8:1],,6,6,1,,,,7,,5,,4/8-4[8:1],,3,,2/8<5[8:1],,1,1,8w4[8:1],,,,,,,,
3xh[4:1]/1x,,,,4,,5,,6xh[4:1]/8x,,,,5,,4,,3>8[8:1],,,,7>2[8:1],,,,,,,,5b,,,,
4h[1:2],,,,B3/E4,,,,,,,,A2/E2,,,,,,,,B3/E4,,,,,,,,E6/B6,,,,
5h[4:6],,,,B6/B7,,,,,,,,E8/B8,,,,,,,,B2/E3,,,,1x-4b[8:1]*s5b[8:1],,,,1b,,,,
3/7-3[8:1],,4,,7,6h[4:1],,3x,,2x,,1x/5x,1x/5x,,3x/7x,,
6/2-6[8:1],,5,,2,3h[4:1],,6x,,7x,,8x/4x,8x/4x,,6x/2x,,1h[4:3]/7h[4:3],,,,,,,,,,,,,,,,
2h[8:3]/8z4[2:1],,,,,,,,,,D2,A1,D1,
