&title=ロウワー
&artist=ぬゆり
&first=1.65
&des_4=翠楼屋
&des_5=緑風 犬三郎
&des_6=はっぴー
&lv_2=2
&lv_3=6
&lv_4=8+
&lv_5=11
&lv_6=13
&inote_2=
(132){1}4h[1:1],
{1},
{1}5h[1:1],
{1},
{1}5,
{1}5,
{1}4,
{1}4/5,
{1}3,
{1}2,
{1}1,
{1}8,
{1}7,
{1}6,
{1}5,
{1}4/5,
{2}5,5,
{1}5,
{2}6,6,
{1}6,
{2}7,7,
{1}7,
{2}8,8,
{1}1/8,
{2}1,1,
{1}1,
{2}2,2,
{1}2,
{2}3,3,
{1}3,
{2}4,4,
{1}4/5,
{1}B4,
{1}B5,
{1}B3,
{1}B6,
{1}B2,
{1}B7,
{1}C1h[1:1],
{1},
{2}8b,8,
{2}7,7,
{2}6,6,
{1}4x/5x,
{2}4x,4,
{2}3,3,
{2}2x,2,
{2}1x,1,
{1}1-4[4:3],
{1},
{1}8-5[4:3],
{1},
{1}1-5[4:3],
{1},
{1}8-4[4:3],
{1},
{1}3h[1:1]/4h[1:1],
{1},
{1}5h[1:1]/6h[1:1],
{1},
{1}4h[1:1]/5h[1:1],
{1},
{1}B4/B5,
{1}C1fh[1:1],
{1},
{4}1b,1,1,,
{2}2,2,
{4}3,3,3,,
{2}4/5,4/5,
{4}5,5,5,,
{2}6,6,
{4}7x,7,7,,
{2}8x,8,
{4}1x,1,1,,
{2}1x/8x,1/8,
{1}2bx/7bx,
{1},
{1},
{1},
E
&inote_3=
(132){2}2,2,
{2}3,3,
{2}4,4,
{2}5/6,5/6,
{2}7,7,
{2}6,6,
{2}5,5,
{2}3/4,3b/4b,
{2}2h[2:1],3h[2:1],
{2}4h[2:1],5,
{2}7h[2:1],6h[2:1],
{2}5h[2:1],4,
{2}2h[2:1],3h[2:1],
{2}4h[2:1],5,
{2}6h[2:1],5,
{4}4x/5x,4x/5x,4x/5x,,
{4}3,3,3/4,,
{4}2,2,1/2,,
{4}8,8,7/8,,
{1}5h[2:1]/6h[2:1],
{4}6,6,5/6,,
{4}7,7,7/8,,
{4}1,1,1/2,,
{1}3h[2:1]/4h[2:1],
{4}B2,B3,B4,,
{4}B7,B6,B5,,
{4}B2,B1,B8,B7,
{1}C1h[2:1],
{4}B7,B6,B5,,
{4}B2,B3,B4,,
{4}B7,B8,B1,B2,
{1}C1h[2:1],
{2}2h[2:1],1,
{2}7h[2:1],8,
{2}2h[2:1],1,
{2}7h[2:1],8,
{2}6h[2:1],5,
{2}3h[2:1],4,
{4}5,5,5/6,,
{4}4,4,3b/4b,,
{4}3,3,2,2,
{4}1,1,7/8,,
{4}6,6,7,7,
{4}8,8,1/2,,
{4}2,2,3,3,
{4}4,4,5/6,,
{4}7x/8x,7/8,7/8,,
{4}1x/2x,1/2,1/2,,
{1}2-5[2:1],
{1}7-4[2:1],
{1}2-6[2:1],
{4}7,7,7/8,,
{1}7-4[2:1],
{1}2-5[2:1],
{1}7-3[2:1],
{4}2,2,1/2,,
{2}2h[2:1],3h[2:1],
{2}4h[2:1],5h[2:1],
{2}6h[2:1],7h[2:1],
{2}8,1/8,
{2}7h[2:1],6h[2:1],
{2}5h[2:1],4h[2:1],
{2}3h[2:1],2,
{4}2bx/4bx,,4/5,4/5,
{4}5bx/7bx,,4/5,4/5,
{4}3,3,1/2,1/2,
{4}8,8,7/8,,
{4}6,6,7/8,7/8,
{4}1,1,1/2,,
{4}3,3,1/2,1/2,
{4}8,8,7/8,,
{4}1x/2x,1/2,1/2,,
{4}7x/8x,7/8,7/8,,
{4}1x/2x,1/2,3/8,,
{4}7x/8x,7/8,1/6,,
{1}1bx/8bx,
{1},
{1},
{1},
E
&inote_4=
(132){1}4h[4:29],
{1},
{1},
{1},
{4},5,,5,
{4},5,,5,
{4},5,,5,
{4},5,4x/5x,3x/6x,
{4}3b,3/4,6,5/6,
{8}3,,2/4,,1,1,1/8,,
{4}6,5/6,3,3/4,
{8}6,,5/7,,8,8,1/8,,
{4}3,2/4,6,5/7,
{8}3,,2/4,,2,2,1/2,,
{4}3,2/4,6,5/7,
{4}7x/8x,1x/2x,3x/6x,4x/5x,
{4}3-5[4:1],,6,6,
{4}7-4[4:1],,3,3,
{4}2-5[4:1],,6,6,
{4}5/7,5/7,6,5/7,
{4}6-3[4:1],,2,2/4,
{4}3-6[4:1],,7,5/7,
{4}6>3[4:1],,2,2h[4:3],
{4}1,1,8,2/8,
{8}3-5[4:1],,,,6,6,5/6,,
{8}7-4[4:1],,,,3,3,3/4,,
{8}2-6[4:1],,,,7,7,5/7,,
{4}6h[4:1],8h[4:1],7h[4:1],5,
{8}6-1[4:1],,,,2,2,1/2,,
{8}3-8[4:1],,,,7,7,7/8,,
{2}6>3[4:1],2q6[4:1],
{8}7,7,7/8,,1/6,,,,
{4}E2,C1,E6,E5/E7,
{4}E8,C1,E4,2,
{2}2h[4:1]/4h[4:1],3h[4:1]/5h[4:1],
{8}2/4h[4:1],,2,,3,3,4,,
{4}E2,C1,E6,E5/E7,
{4}E8,C1,E3/E5,E2,
{8}1x,1x,1x,,2/8,,3>8[4:1]/7<4[4:1],,
{2},1x/5x,
{8}3,3,4,2h[4:1],,1,1,,
{8}8,8,1,7h[4:1],,6,6,,
{2}7-4[8:1]/8-4[8:1],1-5[8:1]/2-5[8:1],
{8}7x/8x,,1x/6x,,3/5,3/5,3/5,,
{8}6,6,5,7h[4:1],,8,8,,
{8}1,1,8,2,,3x/4x,,2xh[4:1],
{8},4,4h[4:1],,5,,7x,7xh[4:1],
{8},5,5,,4h[2:1]/6,,,,
{4}8b,7,7/8,1h[1:1]/6>3[4:1],
{4},,4x,4x,
{4}1,2,1/2,8h[1:1]/3<6[4:1],
{4},,5x,5x,
{2}7-4[4:1],2-7[4:1],
{4}5-2[4:1],,1,1,
{8}8/2>5[4:1],,,,6,,7x/8x,7bx/8bx,
{8},1,1,,2bx/8bx,,4x/6x,,
{1}C1h[1:3]/B3/B7,
{1},
{1},
{1},
{4}5,5h[2:5],,4,
{4},4,,4,
{4},4,,4,
{12}4x/6x,4x/6x,4xh[3:1]/6xh[3:1],,,,,,,,,,
{12}3x/5x,3x/5x,3xh[3:1]/5xh[3:1],,,,,,,1x,,,
{8}2,2,1,3h[4:1],,4,3/4,,
{8}5,5,4,6h[4:1],,5,5/6,,
{2}7x-4[8:1]/8x-3[8:1],1x-6[8:1]/2x-5[8:1],
{8}4bx/7bx,,4/7,,3/5,3/5,3/5,,
{8}2,2,1,3h[4:1],,4,3/4,,
{8}5b/6b,,7b/8b,,1x/2x,,3x,3xh[4:1],
{8},5,5h[4:1],,6,,7x/8x,7xh[4:1]/8x,
{8},5,5h[4:1],,4,,3x/6x,3xh[8:3]/6x,
{8},4,4,,2/5,,7x/8x,7x/8x,
{8},1/2,1/2,,1/8,,2bxh[4:1]/7bxh[4:1],,
{4},C1f/B3/B4/B5/B6,,,
{1},
{1},
{1},
E
&inote_5=(132)
{8}5,6h[8:15],5,,5,,5,
,4,,4,,4,,4,
4,3h[8:15],,4,,4,,4,
,5,,5,,5,,5,
5,6h[8:15],,5,,5,,5,
,4,,4,,4,,4,
4,3h[4:3],,4,,4,,4,
{1}4q5[8:3],
{8}1/8,7,5h[8:1]/6h[8:1],,4,4,5,5,
2h[4:1],1,8h[4:1],1,2h[4:1],1,8,,
8/1,2,4h[8:1]/3h[8:1],,5,5,4,4,
7h[4:1],8,1h[4:1],8,7h[4:1],8,1,,
1/8,7,4h[8:1]/6h[8:1],,3,3,5,5,
3h[4:1],1,7h[4:1],1,3h[4:1],1,7,,
8/1,2,5h[8:1]/3h[8:1],,6,6,4,4,
3x/5x,,5x/7x,,1x/2x,,7x/8x,,
6h[4:1],5,4h[4:1],5,7h[4:1],5,4h[4:1],5,
6h[4:1],5,3h[4:1],5,7h[4:1],5,4h[4:1],5,
6h[4:1],5,4h[4:1],5,7h[4:1],5,4h[4:1],6,
8-4[8:1],,2-6[8:1],,7,7,5,,
3h[4:1],4,5h[4:1],4,2h[4:1],4,5h[4:1],4,
3h[4:1],4,6h[4:1],4,2h[4:1],4,5h[4:1],4,
3h[4:1],4,5h[4:1],4,2h[4:1],4,5h[4:1],3,
1,1,6,6,4,4,3/7h[4:3],,
E7,E6,E5,E4,3h[2:1],E2,E1,E8,
6h[2:1],E6,E5,E4,2h[2:1],E1,E8,E7,
5h[2:1],E4,E3,E2,1h[2:1],E6,E7,E8,
8<5[8:1],,3>8[8:1],,6>3[8:1],,2h[4:3],,
E3,E4,E5,E6,6h[2:1],E8,E1,E2,
3h[2:1],E4,E5,E6,7h[2:1],E1,E2,E3,
4h[2:1],E6,E7,E8,8h[2:1],E4,E3,E2,
1h[4:3],,4,4,5,5,6,,
7-4[8:1],,3-8[8:1],,6,6,4,4,
8,8,3,3,2/4,,1v6[8:1]/2>5[8:1],1/2,
,,8v3[8:1]/7<4[8:1],8/7,,,1v6[8:1]/2>5[8:1],1/2,
,,7/8,,5/6,5/6,4/7,,
2-5[8:1],,6-1[8:1],,3,3,5,5,
1,1,6,6,7/5,,6,6h[8:1],
8,8h[8:1],1,1h[8:1],3,3,4>1[4:1]/5<8[4:1],4/5,
,,,,1b/8b,,2-5[8:1]/7,,
8<3[4:1],8,2,2h[4:1],,4x,2x/4x-8[8:1],,
1>6[4:1],1,8,8h[4:1],,5,5,,
7>2[8:1],7,3<6[8:1],3,7>2[8:1],7,3qq5[2:1],3,
6,,,,7,,8-4[8:1],8,
1>6[4:1],1,7,7h[4:1],,5x,5x-1[8:1]/7x,,
8,8,1x/7x,2x/6x,,1-5[8:1]/2-4[8:1],,1x/2x,
,6,6,5,7,7-5[8:1]/8-4[8:1],,7x/8x,
,3,3<6[8:1],,7h[4:1],,5,,
6,6,1p1[4:1],1,5,,6,,
7,7,5,4,3<6[8:1],3,7,,
8,8,1,2,3-8b[8:1]/6-1b[8:1],3/6,,,
7,5,4,2,7,5,4,2,
1>4[8:1]*<6[8:1],1,,,8<5[8:1]*>3[8:1],8,,,
1>4[8:1]/5<8[8:1],1/5,,,8<5[8:1]/4>1[8:1],8/4,,,
1-5[8:1]*-4[8:1]/5,,,,3/6,,2/7,2/7h[4:1],
,5,4,3,2/8-4[8:1],,3,,
{1}2h[1:2],
{4},5,,5,
7h[1:2],5,,5,
,4,,4,
3h[1:1],E4,,E5,
6h[1:1],E6,,E5,
3h[4:3],E4,,E5,
{12}4/6,4/6,4h[12:7]/6h[3:1],,,,,,,,,,
5b/3b,5b/3b,5bh[3:1]/3bh[3:1],,,,,,,8-4[8:1],,,
{8}2>5[8:1],2,7>2[8:1],7,4,4,8,8,
7<4[8:1],7,2<7[8:1],2,5,5,1,1,
2/8,3/7,4/6,1/7,2/6,3/5,2<7[4:1]/6>3[4:1],2/6,
,,,,8,8,1-5[8:1],1,
7<4[8:1],7,2<7[8:1],2,5,5,1,1,
2bx-6b[8:1],8xb-4b[8:1],,,,1-5[8:1]/2-4[8:1],,1/2,
,6,6,5,7,7-5[8:1]/8-4[8:1],,7/8,
,3,3,4,2,1-6[8:1]/2-5[8:1],,1bx/2bx,
,7,7,5,6,7-4[8:1]/8-3[8:1],,7bx/8bx,
,1,8<5[8:1],8,4>1[8:1],4,5-8b[8:1],5,
{4}1b-5[8:1],1bx/8bx,,,
{1},,,E
&inote_6=(132)
{8}5h[8:1],3,5h[8:1],4,5h[8:1],E5,5h[8:1],6,5h[8:1],6,5h[8:1],E5,5h[8:1],4,5h[8:1],3,
{8}4h[8:1],6,4h[8:1],5,4h[8:1],E5,4h[8:1],3,4h[8:1],3,4h[8:1],E5,4h[8:1],5,4h[8:1],5,
{8}5h[8:1],E5,6h[8:1],4,5h[8:1],E5,4h[8:1],6,5h[8:1],E5,6h[8:1],4,5h[8:1],E5,5h[8:1],4,
{8}4h[8:1],E5,3h[8:1],5,4h[8:1],E5,5h[8:1],3,4h[8:1],E5,5s1[8:3],5,4,,,,2-5[8:1],35,26,
{24}7,,7,5,,5,4,,4,2,,2,8,,,
{8}1-6[8:1],4,1-4[8:1],5,1-5[8:1],6,1,6,7-4[8:1],64,73,
{24}2,,2,4,,4,5,,5,7,,7,1,,,
{8}8-3[8:1],5,8v6[8:1],4,8-4[8:1],3,8,3,2-5[8:1],35,26,
{24}7,,7,5,,5,4,,4,2,,2,8,,,
{8}1-6[8:1],4,1-4[8:1],5,1-5[8:1],6,1,6,7-4[8:1],64,73,
{24}2,,2,4,,4,3,,,
{4}5/4>1[8:1],6/4<7[8:1],2x/4-8[8:1],6x/4-7[8:1]*-1[8:1],4x,
{8}7h[4:1],5,4h[4:1],5,{24}6,,6,5,,5,4,,4,5,,5,
{8}7h[4:1],5,3h[4:1],5,{24}6,,6,5,,5,4,,4,5,,5,
{8}7h[4:1],5,4h[4:1],5,{24}6,,6,5,,5,4,,4,5,,5,
{8}7h[4:1],5,3h[4:1],5,6h[8:1],5,47,,
{8}2h[4:1],4,5h[4:1],4,{24}3,,3,4,,4,5,,5,4,,4,
{8}2h[4:1],4,6h[4:1],4,{24}3,,3,4,,4,5,,5,4,,4,
{8}2h[4:1],4,5h[4:1],4,{24}3,,3,4,,4,5,,5,6,,,
{8}5/6h[8:1],5,4/3h[8:1],4,1/2h[8:1],1,8/7h[8:1],8,
{8}1>5[4:1],1,5,6,{24}7,,7,8,,8,1,,1,2,,,
{8}3<7[4:1],3,7,8,{24}1,,1,2,,2,3,,3,4,,,
{8}5<1[4:1],5,1,2,{24}3,,3,4,,4,5,,5,6,,,
{8}78,34,12,56,18,45,36,,
{8}8<4[4:1],8,4,3,{24}2,,2,1,,1,8,,8,7,,,
{8}6>2[4:1],6,2,1,{24}8,,8,7,,7,6,,6,5,,,
{8}4>8[4:1],4,8,7,{24}6,,6,5,,5,4,,4,3,,,
{8}2h[8:1]/4h[8:1],,5h[8:1]/7h[8:1],,35,35,26,,
{8}4/7h[8:1],4,5/2h[8:1],5,4/6h[8:1],4,3>7V13[2:1]/5,5,4,4,5,5,4,4,5/3h[8:1],6,4/8-5[8:1],5,4,3,4-1[8:1],5,6p4[8:3],5,,,,1,1,28,37,,
{8}5/2h[8:1],5,4/7h[8:1],4,5/3h[8:1],5,4/6-2-8[8:3],4,5,5,4,4,5,5,46,4,25,4,57,
{24}4,,4,6,,6,3,,,
{8}1>4[4:1]/8<5[4:1],45,,,,,45,,2b-4[8:1]/7b,,6V84[4:1],5,1,1,2,
{24}3,,3,4-7[8:1],,,
{8}2,1-5-3[4:1],2,6,6,7,8,1-4[8:1],1-6[8:1],1-5[8:1],,,
{24}6,,6,4,,,
{8}35,2-7-1[4:1]/6-3-5[4:1],17,,,,,
{24}8,,8,1,,,
{8}7-5[8:1],4,3V15[4:1],4,8,8,7,
{24}6,,6,5-2[8:1],,,
{8}7,8-4-7[4:1],7,1,1,,
{8}1-5[8:1]/2-6[8:1],34,1x/2x,,7,46,2,1,8-4[8:1]/7-3[8:1],65,8x/7x,,2,1p4[8:1]/8q5[8:1]b,27,,,
1pp1[4:1]/7,,4h[2:1],,,,5-8[8:1],6,7p2[4:1],,5h[2:1],,,,4-8[8:1]b,3,2pp2[4:1],,4h[2:1],,,,5,6,7/1hb[4:3],,A8/D8,D2/A2,E7/B7,B3/A3,A5/E5,,
{8}6pp4[4:1],,5h[2:1],,,,4q8[8:1],3,2pp1[4:1],,4h[2:1],,,,5qq1[4:1],6,7,,8,,4>1[8:1]/5<8[8:1],45,,,27,2b/7b,,6,4,2,1>5[8:1],5>1[8:1],6h[4:17],,
{4},,,,,,,4-2[8:1],,5-7[8:1],,4-2[8:1],,,4,3h[1:3],,B5/E5,,B4/E5,,B5/E5,,B4/E5,,B5/E5,,E5,
{12}4>1[8:1]/6<1[8:1],46,
{16}46,,,,,
{64},
{8}1-4[8:1]*-6[8:1],,1x,,
{12}5<8[8:1]/3>8[8:1],53,
{16}53,,,,,
{64},
{8}8x,,
{8}3b<5[8:1]/7b,2,8p4[8:1]/3,7,2-8[8:1]/8,3,2/5<8[8:1],4,3-6[8:1]/5,2,3/7-1[8:1],8,7/4>1[8:1],5,4/6-3[8:1],5,6/1>4[8:1]b,1<6[8:1]b,1-5[8:1]b,,,
{8}7,8-5[8:1],7,8/2>7v1[8:3],1,2/Cf,,,,
{24}8,,8,1,,,
{8}6>4[8:1],7,1q5[8:1]/6,2,7-1[8:1]/1,6,7/4>1[8:1],5,6-3[8:1]/4,7,6/2-5[8:1]b,1-6[8:1]b,2b,1b,,
{8}2<6[8:1]/8-4[8:1],45,2b/8b,,3,3,4,5,7>3[8:1]/1-5[8:1],45,7b/1b,,6,6,5,4,3<7[8:1]/5-1[8:1],18,3b/5b,,1,1,8,7,6>2[8:1]/4-8[8:1],81,6b/4b,,
8,8-4[8:1],1-5[8:1],8-6[8:1],1-3[8:1],8-4[8:1],1,8w4[8:1]b,,8b,,,,,,,,E
