&title=テオ
&artist=Omoi
&first=-0.03
&des=鳩ホルダー
&lv_4=10+
&lv_5=13
&inote_4=(185)
{1}
,,
{8}
,,,,,6,,,,6,,,,5,,,,5,,,,3/5,,,,3/5,,
{16}
4b,,,3b,,,1b-5[8:1]b/2b-4[8:1]b,,,,,,,,,,
{4}
6h[4:1],5,3h[4:1],4,7h[4:1],8,
{8}
2x,2x,1,,
{4}
7h[4:1],5,2h[4:1],4,7/5,7/5,6/4,4b/3b,
3,2,8,1/7,6,7,1,8/2,3,4,5/7,5/7,6,5,2/4,2/4,
2h[4:1],1h[4:1],8h[4:1],7,
7h[4:1],8h[4:1],1h[4:1],2,
3/4,3/4,1/2,8-4[8:3]/7-3[8:3],,,
2,1,8h[8:11],,5-7-4-1-3[8:5],,,,,,
7,6,5/3,2/4,2,3,4/6,7/5,
7h[4:1],8h[4:1],1h[4:1],2,
2h[4:1],1h[4:1],8h[4:1],7,
{8}
6,6,5,,
{4}
4,4h[4:1],3b,2b,1b,8b,
7h[4:1],8,2h[4:1],1,7h[4:1],8,
{8}
2,2,1/3,,
{4}
3h[4:1],4,6h[4:1],5,5/6,7/8,1b/2b,,
3h[4:3]/4>6[2:1],,,,
6,5,4,4,6/5h[4:1],6>1[4:1],,,
2/1h[4:1],2<6[4:1],,,
7h[4:1],8h[4:1],1h[4:1],2,
2h[4:1],1h[4:1],8h[4:1],7,
6/5,6/5,7/8,1-5[4:1]/2-6[4:1],,,
7,8,2h[4:3]/1>7[2:1],,,,
7,8,1,1,7/8h[4:1],7>4[4:1],,,
3/4h[4:1],3<7[4:1],,,
7/8,7/8,1/2,1/2,3/4,3/4,5/6,5/6,
{8}
7x,7x,2x,2x,8x,8x,1x,1x,
{4}
8/2,1/7,8/2,3b/6b,
8h[4:1]/7-4[8:1],,1h[4:1]/2-5[8:1],,8h[4:1]/7-4[8:1],,3,3,
3h[4:1]/4-8[8:1],,6h[4:1]/5-1[8:1],,3h[4:1]/4-8[8:1],,1,1,
1h[4:1]/2-5[8:1],,8h[4:1]/7-4[8:1],,1h[4:1]/2-5[8:1],,6,6h[4:4],4<2[2:1],,,,
7,6,4,5/3,
1h[4:1]/2-5[8:1],,8h[4:1]/7-4[8:1],,1h[4:1]/2-5[8:1],,6,6,
6h[4:1]/5-1[8:1],,3h[4:1]/4-8[8:1],,6h[4:1]/5-1[8:1],,8,8,
8h[4:1]/7-4[8:1],,1h[4:1]/2-5[8:1],,8h[4:1]/7-4[8:1],,3,3,
6<3[2:1]/5q4[2:1],,,,4/3,1/2,7b/1b,,
{8}
6/4h[4:1],,5,5,,2h[4:1]/4,,3x,3x,,
1/2,,7/8,,6/5,,6h[4:1]/3,,4,4,,
7h[4:1]/5,,6x,6x,,7/8,,1/2,,3/4,,6/4h[4:1],,5,5,,
2h[4:1]/4,,3x,3-7[8:1],,,,
8,,8,,2/6,,2^4[8:1]/6^8[8:1],,,,
4^2[8:1]/8^6[8:1],,,,,,
2/6,,2b/6b,,
5h[4:1]/3,,4,4,,7h[4:1]/5,,6x,6x,,7/8,,1/2,,3/4,,
4h[4:1]/6,,5,5,,2h[4:1]/4,,3x,3x,,1/2,,7/8,,6/5,,
3,3,4,,6,6,5,,2,2,3,3,1,1,7,7,8b,,
2^4[8:1]/6^8[8:1],,,,
4^2[8:1]/8^6[8:1],,,,
2b/6b,,5<4[1:2]/4>5[1:2],,,,,,,,,,,,,,,,,,,,
7,,6,,5/3,,5/3,,
{16}
4b,,,3b,,,1b-5[8:1]b/2b-4[8:1]b,,,,,,,,,,
{4}
6h[8:12],E5,E6,E7,E8,E1,E2,,
1h[8:12],E8,E1,E2,E3,E4,E5,,
8/1,4/3,A6/E7/E6,,
8/1,6/5,A3/E3/E4,,
8/1,A6/E7/E6,8/1,A3/E3/E4,
A7/A8/D8/E8f,A1/A2/D2/E2f,A5/A4/E5f/B4/B5,,
{2}
7b/8b,,1b/2b,,7b/2b,,7b/2b,
{4}
,3/6,6h[4:7],5,5,5,4,4,4,4,
Chf[4:4],,,,,,,
1x/7x,
1h[4:1]/2-5[8:1],,8h[4:1]/7-4[8:1],,1h[4:1]/2-5[8:1],,6,6,
6h[4:1]/5-1[8:1],,3h[4:1]/4-8[8:1],,6h[4:1]/5-1[8:1],,8,8,
8h[4:1]/7-4[8:1],,1h[4:1]/2-5[8:1],,8h[4:1]/7-4[8:1],,3,3h[4:3],5>7[4:2],,,,
6,6,5,4,
{8}
3/5h[4:1],,4,4,,5/7h[4:1],,6x,6x,,7/8,,1/2,,3/4,,
6/4h[4:1],,5,5,,4/2h[4:1],,3x,3x,,1/2,,7/8,,6/5,,
3/5h[4:1],,4,4,,5/7h[4:1],,6,6-2[8:1],,,,1,,1,,
{4}
2/6,
2^4[8:1]/6^8[8:1],,
4^2[8:1]/8^6[8:1],,,
3b/6b,1>8[1:1]/8<1[1:1]
,
&inote_5=(185)
{1},,
{8},,,
3h[8:2],,4,,4h[8:2],,5,,5h[8:2],,6,,7/4,,5/6,,
6h[8:2],,5,,5h[8:2],,4,
{16}
,,
4x/5x,,,3x/6x,,,2bxV48b[4:1]/7bxV51b[4:1],,,,,,,,,,
2-5[16:2],,1,,2x,,8,,7-4[16:2],,8,,7x,,1,,2-5[16:2],,1,,2x,,8,,8<5[16:2],,4,,3x,,2,,
1-5[16:2],,6,,1x,,7,,8-4[16:2],,3,,8x,,3,,
3/5,,3/5,,2/6,,2/6,,1-4[16:2]/7-4[16:2],,,,,,,,
{8}
6h[8:2],,5,,7,7,5,,
3h[8:2],,4,,2,2,4,,
7h[8:2],,5,,6,6,8,,
2h[8:2],,4,,3,3,1,,
7,7,7/8,,2,2,2/1,,3>7[16:4],,7>3[8:2],,5h[8:2],,,,3/7,,2/6,2v4[4:1]/6<2[4:1],,,,,3bx/5bx,,,,
2,1,8,7,
3h[8:2]/6,,4,,2,2,4,,
6h[8:2],,5,,7,7,5,,
2h[8:2],,4,,3,3,1,,
7h[8:2],,5,,6,6,8,,
3,3,2/4,,6,6,7/5,,2h[8:2],,4h[8:2],,6h[8:2],,8-4[8:1],,
1-5[8:1],,7-4[8:1],,2-5[8:1],,7,,2/4,,7/5,,4/5,3/6,2b/7b,,
{16}
7-4[16:2],,8,,7x,,8,,2-5[16:2],,1,,2x,,8,,7-4[16:2],,8,,7x,,1,,1>4[16:2],,5,,6x,,7,,
8-4[16:2],,3,,8x,,2,,1-5[16:2],,6,,1x,,6,,
6/4,,6/4,,3/7,,3/7,,2-5[16:2]/8-5[16:2],,,,,,,,
{8}
6h[16:4]/4,,5,,7h[8:2]/3,4,5,,
3h[8:2]/5,,4,,2h[8:2]/6,5,4,,
7h[8:2]/5,,8,,6h[8:2]/8,1,2,,
2h[8:2]/4,,1,,3h[8:2]/1,8,7,,
6,5,4/7,,3,4,2/5,,6<2[8:2],,2<6[8:2],,4h[8:2],,,,2/6,,
3/7,3v5[4:1]/7>3[4:1],,,,,4bx/6bx,,,,
2,1,8,7,
3h[16:4]/6,,4,,2h[8:2]/5,4,3,,
6h[8:2]/4,,5,,7h[8:2]/4,5,6,,
2h[8:2]/4,,1,,3h[8:2]/1,8,7,,
7h[8:2]/5,,8,,6h[8:2]/8,1,2,,
4/5,3,3/4,6,5/7,3,2/4,5,4/6,,2/8,3/7,4/6,,3/5,,
{16}
4,5,4,5,3,6,3,6,2,7,2,7,1h[16:4],,,,8b,,,,2b/4b,,,,7b/5b,,,,
{8}
4/5,,1b/8b,,
3h[8:1],E4/B4,6h[8:1],E6/B5,2h[8:1],E2/B1,7h[8:1],E8/B8,4,4,4/6,,1/7,1/7,8/2<7[8:1],,
6>3[8:1],6,2<7[8:1],2,6>3[8:1],6,2<7[8:1],2,6,6,6/4,,2/8,2/8,1/7,,
3bx/5bx,3bx/5bx,1bx/7bx,1bx/7bx,
4bx/6bx,4bx/6bx,8bx/2bx,8bx/2bx,
3bx/6bx,3bx/6bx,1bx/8bx,,2bx/7bx,3bx/6bx,4bx/5bx-7[8:1],,5-3[8:1],,5-1[8:1],,5<4[8:4],,,,,,,,
{8}
4/5,,2b/7b,,
1q5[8:1],8,1,8,1v6[8:1],7,1,7,1>5[8:1]*q5[8:1],,1,,6,6,5/7,,
8-4[8:1],8,1-5[8:1],1,7-3[8:1],7,2-6[8:1],2,7,7,7/8,,1/6,2/5,3/4,,
5/6,7,1/8,2,3/4,5,6/5w1[8:1],,,,3/4w8[8:1],,,,7x/8x,,4/5,,1/2,,5/6,,8/3,,
1-5[8:1],2-4[8:1],1-7[8:1],2-6[8:1],1,2,1b,,3/8,3-8[8:1]/8-4[8:1],,3/8,,1/5,1/5,,
2,2,2/4,3,4/5,6,7/8,,1/6,1-5[8:1]/6h[8:2],2,1,,8/4,8/4,,
7/5,7/5h[8:2],,4,4h[8:2],,2,,3/7,3qq8[8:3]/7qq4[8:3],,,,,,,
1,1,2/6,2/6,7,7,8/4,,1-6[8:1]/2-5[8:1],,1b/2b,,8-3[8:1]/7-4[8:1],,8b/7b,,,
6,7,8,1,2,3/4,3/4,,2-5[8:1]/5-1[8:1],,2/5,,8/4,8/4,,
7,7,7/5,6,4/5,3,1/2,1/2,,3-8[8:1]/8-4[8:1],,3/8,,1/5,1/5,,
2/4,2/4h[8:2],,5,5h[8:2],,7,,2pp5[8:3]/6pp1[8:3],,,,,,,,
8,8,7/3,7/3,2,2,1/5,,8-3[8:1]/7-4[8:1],,8b/7b,,1-6[8:1]/2-5[8:1],,1b/2b,,
1-4[8:1]/8-5[8:1],,1b/8b,,3/6,,B2/B3/Ch[8:20]/B6/B7,,,,,
{1},,
{8},,,
{16}1/2,,,7/8,,,1/8,,,,
{8}4b/5b,4b/5b,,
{16}
2/7,,3,4,3,,2/7,,6,5,6,,7,,8,,1/2,,7/4,,,,7/8,,2/5,,,,4/5,,,,
3/6,,7,8,7,,3/6,,2,1,2,,3,,4,,5/6-8[8:1],,,,1>4[4:1],,1,,,,5,,5,,,,
{24}
B4,,B3,,B2,,B8,,B7,,B6,,E4,,E3,,E2,,E8,,E7,,E6,,A3,,A2,,A1,,A7,,A6,,A5,,
3x,,2x,,1x,,8x,,7x,,6x,,4h[16:4]x/5h[16:4]x,,,
{16},,,,,,
4/5,,,,3/6,,,,1,7,1,7,2,6,2,6,3,5,3,5,4,,,,
{8}
2bxh[8:6]/6bxh[8:6],,,,,,,,
3bxh[8:6]/7bxh[8:6],,,,,,,,
2bxh[8:6]/5bxh[8:6],,,,,,,,
4bxh[8:6]/7bxh[8:6],,,,,,,,
6/5>1[8:4],,6,,6,,6,,
3/4<8[8:4],,3,,3,,3,,1/2,,,,
4/5,4/5,3/6,3/6,2V48[8:2]/7V51[8:2],,,,,,
1/8,,2b/7b,,
6h[8:1],B6/E6,3h[8:1],B3/E4,7h[8:1],E8/B7,2h[8:1],E2/B2,5,5,5/3,,2/8,2/8,1/7>2[8:1],,
3<6[8:1],3,7>2[8:1],7,3<6[8:1],3,7>2[8:1],7,3,3,3/5,,1/7,1/7,2/8,,
1bx/2bx,1bx/2bx,5bx/6bx,5bx/6bx,
7bx/8bx,7bx/8bx,4bx/3bx,4bx/3bx,
1bx/8bx,1bx/8bx,5bx/4bx,,3bx/6bx,2bx/7bx,1bx/8bx,,
5/6,,1/2,,3/4,,1/6,,
8-4[8:1],7-5[8:1],8-2[8:1],7-3[8:1],8,7,8b,,1/6,1-5[8:1]/6-1[8:1],,1/6,,8/4,8/4,,
2/4,3,7/5,6,4/5,3,1/2,,8/3,8-4[8:1]/3h[8:2],7,8,,1/5,1/5,,
2/3,2/3h[8:2],,5,5h[8:2],,7,,2/6,2pp5[8:3]/6pp1[8:3],,,,,,,
8/4,7,2/6,3,8/4,7/3,2/6,,
8-3[8:1]/7-4[8:1],,8b/7b,,1-6[8:1]/2-5[8:1],,1b/2b,,
1>4b[8:1]/8<5b[8:1],,1-5b[8:1]/8-4b[8:1],,1/8,,
{64}
E1,B8/B1,Cf/B2/B3/B7/B6,B4/B5/E5,,
