&title=にゃーにゃー冒険譚
&artist=黒魔
&des_4=翠楼屋
&des_5=みそかつ侍
&lv_2=5
&lv_3=8
&lv_4=11
&lv_5=13+
&inote_2=
(188){1},
{1},
{1}1h[1:1],
{1},
{1}8h[1:1],
{1},
{1},
{1}8x,
{1}8,
{1}8,
{1}8,
{1}1,
{1}1,
{1}1,
{1}1x/8x,
{1}1,
{1}2,
{1}3,
{1}4,
{1}5,
{1}6,
{1}7,
{1}1/8,
{1}8x-5[4:3],
{1},
{1}4x-1[4:3],
{1},
{2}8,8,
{1}1/8,
{2}8x,8,
{1}7,
{2}6,6,
{1}5,
{2}4,4,
{1}3,
{2}2,2,
{1}1x/8x,
{1}1x-4[4:3],
{1},
{1}5x-8[4:3],
{1},
{2}1,1,
{1}1h[1:1]/8h[1:1],
{1},
{1}1x/8x,
{1}E2,
{1}E3,
{1}E4,
{1}E5,
{1}E6,
{1}E7,
{1}C1f,
{1},
{2}8b,8,
{2}7,7,
{2}6,6,
{2}5,5,
{2}4/5,4/5,
{1}4/5,
{2}4x,4,
{2}3,3,
{2}2,2,
{2}1,1,
{2}1/8,1/8,
{1}1x/8x,
{2}1,1,
{2}2,2,
{2}3,3,
{2}4,4,
{2}5,5,
{2}6,6,
{2}7,7,
{1}7x/8x,
{1}7h[2:1]/8h[2:1],
{1}7/8,
{1}5h[2:1]/6h[2:1],
{1}5/6,
{1}3h[2:1]/4h[2:1],
{1}3/4,
{1}1h[2:1]/2h[2:1],
{1}1/2,
{1}E1,
{1}B1/B8,
{1}B2/B7,
{1}C1/B3/B6,
{2}1x/8x,1x/8x,
{2}1x/8x,1x/8x,
{1}1h[1:1]/8h[1:1],
{1},
{2}2,2,
{1}1/2,
{2}3,3,
{1}3/4,
{2}6,6,
{1}5/6,
{2}7,7,
{1}7/8,
{1}1b,
{1},
{1},
{1}8-5[4:3],
{1},
{1}1-4[4:3],
{1},
{1}8-4[4:3],
{1},
{4}2x,2x,2x,,
{2}1/2,1/2,
{4}7x,7x,7x,,
{2}7/8,7/8,
{4}1x,1x,1x,,
{2}1/8,1/8,
{1}2h[1:1]/7h[1:1],
{1},
{4}6,6,6,,
{2}4/5,4/5,
{4}3,3,3,,
{1}4x/5x,
{1}B4/B5,
{2},C1fh[1:1]/B3/B6,
{1},
{1},
{1}1h[4:3]/8h[4:3],
{8},,,,,C1fh[8:7]/B2/B7,,,
{1},
{1},
{1},
E
&inote_3=
(188){1},
{1},
{1},
{1},
{1},
{1},
{1},
{4}3,3,3,,
{4}2,2,2,,
{4}1,1,1,,
{1}7h[2:1]/8h[2:1],
{4}6,6,6,,
{4}7,7,7,,
{4}8,8,8,,
{1}1h[2:1]/2h[2:1],
{8}3x/4x,3xh[1:2]/4xh[1:2],,,,,,,
{1},
{8},,,,,,,4x/5x,
{8},4x/5x,,,,,,,
{8}5x/6x,5xh[1:2]/6xh[1:2],,,,,,,
{1},
{8},,,,,,,4x/5x,
{8},4x/5x,,,,,,,
{1}2-5[2:1],
{1}7-4[2:1],
{1}2-6[2:1],
{1}7-3[2:1],
{4}2,2,1/2,,
{4}7,7,7b/8b,,
{4}7,7,6,6,
{4}5,5,3/4,,
{4}2,2,3,3,
{4}4,4,5/6,,
{4}6,6,7,7,
{4}8,8,1/2,,
{4}3,3,2,2,
{4}1,1,7/8,,
{1}7<4[2:1],
{1}2>5[2:1],
{1}7-3[2:1],
{1}2-6[2:1],
{4}7,7,7/8,,
{4}2,2,1b/2b,,
{1}1xh[1:1]/8xh[1:1],
{1},
{2}2h[2:1],3h[2:1],
{2}4h[2:1],5,
{2}7h[2:1],6h[2:1],
{2}5h[2:1],4,
{4}3,3,3/4,,
{4}6,6,5/6,,
{8}4x/5x,,,4x/5x,,,4bx/5bx,,
{1},
{4}3,3,1/2,1/2,
{4}8,8,7/8,,
{4}6,6,7/8,7/8,
{4}1,1,1/2,,
{4}1,2,3,4,
{4}5,6,7/8,,
{4}7,7,7,7/8,
{4}6,6,6,5/6,
{4}4,4,4,3/4,
{4}2,2,1/2,,
{4}8,7,6,5,
{4}4,3,1/2,,
{1}1-6[2:1]/2-5[2:1],
{1}7-4[2:1]/8-3[2:1],
{1}1-6[2:1]/2-5[2:1],
{1}7-4[2:1]/8-3[2:1],
{4}2,3,4,5,
{4}6,7,8,1,
{8}1b/8b,,,,,1x/8x,,1xh[8:5]/8xh[8:5],
{1},
{4}B2,B3,B4,,
{4}B7,B6,B5,,
{4}E2,E3,E4,E5,
{2}E6,C1,
{4}B7,B6,B5,,
{4}B2,B3,B4,,
{4}E8,E7,E6,E5,
{2}E4,C1,
{2}7h[2:1],6h[2:1],
{2}5h[2:1],4,
{2}2h[2:1],3h[2:1],
{2}4h[2:1],5,
{4}6,6,5/6,,
{4}7,7,7/8,,
{8}1x/8x,,,1x/8x,,,1bx/8bx,,
{1},
{4}1,2,3,4,
{4}5,6,7/8,,
{4}8,7,6,5,
{4}4,3,1/2,,
{4}1,2,3,4,
{4}5,6,7,8,
{4}1,2,3,4,
{4}5,6,7,8,
{1}1s5[4:5],
{1},
{1},
{2}3h[2:1],2h[2:1],
{2}1h[2:1],8,
{2}6h[2:1],7h[2:1],
{2}8h[2:1],1,
{2}2h[2:1],1,
{2}7h[2:1],8,
{4}7/8,7/8,1/6,,
{4}5/6,5/6,4/7,,
{4}3/4,3/4,2/5,,
{4}1/2,1/2,3/8,,
{4}1/2,1/2,3/4,3/4,
{4}5/6,5/6,7/8,7/8,
{8}1b/8b,,,,,1x/8x,,1xh[8:5]/8xh[8:5],
{1},
{4}7,7,7/8,7/8,
{4}6,6,5/6,5/6,
{4}3,3,3/4,3/4,
{4}2,2,1/2,1/2,
{4}1b/2b,,3x/4x,3x/4x,
{4},4x/5x,4x/5x,,
{4}5x/6x,5xh[8:9]/6xh[8:9],,,
{1},
{8}6x,6x,,5x,5x,,3x/4x,3xh[4:1]/4xh[4:1],
{8},,,,,5x,5x,,
{8}4x,4x,,4x/5x,4h[2:3]/5h[2:3],,,,
{1},
{1},
{1},
{1},
E
&inote_4=
(188){1},
{1},
{8}2xpp3[8:5],,,,,,,8xqq7[4:3],
{8},,,,,,,1xh[8:17],
{8},,,,,,,8xh[8:9],
{1},
{4},,1/8,2b/7b,
{4}3,1/2,8,1/7,
{4}6,7/8,1,2/8,
{4}3,1/2,8,1/7,
{8}2,,3/5,,6,6,5,,
{4}4/6,7,1,2/8,
{4}3,1/2,8,1/7,
{4}2/6,2/6,3/5,4/6,
{8}5,5,4,,2b/6b,,,,
{8}3x/4x,3xh[8:11]/4xh[8:11],,,,,,,
{8},,,,,,,4x/6x,
{8},5xh[8:3]/7xh[8:3],,,,,,4x/6x,
{8},3xh[4:1]/5xh[4:1],,,3x/5x,,,,
{8}5/6,5h[8:11]/6h[8:11],,,,,,,
{8},,,,,,,3/5,
{8},2h[8:3]/4h[8:3],,,,,,1/5,
{8},1/5h[8:3],,,2x,2x>5[4:1],,,
{8},,,,7,7<4[4:1],,,
{8},,,,2,2q6[4:1],,,
{8},,,,7,7h[4:1],,5x,
{8},4/6,,3/5,,2/4,,5/1-7[4:1]-3[8:3]-5[8:3],
{1},
{8},,,,4x/6x,4x/6x,,,
{8}3x/5x,3xh[4:9]/5x,,4,,4,,5,
{8},5,,4,,4,,6bx,
{8},4,,4,,3/4,,2x/5x,
{8},3x/6x,3x/6x,,4bx/7bx,,,,
{8}4x/6x,4x/6xh[4:9],,5,,5,,4,
{8},5,,5,,5,,3,
{8},5,,5,,5/6,,4x/7x,
{8},8x,8x,,1/7,1/7<4[4:1],,,
{8},,,,2/5,5/2>5[4:1],,,
{8},,,,5/7,5/7p3[4:1],,,
{8},,,,2,2h[4:1],,4,
{8},3/5,,4/6,,5/7,,4/8-2[8:3]-6[8:3]-4[8:3],
{1},
{8},,,,3/5,3/5,,2bxh[8:3]/6bxh[8:3],
{8},,,,7,7,8,,
{8}2,2,1,,3b/7b,,,,
{4}E2,E3,E4,E5,
{4}6h[2:1],,5,5,
{4}E7,E6,E5,E4,
{1}C1h[2:1],
{4}1h[4:1]/8,2h[4:1],3h[4:1],4,
{4}5h[4:1],6h[4:1],7h[4:1],8,
{8}1x/6x,1x/6x,,3x/8x,3x/8x,,2b/7b,,
{2},4x/5x,
{4}1b/2b,3/5,7/8,4/6,
{8}3,3,4,,2/5,,1/8,,
{8}6,6,5,,3/4,,1/2-5[4:1],,
{4},,6x,5x/6x,
{8}7,7,1,1,8,8,2,2,
{4}1/2,3x/4x,2x/6x,2/6,
{4}7b/8b,4/6,1/2,3/5,
{8}6,6,5,,4/7,,1/8,,
{8}3,3,4,,5/6,,8/7-3[4:1],,
{4},,2x,3h[4:1]/4,
{4}1h[4:1],8h[4:1],6h[4:1],5,
{8}4x/7x,,1,1,,2b/8b,,3b/7bh[8:13],
{4},,E8,C1,
{4}E4,E3,C1,E7,
{4}8x,8,8h[2:1]/1>6[2:1],,
{8},,,,8,8,,1/7,
{8},2/8,2/8,,3/4,,5/6,,
{4}1/8,2/4,4/5,7/8,
{8}1b/6b,,,,,2b/8b,,4b/6b,
{4},,4/5,3/6,
{8}1,,2/4,,6,6,5,,
{4}4/7,5/6,3/4,2/5,
{4}2h[4:1]/5,4h[4:1],5h[4:1],7,
{2}7-3[4:1],2-6[4:1],
{8}8b,,5/7,,6,6,5,,
{8}4,,3/5,,2,2,1,,
{4}2/8,3/7,4/6,3/5p4[2:1],
{1},
{1}3<6[2:1],
{1}7>2[2:1],
{2}3,2,
{2}1/8h[2:1],1b,
{4}1h[4:1]/8,2h[4:1],3h[4:1],4,
{4}5h[4:1],6h[4:1],7h[4:1],8,
{8}1x/6x,1x/6x,,3x/8x,3x/8x,,2x/7x,2xh[8:5]/7x,
{2},C1f,
{4}1/8,1/8,2/4,5/6,
{4}7/8,1/2,3/4,5/6,
{4}7/8,1/2,3/4,5/6,
{4}7/8,1/2,3/4,3/4,
{8}6,6,5,7,2,2,8,8,
{8}3,3,4,2,7,7,1b,,
{8}7/8,7/8,7/8,,5/6,5/6,5/6,,
{8}3/4,3/4,3/4,,1/2,1/2,1/2,,
{4}3/8,3bh[4:3]/8b-5[2:1]-2[2:1]-6[384:191],,,
{1},
{1},
{1}4h[1:2],
{1}5h[1:3],
{1},
{1}C1h[1:2],
{1},
{8},,,,,1bx/8bx,,2bxh[8:3]/7bxh[8:3],
{4},,3/6,3/6,
{4}5,5<2[8:3],,,
{4}3,3V15[8:3],,,
{8}6,,4/6,,3/5,3/5,,2/4,
{8},1/8,1/8,,5/7,,4/5,,
{4}2/4,1/8,5/6,3/4,
{8}1b/6b,,,,,2b/8b,,4b/6b,
{4},,4b/5b,3b/6b,
{4}7x/8x,4/5,1/2,4/5,
{4}7/8,1/6,1/2,3/8,
{4}5/6,2/3,7/8,1/6,
{4}7/8,2/3,5/6,5/6,
{4}4b/8b,,3/4,1b/5b,
{4},5/6,4b/8b,,
{16}2b/7b,,,,2/7,,,,8x,1x,8x,1x,8x,1x,8xp4b[8:3]*q4[8:3],,
{1},
{8}6,5/7,,3,2/4,,6,5/7,
{8},1x/8x,1x/8x,,,3bx/4bx,2bx/5bx,,
{8}5bx/6bx,4bx/7bx,,1bx/8bx,1bxpp4b[8:7]/8bxqq5b[8:7],,,,
{1},
{1}C1f/B2/B3/B4/E4/B5/B6/E6/B7,
{1},
{1},
{1},
E
&inote_5=(188)
{1},
{1},
{4}1pp2[8:3],7qq6[8:3],,{8},2^5[8:3],,,6,,E8,,,7^4[8:3],,,3,,E2,,,4/6,,4/6,5-8[4:3]*q1[4:3],,,,,,,,,,{16}2x-6[8:1]b,1x,2x,1x,C,,,,
{8}7x/8x,,2/8,,3/4,5,3/4,2,1/8,,5/7,,4/5,3,4/5,6,7/8,,1/3,,4/5,6,4/5,3,2-4[8:1],5-1[8:1],2,5,,3,8x/3x>4[2:1],,Cf,,,,,,
{8}35,,1/2,,6/8,,4/5,3,4/5,6,7/8,,1/3,,4/5,6,4/5,3,2/4,3,5/7,6,8b/1b,,,,
3x/4x,3hx[2:3]/4hx[8:3],,{4},,B3,B4,E4,,4/5,5h[8:3]/7h[8:3],,,8/1,1h[4:1]/7h[4:1],{8},2-5[8:1]/8-5[8:1],,,,
4x/6x,6hx[2:3]/4hx[8:3],,{4},,B6,B5,E6,,4/5,2h[8:3]/4h[8:3],,,8/1,3h[4:1]/7h[4:1],
{8},2/8,2^7[8:3]/8,,2bx/7bx,,,6h[4:1],,5,5/7^2[8:3],,4,,,
3h[4:1],,4,4/2q7[8:3],,5,,5,5h[4:1],,8,8,,1/6h[4:1],,{16}E1,E2,E3,,
{8}5,4,3/5,,2x/6x,,4,4/5,,4/5,6/3qq8[8:3],,8x,,7,7,,1/6,1b/6b,,,
3x/4x,3hx[2:1],4,,4,,4,A3,4,B3
,4,E3,4,,4,2,4,1h[2:1],4,,4,,4,A8/B8/E8,4,A1/B1/E2,4,,3h[4:1]/4-6[8:1],,,,
6x/5x,6hx[2:1],5,,5,,5,A6,5,B6
,5,E7,5,,5,7,5,8h[2:1],5,,5,,5,A1/B1/E2,5,A8/B8/E8,5,,
5/6,4/7^2[8:3],,7bx/2bx,,,3h[4:1],,4,4/2^7[8:3],,5,,,
6h[4:1],,5,5/7p2[8:3],,4,,4,4h[4:1],,1,1,8,3h[4:1],,{16}E1,E8,E7,,
{8}4,5,6/4,,7x/3x,,4,5/4,,5/4,3/6pp1[8:3],,1x,,2,2,,8/3,8b/3b,,
1x/6xh[4:1],,2,3/5,6,7/4,3,2/6,2/6h[4:1],,3,3/7,2/8,1bp5[8:1]*q5[8:1],,,,
6h[4:1],
,5,,2/7,2/7^2v4[8:5],,4x,,,3,,3h[4:1],,5,6h[4:1],,8h[8:9],,6,6,5<4[8:5],,,,,,,1b,,,,
4/6,3,4/6,7,4/6,3,4/6,7,{16}4,5,4,5,3,5,3,5,2,5,2,5,1,5,1,5,{8}6bx/8bx,,,1bx/3bx,,,2bx<6[8:3]/7bx>3[8:3],,,,,,4/5,,
2pp4[8:1],,2x/8xqq6[8:1],,8x/2x,,2,3/6^1[8:1],5,4x/6x,,{16}2,1,3h[8:1],,1,2,8h[8:1],,{8}1^4[8:1],7/8,6x/1x,,{16}6,5,7h[8:1],,5,6,4,,{8}5/7,5/7,3x/1x-5[8:1],,7x/1x,6,4,2-5[8:1]/8-5[8:1],,,,
6/5h[8:1],7,3/4h[8:1],2,6/5h[8:1],8,3/4h[8:1],1,5,6/4,7/3,8x/2x,,
4/5,4/5pp7[8:1],,5x/4xqq2[8:1],,4x/5x,,7,6/3^8[8:1],4,5x/3x,,{16}7,8,6h[8:1],,8,7,1h[8:1],,{8}8^5[8:1],2/1,3x/8x,,{16}3,4,2h[8:1],,4,3,5,,{8}4/2,5/1,6x/8x-4[4:1],,2x/8x,3,5,7-4[8:1]/1-4[8:1],,,,
3p7[8:1]b,3,6q2[8:1]b,6,3^8[8:1]b,3,6
,6,7,7/4,8/3,1/2,,5x/4>5[8:3],,4bx/8hx[8:3]b,,,,,
3h[8:3],,4,4^6[8:1],,2h[8:3],,,7h[8:3],,6,6^4[8:1],,7,7V15[8:3],,5,,4,,{12}3,4,2,6,5,7,{8}4,,4/5,6x/3x,,3,3/4,4,4/5,5,5/6,6,6/4,3,2/5,6,7/3,2,1/6,7,8b,1/2,1/2,3/4,5/6,7b/8b-4[8:1],,8b/1b-5[8:1],,1/6,,6/5,{16}7x-3[8:1]b,8x,7x,8x,C,,,,
{8}2x/1x,,7/1,,6/5,4,6/5,7,8/1,,4/2,,5/4,6,5/4,3,2/1,,8/6,,5/4,3,5/4,6,7-5[8:1],4-8[8:1],7,4,,6,1x/6<5[2:1],,Cf,,,,,,3/5,,2/1,,6/8,,5/4,3,5/4,6,7/8,,1/3,,4/5,6,4/5,3,2/4,3,5/7,6,8b/1b,,,,
3^5[4:1],,,,6,6pp2[8:5],,4h[8:3],,,,,4,4,,3-5[4:1],,6,,6,5,6,,4v5[8:3]/6h[8:3],,,,,8b,,,,
5/3,2,5/3,6,5/3,2,5/3,6,{16}3,4,3,4,2,4,2,4,1,4,1,4,8,4,8,4,{8}1bx/5bx,1bx/5bx,,3bx/7bx,3bx/7bx,,4b/5b,2h[4:3]b/7h[4:3]b,,,,,,,E6/B5/B4/E4/E5/A5/A4,,
7x/2x-6[8:1],2,8-5[8:1],8,4-1[8:1],4,6-3[8:1],6,2-5[8:1],2,4-7[8:1],4,3-6[8:1],3,8-5[8:1],8,4p8[8:1],4,6p2[8:1],6,1q5[8:1],1,7p3[8:1],7,8^3[8:1],8,4^7[8:1],4,2,2,1b/8b,,
{16}4x,5,4,5,3,6,3,6,2,3,4,5,8,7,6,5,3x,4,3,4,2,5,2,5,1,2,3,4,8,7,6,5,{8}3x/4x,3/4,4/5,4/5,5/6,5/6,6/7,6/7,{16}8b,5,7,4,6,3,5,2,4b,1,5,2,6,3,7,4,8-4[8:1],,,{32},,B8,C,B4,,{16},,,,E4,E5,E6,E7,E8,E1,E2,E3,E4/C,
{2},,,{8},,{16},
{8}4,4,5,5,4,4,5,6h[4:1],,5,5,6,6,5,5,4h[4:1],,5,5,4,4,5,5,3h[4:1],,4,4,3,3,5,5,4,3,5,4,5,3,5,4,5,4,4/5,3/6,2/7,,5s1[8:1]b/4z8[8:1]b,,{64}4bx/5bx,,,,,B7/B2,B8/B1,E1f,{8},,,,
4x/6x,4x/6q4[4:1],,3>7[4:1],,,,,6,5pp4[8:3],4,3/5,,2,2V84[8:3],,4,,5,,{12}6,5,7,3,4,2,{8}5,,4/5,6x/3x,,6,6/5,5,5/4,4,4/3,3,3/5,6,7/4,3,2/6,7,8/3,2,1b,8/7,8/7,6/5,4/3,2b/1b-5[8:1],,1b/8b-4[8:1],,8/3,,3/4,{16}2x-6[8:1]b,1x,2x,1x,Cf,,
{8},7x/8x,,2/3,,4/6,7,4/6,3,2-4[8:1],5-1[8:1],2,5,,4,4/5,,2b/8b,,3/4,,5/7,8,5/7,4,3/2,,6/8,,4/5,3,2/6,1/7,,5/6,5^2[8:1]/6p1[8:1],,5bx/6bx,,,3/4,3/4q7[4:1],,3bx/4bx,,,C,E8/E2,,
3bx/6bx^3[4:1],,3x/6x,,{16}1,8,2,7,1,8,2b,,,,3/4,,3/4,,,,4/5,,5,4,3bx/6bx,,{8},
2/4,2/4,,5/7,5/7,,8/1,8/1,,5-1[8:1]/4-8[8:1],4/5,,,1b/3b,1b/3b,,6b/8b,6b/8b
,,2b/7b,2bxqq1^4[4:3]b/7bxpp8^5[4:3]b,,,,,,,,,,{16}3,5,4,6,C/B8/B1,E
