&title=Luminaria
&artist=Lime
&first=0.03
&des=小鳥遊さん
&wholebpm=227
&lv_2=5
&lv_3=7+
&lv_4=12
&lv_5=14
&inote_2=(227){4},
{1},
{1},
{1},
{2},1h[2:3],
{1},
{1},
{2},8h[2:3],
{1},
{1},
{2},1,
{4},1,,,
{1}1,
{2},8,
{4},8,,,
{1}8,
{2},1b/8b,
{1},
{1}B1,
{2},B8,
{1},
{1}B2,
{2},B7,
{1},
{1}B3,
{2},B6,
{1},
{1}B4,
{2},C1,
{1},
{4}8,,,8,
{2},7,
{4},7,,,
{4}6,,,6,
{2},5/6,
{1},
{4}4,,,4,
{2},3,
{4},3,,,
{4}2,,,2,
{2},1/2,
{1},
{4}1,1,1,1,
{4},,2,2,
{4}2,2,,,
{4}3/4,,,3/4,
{2},3/4,
{1},
{4}5,5,5,5,
{4},,6,6,
{4}6,6,,,
{4}7/8,,,7/8,
{2},1/8,
{4},1/8,,,
{1}1x-4[4:5]/8x-5[4:5],
{1},
{1},
{1}4-1[4:5]/5-8[4:5],
{1},
{1},
{1}1b/8b,
{1},
{1},
{4}8,8,8,8,
{2},7,
{4},7,,,
{4}6,6,6,6,
{2},5,
{4},4/5,,,
{4}4,4,4,4,
{2},3,
{4},3,,,
{4}2,2,2,2,
{2},1,
{4},1/8,,,
{4}1,1,1,1,
{2},1/2,
{4},1/2,,,
{4}3,3,3,3,
{2},3/4,
{4},3/4,,,
{4}5,5,5,5,
{2},5/6,
{4},5/6,,,
{4}7,7,7,7,
{2},7/8,
{4},7/8,,,
{1}1xh[2:3]/8xh[2:3],
{1},
{1},
{1}1x-4[4:5],
{1},
{1},
{1}5-8[4:5],
{1},
{1},
{1}1-4[4:5]/8-5[4:5],
{1},
{1},
(197){4}B4/B5,,,(212)B3/B6,
{2},(227)B2/B7,
{1},
(212){4}B1/B8,(227),,B2/B7,
{2},B3/B6,
{1},
(212){4}E5,(227),,E6,
{2},E7,
{4},E8,,,
{4}E1,,,E2,
{2},E3,
{4},E4,,,
{1}C1h[2:3],
{1},
{1},
{4}1b,1,1,1,
{2},2,
{4},3,,,
{4}4,4,4,4,
{2},5,
{4},6,,,
{4}7,7,7,7,
{2},8,
{4},1,,,
{4}1/8,1/8,1/8,1/8,
{2},2bx/7bx,
{1},
{4}B1/B8,,,B2/B7,
{2},B3/B6,
{4},B4/B5,,,
{4}B3/B6,,,B2/B7,
{2},B1/B8,
{4},C1fh[2:3],,,
{1},
{1},
{1},
E
&inote_3=(227){4},
{1},
{1},
{1},
{4},,1,1,
{4},1,1,,
{4}2,2,,2,
{4}2,,3,3,
{4},3,3,,
{4}4x/5x,4x/5x,,4x/5x,
{4}4x/5x,,5,5,
{4},5,5,,
{4}6,6,,6,
{4}6,,7,7,
{4},7,7,,
{4}1x/8x,1x/8x,,1x/8x,
{2}1x/8x,1b/8b,
{1},
{4}2h[4:3],,,1,
{2},3h[4:3],
{4},4,,,
{4}6h[4:3],,,5,
{2},7,
{4}7/8,7/8,,,
{4}7h[4:3],,,8,
{2},6h[4:3],
{4},5,,,
{4}3h[4:3],,,4,
{2},2,
{4}1/2,1/2,,,
{4}7x/8x,,,7,
{4}7,7,7/8,,
{4}7/8,7/8,,,
{4}5x/6x,,,6,
{4}6,6,5/6,,
{4}5/6,5/6,,,
{4}3x/4x,,,3,
{4}3,3,3/4,,
{4}3/4,3/4,,,
{4}1x/2x,,,2,
{4}2,2,1/2,,
{4}1x/8x,1x/8x,,,
{4}B1/B2,,,B3,
{2}B4,B7/B8,
{4},B6,B5,,
{4}B1/B2,,,B3/B4,
{2},B5/B6,
{4},C1,,,
{4}B8,B7,B6,B5,
{4},,B1,B2,
{4}B3,B4,,,
{4}B8,B7,B6,B4/B5,
{4},,B1,B2,
{4}B3,B4/B5,,,
{4}B1/B8,,,B2/B7,
{2},B3/B6,
{4},B4/B5,,,
{1}C1f,
{1},
{1},
{1}1b,
{1},
{1},
{4}1/8,,,2,
{4}2,2,3,3,
{4}3,3/4,,,
{4}5/6,,,7,
{4}7,7,6,6,
{4}6,5/6,,,
{4}3/4,,,2,
{4}2,2,3,3,
{4}3,3/4,,,
{4}5/6,,,7,
{4}7,7,6,6,
{4}6,5/6,,,
{4}4x/5x,,,3,
{4}3,3,2,2,
{4}2,1/2,,,
{4}7/8,,,6,
{4}6,6,7,7,
{4}7,7/8,,,
{4}1/2,,,3,
{4}3,3,2,2,
{4}2,1/2,,,
{4}7/8,,,6,
{4}6,6,7,7,
{4}7,1x/8x,,,
{1}2-5[4:5],
{1},
{4},6,,,
{1}7-4[4:5],
{1},
{4},4,,,
{1}3-8[4:5],
{1},
{4},6,,,
{1}6-1[4:5],
{1},
{4},1,,,
(197){4}1xh[384:287],,,(212)2xh[4:3],
{2},(227)3xh[4:3],
{4},4xh[4:3],,,
(212){4}5xh[384:275],(227),,6xh[4:3],
{2},7xh[4:3],
{4},8xh[4:3],,,
(212){4}1,(227),,1/8,
{4}1/8,,2/7,2/7,
{4},3/6,3/6,,
{1}4h[1:3]/5h[1:3],
{1},
{1},
{1},
{2},4b/5b,
{1},
{4}3x/4x,,,2,
{4}2,2,3/4,3/4,
{4}3/4,5,5,5,
{4}5/6,5/6,5/6,7,
{4}7,7,8h[4:3],,
{4},1,,,
{4}1x/8x,,,7,
{4}7,7,5/6,5/6,
{4}5/6,4,4,4,
{4}3/4,3/4,3/4,2,
{4}2,2,1h[4:3],,
{4},8,,,
{4}7x/8x,7x/8x,,5x/6x,
{4}5x/6x,,3x/4x,3x/4x,
{4},1x/2x,1x/2x,,
{4}1/2,1/2,,3/4,
{4}3/4,,5/6,5/6,
{4},7x,1x/8x,1x/8x,
{4},,,2bxh[1:3]/7bxh[1:3],
{1},
{1},
{1},
{1},
{1},
E
&inote_4=(227){4},
{2},5/4>5[2:3],
{1},
{4},,,4x,
{4}4,3/5,2b/6b,1,
{4}8,3/7,4,5,
{4}1/6,1/6,2,2/4,
{4}4/5,5/7,8h[2:1],1,
{4}1,2h[2:1],1,1,
{8}3,3,5,5,4,4,6,6,
{4}5,3/7,2b/6b,5,
{4}4,3/7,8,1,
{4}2/5,2/5,6,7/8,
{4}7/8,1/6,2h[2:1],4,
{4}4,6h[2:1],5,5,
{8}7,7,5,5,6,6,3,3,
{8}4,,2/5,,7x/8x,7x/8x,,3x/6x,
{8},1x/2x,1x/2x,,3x/8x,,4x/7x,,
{1}C1f/B3/B4/B5/B6/B7,
{4},,E7,B6,
{4}B5,B3/E5,,,
{4}E3,B3,B4,E5/E7,
{2},C1h[4:3]/B4/B5,
{1},
{4}A1,B1,C1,B5/A6,
{4},,A8,B8,
{4}C1,A3/B4,,,
{4}5h[4:3],,,4xh[2:3],
{2},C1h[4:3],
{1},
{8}1/8,,7,7,7h[2:1],,5,,
{8}5,,4/8,,3/7,,2,2,
{4}2h[2:1],4,4,1/5,
{4}6h[2:1],8,1,2h[2:1],
{4}1,8<3[4:3],3x,,
{4},1,1,1/8,
{4}2h[4:1],3h[4:1],4,4/5,
{4}5/6,4/7,7h[4:1],6h[4:1],
{4}5,4/5,3/4,2/5,
{8}2,2,1,,3/8,,7,7,
{4}8,1/6,2/5,3/4,
{4}4/5,5/6,3b/8b,,
{8}7,7,5,5,6,6,8,,
{8}1x/7x,,,,2,2,4,4,
{8}3,3,1,,2x/8x,,,,
{4}3,4/6,5/7p5[2:1],,
{4},,4,3/5,
{8}2/6,,1,1,8,,2/7,,
{8}6,6,5,,4/7,,3,3,
{8}4,,2/5,,7,7,8,,
{8}1/6,,2,2,1,,3/8,,
{4}4/7,3/6,2/5,1/6,
{4}2/7,3/8,1/2,1/2,
{4}3/4,5/6,5/6,7/8,
{4}1bxh[1:3]/6bx,,,E1,
{2},C1,
{4},E5,,,
{1}8b<1[4:9],
{1},
{1},
{1}C1f/B3/B4/B5/B6,
{8},,,,5h[8:3],,4,4,
{8},3/6,3/6,,1b,,2-5[4:1],,
{8}6b,,8,8,,7,7h[4:1],,
{8}5h[4:1],,3h[4:1],,1,,2/8,2/8,
{8},3/4,3/4,,5/6,,7-4[4:1],,
{8}3b,,1,1,,2/8,2h[4:1]/8,,
{4}4h[4:1],6h[4:1],8h[4:1],2h[4:1],
{4}1,3/8,3/8,2-5[4:1],
{8}7b,,6,6,,4/8,4/8h[4:1],,
{8}6h[4:1],,4h[4:1],,3,,2/5,2/5,
{8},4/7,4/7,,6,6,5,7,
{4}1b,2/4,2/4,8,
{4}5/7,5/7,3h[4:1],4,
{4}1/5,1b/5b,,7<4[4:1],
{8}4b,,2,2,,1/8,1h[4:1]/8,,
{8}7h[4:1],,5h[4:1],,4,,3/4,3/4,
{8},1/2,1/2,,3/8,,2>5[4:1],,
{8}5b,,7,7,,8,8h[4:1],,
{4}2h[4:1],4h[4:1],6h[4:1],8h[4:1],
{4}2h[4:1],4h[4:1],5,3/6,
{8}1b,,3/7,3/7,,2/6,2/6,,
{8}7,7,8,,1bx/6bx,,3x/8x,3bx/8bx,
{8},1x/2x,1bx/2bx,,7bx/8bx,,1bx/6bx,,
{8}2,2,1,1,3,3,7,7,
{8}8,8,6,6,1bx,,2/8,,
{8}3/7,3/7,3/7,,2/6,,1/8,,
{1}C1f/B3/B4/B5/B6,
{4},7,7h[4:3],,
{4}5,4h[4:3],,5,
{4}6h[4:3],,5,5,
{4},,E6,E5,
{4}E4,E3/E7,E2/E8,,
{1}7xh[2:3],
{4},5,4h[4:3],,
{4}5,6h[4:3],,5,
{4}5h[4:3],,6,6>3[2:1],
{8},,,,1x,,,2/8,
{8},3/7,3/7,,5/6,,3/4,,
(197){8}2b/7b,,,,2,2,(212)1/2,,
{4}7/8,5/6,(227)4h[4:1]/7h[4:1],,
{4}6<3[2:1],3b,,,
(212){8}2b/5b,,(227),,6,6,5/6,,
{8}7/8,,1/2,,3x/8x,,,1x/6x,
{12},,,7x,8x,7x,8x,7x,8x,7bx,,,
(212){16}1x,,,,(227)E2,E3,E4,E5,E6,,,,8x,,,,
{16}A7,A6,A5,A4,A3,,,,1x,,,,E3,E4,E5,E6,
{4}E7,8x,8x,1x>7[4:5]q8[4:5],
{1}7b,
{1},
{1},
{1}1b/7b,
{2},C1h[4:3],
{4},8,8,1/8,
{8}2b/7b,,6,6h[4:1],,4,4h[4:1],,
{4}3,2q5[2:1],,,
{1}7>4[2:1],
{8}1x,,2/5,2/5,,3/6,3/6h[4:1],,
{8}5,,4/7,,6,5,6,3,
{8}4,3,6,5,7,3,4,2,
{8}8b,,4,4h[4:1],,2,2h[4:1],,
{4}1,7p4[2:1],,,
{1}2<5[2:1],
{8}4x,,3/8,3/8,,2/7,2/7h[4:1],,
{8}8,,1/6,,7,8,7,2,
{8}1,2,8,8,1,,2x/7x,,
{8}3/5x,3x/5,,1/8x,,5/6x,5x/6,,
{8}1x/2,,3b/8b,,4/7x,4x/7,,1x/8,
{8},3x/4,3/4x,,7/8x,,1b/6b,,
{8}3b/4b,3b/4b,,1b/7b,,5b/6b,5b/6b,,
{8}1b/2b,,3b/8b,,5b/6b,5b/6b,,2b/8b,
{8},3b/4b,3b/4b,,1b/8b,,2bxh[1:1]/6b,,
{4},,,1bq2[4:5]>8[384:575],
{1},
{1},
{1},
E
&inote_5=(227){4},,{32},,,,,,,3x/6x,
{4}4x>5[2:3]/5x<4[2:3],,,
,,,
,,,
3/4,1b/6b,,
2/8,{8}3,3h[4:1],,5,
5h[4:1],,6h[4:1],,{512}7>3p6[4:3],,,,,,,{64},,,,,,,{8},
5,,4,4,,5,
5h[4:1],,4h[4:1],,3>4[4:3],,
,,,,,,
,,2/5,,3/6,,
7,5,7,2,4,2,
8,1,6,,4/7,,
8,,6,6h[4:1],,4,
4h[4:1],,3h[4:1],,{512}2<6q3[4:3],,,,,,,{64},,,,,,,{8},
4,,5,5,,4,
4h[4:1],,5h[4:1],,6<5[4:3],,
,,,,,,
,,4/7,,3/6,,
2,4,3,7,5,6,
2,2,1,,3/8,,
4x/7x,4x/7x,,2x/5x,,1x/8x,
1x/8x-4[8:1],,8x/2x-6[8:1],,2x,,
{4}1bx/7bxp4[1:2],,,,,,C1,,,A2,,,
5pp8[1:2],,,,,,E3,,,E4,,,
2q5[1:2],,,,,,C1,,,A7,,,
4>8[8:5],,,7h[4:3],,,
5h[4:3],,,{8}6,6,,4/5,,3/4,
3x/4x,,2,2,1,,
1/8h[4:1],,7h[4:1],,6>3[4:1],,
3,,2,,1,,
2/8,,,,3/5,,
4x/6x,,7,7,8,,
8/1h[4:1],,2h[4:1],,3<6[4:1],,
6,,7,,8,8,
1x/7x,,,,4/5,,
3x/4x,,2,2,1,,
1/8h[4:1],,7h[4:1],,6>3[4:1],,
3,,2,,1,1,
2/8,,4/7,,2/5,,
1,2,3/4,,5/7,,
7/8,,5/6,,2/4,,
1/8,,3,3/4,,6,
5/6,,2b/7b,,,,
{16}1x/6x,5,4,3,2,1,8,7,6,,,,
3,4,3,4,{2}2x/5x,
{16}8x/3x,4,5,6,7,8,1,2,3,,,,
6,5,6,5,{8}4x/7x,,,,
1/2h[4:1],,4,4,4,,
6h[4:1],,7h[4:1],,8h[4:1],,
1,,3,3/4,,6,
6/5,,3/8,,1/6,,
{16}8x/7x,6,5,4,3,2,1,8,7,6,5,4,
1x,2,3,4,5,6,7,8,1,2,3,4,
8x,7,6,5,4,3,2,1,8,7,6,5,
2x,3,4,5,6,7,8,1,{4}2b/5b,
4/3h[8:1],2/3h[8:1],1/3h[8:1],
4/3h[8:1],2/3h[8:1],1/3h[8:1],
5/7h[8:1],6/7h[8:1],8/7h[8:1],
5/7h[8:1],6/7h[8:1],8/7h[8:1],
1/8,2,3,4,5,6,7/1,6,5,4,3,{32}2,,,,,,1,8<1[32:73],
{1}7h[1:3],,,8b,{4},{32},,,,,,E2,B1,
{8}B8,,,4/6,,5,
5,,3b/7b,,,,
{512}5x/1x-5>2[8:3],,,,,,,{64},,,,,,,{8},6,7,8,,
8-5[8:1],,8-3[8:1],,{512}8<5pp4[16:7],,,,,,,{64},,,,,,,{8},
2x,,,1,1,,
2b/3b,,,,3/5,6,
{512}7>2-6[8:3],,,,,,,{64},,,,,,,{8},2,3,4,,
4>1[4:1],,1<6[4:1],,6>3[4:1],,
3>8[4:1],,8<5[4:1],,5-2[16:3],,
E7f,,,,2,1,
{512}8x/3x-7>2[8:3],,,,,,,{64},,,,,,,{8},7,6,5,,
4-8[8:1],,4-2[8:1],,{512}4<8q1[8:6],,,,,,,{64},,,,,,,{8},
1x,,,2,2,,
3b,,4/7,,3,4,
5/2-4[8:1],,6,6,5/7,,
8/1,2,3,4/7,6,5,
2>5[8:1]/4-1[8:1],,,,8,7,
6b/2b,,,,5/6,7,
{512}4x/8x-4<7[8:3],,,,,,,{64},,,,,,,{8},3,2,1,,
1-4[8:1],,1-6[8:1],,{512}1>4qq5[2:1],,,,,,,{64},,,,,,,{8},
7x,,,8,8,,
6b/7b,,,,4/6,3,
{512}1/2<7-3[8:3],,,,,,,{64},,,,,,,{8},7,6,5,,
5<8[4:1],,8>3[4:1],,3<6[4:1],,
6<1[4:1],,1-4[4:1],,4-7[4:1],,
7>2[4:1],,2>5[4:1],,5pp8[2:1],,
A1f,,,2,2,,
3/7,,3,4,5,6,
7b-4[8:1],,7,2b-6[8:1],,2,
8bw4[8:1],,8,,2b/6b,,
1x/5x,1/5,2,4,5,7,
4x/8x,4/8,7,5,4,2,
5x/1hx[1:1],,,4,5,6,
7-3[8:1],,{48}7,C1f,,{16},,,8,1,2,3,
{4}4b/8b,,,
,{8},4,{4}5,
3h[2:1],,4,
4,5,6,
7h[2:1],,5p3[2:3],
5,,,
,,,
,,,
4h[8:9],,,
,{8},5,{4}4,
6h[2:1],,5,
5,4,3,
2h[2:1],,4<7[2:1],
4,,,
1b/8b,{8},3/5,,4,
4/6,,3/7,,1/8,,
(197){8}2b/6b,,3,3,4,4,
(212){8}3,2,1,8,7,6,
(227){8}5h[4:1]/6h[4:1],,,,6<3[2:1],5,
4h[2:1],,,,,,
(212){4}2b/5b,(227){8},4,5,6,
7/8,,1/6,,3,4,
2x/5x,3,4,8x,7,6,
{12}1x,5,1,5,1,5,{4}2bx/6bx,
(212){4}8hx[4:1]/4x,(227){16}3x,2,1,8,7,6,5,4,
7x,6,5,4,3,2,1,8,7,6,5,4,
1x,2,3,4,5,6,7,8,1,2,3,4,
{4}5x/6x,1/8,{512}4/3>4<3[4:11],,,,,,,{64},,,,,,,{8},
{4}B4/B5/E5f,,,
,,{8}7,8,
{4}1h[4:5],,,
,,,
4b/7b,,,
,,{24},,,,E8,B8,
{8}B1,,,3/5,,4,
4,,2b/6b,,,,
7/8,,2/4,3,,5/7,
6,,3/5,,1/2,,
8/7-3[8:1],,6-2[8:1],6,,5-1[8:1],
5,,2,,4,,
6/5>2[8:1],,7-3[8:1],7,,8>4[8:1],
8,,5,,6,,
5/7,8,1,2/4,1,8,
5/7,8,1/2,,3b/7b,,
1/8,,5/7,6,,2/4,
3,,4/6,,7/8,,
1/2-6[8:1],,3-7[8:1],3,,4-8[8:1],
4,,7,,5,,
3/4<7[8:1],,2-6[8:1],2,,1<5[8:1],
1,,4,,3,,
2/4,1,8,5/7,8,1,
2/4,1,8/7,,1b/5b,,
2x/7x,6/1>4[8:1],,1/8,,5/7,
6x/8x-3[8:1],,5x-1[8:1]/8x,,5x/6x,,
2x/7x,3/8<5[8:1],,1/8,,2/4,
3x/1x-6[8:1],,1x/4x-8[8:1],,3x/4x,,
2x/7x,6/1>4[8:1],,1/8,,5/7,
6x/8x-3[8:1],,5x-1[8:1]/8x,,5x/6x,,
2x/6x,3-8[8:1]/7-4[8:1],,3/7,,2x/6x,
4x-8[8:1]/5x-1[8:1],,4x/5x,,2bx/7bx,,
,,,,,{24}1/8,2/7,3/6,
{512}4b>5pp1[4:11]/5b<4qq8[4:11],
