&title=Hainuwele
&artist=ETIA.
&first=0.16
&des=
&lv_2=5
&lv_3=8
&lv_4=12+
&lv_5=14
&inote_2=(175)
{1}1xh[1:1],
{1},
{1}1,
{1}1,
{1}8h[1:1],
{1},
{1}8,
{1}1/8,
{2}8,8,
{1}7,
{2}6,6,
{1}5,
{2}4,4,
{1}3,
{2}2,2,
{1}1x/8x,
{2}1,1,
{2}2,2,
{2}3,3,
{1}4/5,
{2}5,5,
{2}6,6,
{2}7,7,
{1}1/8,
{2}8,8,
{2}7,7,
{2}6,6,
{2}5,5,
{2}4,4,
{2}3,3,
{2}2,2,
{1}1b/8b,
{1}1-5[4:3],
{1},
{1}6-3[4:3],
{1},
{1}2-6[4:3],
{1},
{1}7-3[4:3],
{1},
{1}B2,
{1}B3,
{1}B4,
{1}B5,
{1}B6,
{1}B7,
{1}C1h[1:1],
{1},
{2}8b,8,
{4}7,7,7,,
{2}6,6,
{4}5,5,4/5,,
{2}4,4,
{4}3,3,3,,
{2}2,2,
{1}1b/2b,
{1}1h[2:1]/2h[2:1],
{1}1/2,
{1}3h[2:1]/4h[2:1],
{1}3/4,
{1}5h[2:1]/6h[2:1],
{1}5/6,
{1}7h[2:1]/8h[2:1],
{1}7/8,
{4}8b,8,8,,
{4}7,7,7,,
{2}7b/8b,7/8,
{2}7/8,7/8,
{4}6,6,6,,
{4}5,5,5,,
{2}4b/5b,4/5,
{1}4/5,
{4}4,4,4,,
{4}3,3,3,,
{2}3b/4b,3/4,
{2}3/4,3/4,
{4}2,2,2,,
{4}1,1,1,,
{2}1/8,1/8,
{1}2bx/7bx,
{4}1b,1,1,,
{4}2,2,2,,
{4}3,3,3,,
{4}4,4,4/5,,
{4}5,5,5,,
{4}6,6,6,,
{4}7,7,7,,
{4}8,8,1/8,,
{4}8,8,8,8,
{4}7,7,7/8,,
{4}6,6,6,6,
{4}5,5,4/5,,
{4}4,4,4,4,
{4}3,3,3/4,,
{4}2,2,2,2,
{4}1,1,1/8,,
{2}2,2,
{2}1/2,1/2,
{2}3,3,
{2}4/5,4/5,
{2}6,6,
{2}5/6,5/6,
{2}7,7,
{4}1/8,1/8,1h[2:1]/8h[2:1],,
{1},
{1},
{1},
E
&inote_3=(175)
{1}3h[1:1],
{1}4h[1:1],
{1}5h[1:1],
{1}6,
{1}6h[1:1],
{1}5h[1:1],
{1}4h[1:1],
{1}3,
{4}2,2,1/2,,
{4}3,3,3/4,,
{4}5,5,4/5,,
{4}6,6,5/6,,
{4}7,7,7/8,,
{4}6,6,5/6,,
{4}4,4,4/5,,
{4}3,3,3/4,,
{4}3,3,2,2,
{2}1h[2:1],8,
{4}7,7,6,6,
{2}5h[2:1],4,
{4}6,6,7,7,
{2}8h[2:1],1,
{4}2,2,3,3,
{2}4h[2:1],5,
{4}6,6,5,5,
{4}4,4,3/4,,
{4}3,3,4,4,
{4}5,5,5/6,,
{4}7,7,6,6,
{4}5,5,3/4,,
{4}2,2,3,3,
{4}4,4,5/6,,
{1}7-4[2:1],
{1}2-5[2:1],
{1}6-1[2:1],
{2}2,1/2,
{1}2-5[2:1],
{1}7-4[2:1],
{1}3-8[2:1],
{2}7,7/8,
{2}7h[2:1],6h[2:1],
{2}5h[2:1],4h[2:1],
{2}3h[2:1],2h[2:1],
{2}1,1/2,
{2}2h[2:1],3h[2:1],
{2}4h[2:1],5h[2:1],
{2}6h[2:1],7h[2:1],
{2}8,7x/8x,
{4}6,6,5/6,5/6,
{4}7,7,7/8,7/8,
{4}1,1,1/2,1/2,
{4}3/4,3/4,3/4,,
{4}3,3,3/4,3/4,
{4}2,2,1/2,1/2,
{4}8,8,7/8,7/8,
{4}5/6,5/6,5/6,,
{4}B7,B6,B5,,
{4}B2,B3,B4,,
{4}B8,B7,B5/B6,,
{4}B1,B2,B3/B4,,
{4}E8,E7,E6,E5,
{4}E4,E3,E2,,
{4}B3,B4,B5,B6,
{1}C1f,
{4}1/2,1/2,3,3,
{4}1/2,1/2,8,8,
{4}1/2,2,1/2,2,
{4}1/2,2,1/2,,
{4}3,3,3/4,3/4,
{4}6,6,5/6,5/6,
{8}4x,4x,4x,,3/4,,3/4,,
{4}5/6,5/6,5/6,,
{4}7/8,7/8,6,6,
{4}7/8,7/8,1,1,
{4}7/8,7,7/8,7,
{4}7/8,7,7/8,,
{4}6,6,5/6,5/6,
{4}3,3,3/4,3/4,
{4}2,2,1/2,1/2,
{1}1b/8b,
{8}7/8,,7/8,,6,6,6,,
{8}4/5,,4/5,,3,3,3,,
{4}1/2,1/2,8,8,
{1}7-4[2:1]/8-3[2:1],
{8}1/2,,1/2,,3,3,3,,
{8}4/5,,4/5,,6,6,6,,
{4}7/8,7/8,1,1,
{1}1-6[2:1]/2-5[2:1],
{8}7/8,,7/8,,6,6,6,,
{8}4/5,,4/5,,3,3,3,,
{4}1/2,1/2,8,8,
{1}7-4[2:1]/8-3[2:1],
{8}1/2,,1/2,,3,3,3,,
{8}4/5,,4/5,,6,6,6,,
{8}7,7,7,,8,8,8,,
{2}1b/8b,1b/8b,
{4}2,2,3,3,
{4}4,4,5,5,
{4}6,6,7,7,
{4}8,8,1/8,,
{2}7h[2:1],6h[2:1],
{2}5h[2:1],4h[2:1],
{2}3h[2:1],2h[2:1],
{4}1,,1/8,1/8,
{1}1b/8b,
{1},
{1},
{1},
E
&inote_4=(175)
{1}1x>6[1:1],
{16},,,,,,,,E7,B6,B5,E5,C1h[8:1],,,,
{1},
{8},,,,E7,E6,E4,E3,
{1}8x<3[1:1],
{16},,,,,,,,E3,B3,B4,E5,C1h[8:1],,,,
{1},
{8},,,,B3/E3/B7/E7,C1h[8:1],,,
{4}1x/8x,1,2/4,2,
{8}3/4,,3,,5,4,6,6,
{4}5/7,6,4/5,3,
{8}2/4,,1/8,,2,3,6,7,
{4}1x/8x,8,5/7,7,
{8}5/6,,6,,4,5,3,3,
{4}4/2-6[8:1],,8<5[8:1],1>4[8:1],
{1}C1f,
{16}5/7,,6h[16:3],,,5h[16:3],,,4h[16:3],,,3h[16:3],,,2,,
{4}2/3,4/5,6/7,1/8,
{16}2/4,,3h[16:3],,,4h[16:3],,,5h[16:3],,,6h[16:3],,,7,,
{2}7-3[8:1],1-4[8:1]/8-5[8:1],
{16}3x/6x,,,,1/8,,,,2h[16:3],,,3h[16:3],,,4,,
{8}4,5,5/6,,5,4,3/4,,
{16}5/2-6[8:1],,,,,,,,7h[16:3],,,6h[16:3],,,5<4[16:7],,
{16}5,,,,,,,,,,,6x/7x,,,3x/2x-6[8:1],,
{16},,,,8b,,,,1/7h[16:3],,,5h[16:3],,,4,,
{16}4,,2,,4,,3,,8h[16:3],,,6h[16:3],,,5,,
{16}5,,3,,4,,5,,2h[16:3],,,4h[16:3],,,5,,
{16}5,,7,,5,,6,,1h[16:3],,,3h[16:3],,,4,,
{4}4-1[8:1],5,6-3[8:1],1,
{4}2-7[8:1],6,5-8[8:1],4,
{8}2,2,4,4,5,5,7,7,
{16}1,8,1,8,2,7,2,7,3,6,3,6,5x/4x>5[4:27],,,,
{1}C1f,
{1},
{1},
{1}C1fh[8:9],
{1},
{1},
{1},
{1}C1fh[1:1]/B3/E3/B7/E7,
{1},
{1}2h[1:1],
{1}4h[1:1],
{2}5h[2:1],7h[2:1],
{4}5,5,5,4/6,
{4}3,3,3,2/4,
{4}6,6,6,5/7,
{1}4qq1[2:1]/8qq5[2:1],
{16}2x,,2xh[16:3],,,1,,,3h[16:3],,,4,,,1/5,,
{16}7x,,7xh[16:3],,,8,,,6h[16:3],,,5,,,3/7,,
{16}1x,,1xh[16:3],,,8,,,6h[16:3],,,5,,,4/8,,
{16}2x,,2xh[16:3],,,1,,,3h[16:3],,,4,,,2/6,,
{16}7x,,7xh[16:3],,,8,,,6h[16:3],,,5,,,4/8,,
{16}2x,,2xh[16:3],,,1,,,3h[16:3],,,4,,,2/6,,
{16}8x,,8xh[16:3],,,1,,,3h[16:3],,,4,,,6,5,
{16},,7h[8:1]/8xh[8:1],,,1xh[8:1]/2h[8:1],,,3xh[8:1]/4h[8:1],,,5h[8:1]/6xh[8:1],,,4x/8x,,
{4}4bx/8bx,7,6,6,
{8}5,,5,,4,5,4/5,,
{4}3x/6x,2,3,3,
{8}4,,4,,5,5,4,4,
{8}6x,6,6h[8:1],,5x,5,5h[8:1],,
{8}4x,4,4h[8:1],,3x,3,3h[8:1],,
{8}2x,2,4,4,5,5,7,7,
{8}1x/8x,,4-2[8:1]/5-7[8:1],4/5,,,1b-5[8:1]/8b-4[8:1],,
{8},,2/7,,3,4,3,2,
{8}3,4,3,2,3,4,3-6b[8:1],2,
{8},,7-2[8:1],7,4,,6-3[8:1],6,
{8}1,,7-3[8:1],7,2,,1x-5[8:1]/8x-4[8:1],,
{8},,2/7,,6,5,3,4,
{8}7,5,2,4,6-3[8:1],3,,,
{8}1b/8b,2b/7b,3b/6b,,1h[8:1]/2h[8:1],,7h[8:1]/8h[8:1],,
{4}2-4[8:1],7-5[8:1],1>4[8:1],8<5[8:1],
{8}1b,,2/7,,6,5,6,7,
{8}6,5,6,7,6,5,6-3b[8:1],7,
{8},,2-7[8:1],2,5,,3-6[8:1],3,
{8}8,,2-6[8:1],2,7,,1x-5[8:1]/8x-4[8:1],,
{8},,2/7,,3,4,6,5,
{8}2,4,7,5,1,4,8,5,
{16},,6/7,,,4/5,,,2/3,,,1/8,,,4h[16:1]/5h[16:1],,
{16},,,,,,,,1-5[8:1],8,1,,,,,,
{16}6x,,5x/7x,,3,4,,4,2,,2,8,,8,1,,
{16}3x,,2x/4x,,6,5,,5,7,,7,1,,1,8,,
{16}7x,,7xh[8:1],,5,6,,4,5,,3,4,,2,3,,
{16}1x,,1xh[8:1],,3,2,,4,3,,5,4,,6,5,,
{16}8x,,1x/7x,,2,4,,4,3,,3,8,,8,1,,
{16}1x,,2x/8x,,7,5,,5,6,,6,1,,1,8,,
{16}7x,,7xh[8:1],,5,6,,4,5,,3,4,,2,3,,
{16}1x,,1xh[8:1],,3,2,,4,3,,5,4,,6,5,,
{16}7x,,7xh[8:1],,5,6,,3,4,,2,1,,7,8,,
{16}2x,,2xh[8:1],,4,3,,6,5,,7,8,,2,1,,
{16}7x,,7xh[8:1],,5,6,,3,4,,2,1,,7,8,,
{16}2x,,2xh[8:1],,4,3,,6,5,,7,8,,2,1,,
{4}8-4[8:1],1-3[8:1],7-5[8:1],4,
{16}2x,3x,4x,5x,8x,7x,6x,5x,1x,2x,3x,4x,7x,6x,5x,4x,
{16},,2h[16:3],,,4h[16:3],,,5h[16:3],,,7h[16:3],,,1,8,
{16},,3h[8:1]/4h[8:1],,,1h[8:1]/8h[8:1],,,5h[8:1]/6h[8:1],,,2h[8:1]/3h[8:1],,,8/7-3[8:1],,
{4},1b,2,3,
{16}4,,,,5,,,,3,4,3,4,2,,2,,
{4}7,6,5,4,
{8}3,,2,,1/8,7,1/8,2,
{4}1b/8b,2,,4,
{16},,,,6,,,,4,5,4,5,3,,3,,
{24},,,,,,4/5,,,,,,E8,B7,B6,E6,,,E2,B2,B3,E4,,,
{8},,1/8,,5/7,4/6,3/5,2/4,
{1}B1/C1fh[8:1]/B5,
{1},
{1},
{1},
E
&inote_5=(175)
{8}1x/8x,1bx-4[4:3]/8bx-5[4:3],{4},,,,,{16}4,5,4,5,{8}4,3h[4:1]/5h[4:2],
,,,,,B3,B5,,{1}Ch[4:2],
{8}8x/1x,8bx-5[4:3]/1bx-4[4:3],{4},,,,,{16}5,4,5,4,{8}5,4h[4:1]/6h[4:2],
,,,,,B4,B6,,{4}3h[4:2]/7,,{8}8v3[8:1],8,3x,2,
{4}1b/4x,1/4,2/4,2/4,3/4,3/4,{16}5,4,5,4,5,,5,,
{4}4/6,4/6,4/7,4/7>2[4:3],4,4,4,4,
5/8,5/8,5/7,5/6,{8}4,4,5,5,3,3,6,6,
{16}4,5,4,5,4,5,4,5,3,6,3,6,2,7,2,7,{8}1bh[4:2],,8,8,8-4[8:1],,,,
2b/5b,2/5,{16}3,4,3,,2,,2,4,,4,5,,6/5,,6/5,,7,,7,5,,5,6,,7/4h[4:1],,,,
8,,8,,6,5,6,,7,,7,5,,5,4,,3x/4x,,6,5,7,,3,4,2,,1/7,,2bx/6bx,,,,
1,,1,,3,4,3,,2,,2,4,,4,5,,6/5,,6/5,,7,,7,5,,5,4,,3/4,,,,
3,4,3,,2/5,,1,,1,,1,8,2<4[4:2],,6,,{4}6hx[4:2],,{16},,,4bx,5bxw1[8:1],,3x/7x,,
,,,,2bx/8bx,,,,2/5,,3,4,,4,5,,4/6,,4/6,,7,8,7,,6,,6,5,,5,4,,
3/5,,3/5,,2,1,2,,3,,3,4,,4,5,,4/6,,4/6,,7,8,7,,6,,6,5,,5,4,,
{8}3bx-8[8:1]/5bx,3,6-1[8:1],6,3-8[8:1],3,7-4[8:1],7,2-6[8:1],2,1-5[8:1],1,8-4[8:1],8,6,6,
3bx/5bx,3/5,2,2,1bx/5bx,1/5,6,6,7/4,3,4/6,7,1/8,1/8,{16}1-5[8:1],8,2,7,
{2}1bx>8[4:11],,,Ch[4:1],
,,1h[1:1],,
8<1[4:11],,,Ch[4:1],
,,8hx[4:3],,
{8}1/7,1h[8:7]/7,,,{16}5,,,4,,,6,,{2}6h[1:1],{16}4,,,5,,,3,,
{2}3h[1:1],{16}5,,,4,,,5,,{2}5h[2:1],3<5[8:1],
{4}6,6/5,6/7,7/8,1/8,1/2,2/3,3/4,
{8}5,5,4,4,3/6,3/6,2V48[4:2]/7V51[4:2],1/8,{4},,,2x/7x,
{16}4bx,5,3h[8:1],,1,2h[8:1],,8,1h[8:1],,7,8h[8:1],,7,8,6,1,5,2h[8:1],,4,3h[8:1],,5,4h[8:1],,6,5h[8:1],,7,5,,
4/6,,3/5,,2,1,3,8,4h[8:1],,7,5,,5,6,,3/7,,4/6,,3,4,2,5,1h[8:1],,8,1,,1,8h[8:1],,
2bx,1,3,8,4,7h[8:1],,5,6h[8:1],,4,5h[8:1],,3,4,2,5,1,6,8,7,1h[8:1],,4,3h[8:1],,6,5h[8:1],,7,5,,
8,4,8,4,7,5,6,4,5,3,4,3,5,2,6,1-5[16:1],,,7-4[16:1],,,3-8[16:1],,,5,,,1,,,2/6,,
{4}6b/2hb[4:5],5,5,4,4,5,{16}3,4,3,4,3,,3,,
{4}6hb[4:6]/4,4,5,5,4,4,{8}5,5,6,6,
4x/6,3,3,3,4/6x,7,7,7,8x/4,3,3,3,2x/5,6,6,6,
7x/5,5,6x/4,6,3x/5,3,2x/4,5,3/5h[8:5],,4,4,4h[8:1],{24},3/6,2/7,{4}1s5b[8:1]/8z4b[8:1],
1bx/8bx,{16}3bx,7,5,7,1,7,5,7,3,7,5,7,2,6,4,6,8,6,4,6,2,6,4,6,{4}8x-3[8:1]*-5[8:1],
8bx,{8}2-4[8:1]/6-8[8:1],1,2/6,,2-5[8:1]/6-1[8:1],1,2/6,,2-6[8:1]/6,1,2bx/6bx,8,8>3[8:1]*<5[8:1],,
8bx,,2/6,,7h[8:1]/5,4,3h[8:1]/5,6,7-3[8:1]/5,,3-7[8:1],2,1,1,2x/8x,,
1bx-5b[8:1]/7bx-3b[8:1],3bx/5bx,1bx/7bx,,2h[8:1]/6h[8:1],,3h[8:1]/7h[8:1],,{12}6,4,5,2,4,3,7,5,6,{4}8w4b[8:1],
,{16}6bx,2,4,2,8,2,4,2,6,2,4,2,7,3,5,3,1,3,5,3,7,3,5,3,{4}1x-6[8:1]*-4[8:1],
1bx,{8}7-5[8:1]/3-1[8:1],8,7/3,,7-4[8:1]/3-8[8:1],8,7/3,,7-3[8:1]/3,8,7bx/3bx,1,1<6[8:1]*>4[8:1],,
1bx,,3/7,,{16}6h[16:3],,,7h[16:3],,,{8}8,8,1,2/5,2/5,3,{16}3,4,,6,5,,
{8}4/6,7,3/8,3/8,2,{16}2,1,,7,8,,{2}1/6h[2:1],{16}8x-4[8:1],1x,2x,3x,4bx/8bx,,,,
3/5,,2/6,,7,8,6,8,7h[8:1],,2,1,3,8,4,7,5,6,5,,3,4,2,4,3h[8:1],,6,5,7,4,8,3,
1,2,1,,7,8,6,8,7h[8:1],,5,6,4,5,3,4,2,4,2h[8:1],,1,2,8,3,7h[8:1],,8,7,8,,1/6,,
3b,4,2,6,5,7,3b,4,2,6,5,7,1b,8,3,6,2b,1,3,7,8,6,2b,1,3,7,8,6,4b,5,3,6,
2b,1,3,6,5,7,2b,1,3,6,5,7,1b,8,2,7,3b,4,2,7,8,6,3b,4,2,8,1,8,1,,2/8,,
1b-5[8:1]/7b,,7,,1-3[8:1],8,,8,1-5[8:1],,6,6,1-3[8:1],,7,,1-5[8:1]/7,,7,,1-3[8:1],8,,8,1,,6,6,1,,2/8,,
7b-3[8:1]/1b,,1,,7-5[8:1],2,,2,7-3[8:1],,3,3,7-5[8:1],,2,,7-3[8:1]/1,,1,,7-5[8:1],2,,2,7,,3,3,8,,1/7,,
{4}1b/7b,2h[8:1]/6h[8:1],3h[8:1]/5h[8:1],4h[8:1],{16}3/5,6,7,8,2,3,4,5,8,7,6,5,2,1,2,,
3/8,,4/7,,6,5,6,,4/5,,3,4,3,,1-5[16:1]/5,,,,1b/7-3[16:1],,,7b/2-6[16:1],,,2b/8-4[16:1],,,8b/1w5[16:1],,,{8}1b,
,,Cf/B5/B3/B4/B7/B6/A3/D4/E4/A7/D7/E7,,1-5[8:1],1,8,8,7-4[8:1],7,3,3,{16}2,1,2,1,2,,3/8,,
{8}4-8[8:1],4,6,6,1-3[8:1],1,7,7,4>1[8:1],4,8<5[8:1],8,3,3,2/4,1/5,
{4}8/6h[4:1],5h[4:1],4h[4:1],3h[4:1],2,1/8,{16}2,1,2,1,2,1,2,1,
{32}2b,3,4,5,{16}7,8,7,8,7,8,{32}7b,6,5,4,{16}2,1,{32}2b,3,4,5,{16}7,8,7,8,6,1,5,2,4,3,6,5,7,2,{8}1-5-7[4:1]*-4-8b[4:1],8/3,
