&title=モンダイナイトリッパー!
&artist=名取さな
&first=0.485
&des=
&wholebpm=180
&genre=POPSアニメ
&cabinet=DX
&version=maimai DX FESTiVAL
&lv_2=4
&lv_3=7
&lv_4=10+
&lv_5=13+
&inote_2=(180)
{1},
{1}1xh[4:3],
{4},,,8xh[4:3],
{1},
{2},8x,
{4},8x,,,
{4}1x,,,1x/8x,
{1},
{2},1,
{2},2,
{2},3,
{2},4,
{2},5,
{2},6,
{2},7h[8:7],
{1},
{2},8,
{2}8,7,
{2}7,6,
{2}6,5,
{2},4,
{2}4,3,
{2}3,2xh[8:7],
{1},
{2},B8,
{2},B1,
{2},B7,
{2},B2,
{2},B6,
{2},C1fh[8:7],
{1},
{1},
{4},,1bx,1,
{2}1,2,
{4}2,,3,3,
{2}3,4x/5x,
{4},,5,5,
{2}5,6,
{4}6,,7,7,
{2}7,1x/8x,
{4},,8,8,
{2}8,7,
{4}7,,6,6,
{2}6,5x/6x,
{4},,4,4,
{2}4,3,
{4}3,,2,2,
{2}2,1x/2x,
{4},,1x/8x,1x/8x,
{2}1x/8x,8x-5[4:3],
{1},
{2},4-1[4:3],
{1},
{2},8-5[4:3],
{1},
{2},4-1[4:3],
{1},
{2},1xh[4:3]/8xh[4:3],
{1},
{4}1x/8x,,,1x/8x,
{2},2bx/7bx,
{1},
{4},,,(160)1h[1:1]/2h[1:1],
{1},
{4},,,3h[1:1]/4h[1:1],
{1},
{4},,,5h[1:1]/6h[1:1],
{1},
{4},,,7h[1:1]/8h[1:1],
{1},
{4},,,C1h[1:1],
{4},,,(180),
{4},,,8bx,
{4}8,8,,7,
{4}7,7,,6,
{4}6,6,,5/6,
{4},5x/6x,,4,
{4}4,4,,3,
{4}3,3,,2,
{4}2,2,,1x/8x,
{4},,,1,
{4}1,1,,2,
{4}2,1/2,,3,
{4}3,3,,4,
{4}4,4/5,,5,
{4}5,5,,6,
{4}6,5/6,,7,
{4}7,7,,8,
{4}8,8,,1,
{4}1,1,,8,
{4}8,1/8,,1,
{4}1,1h[8:3]/8h[8:3],,,
{4},,,8-4[4:3],
{1},
{2},3-6[4:3],
{1},
{4},7x,7x,7x,
{4}7x/8x,,,2,
{4}2,2,1/2,,
{4},8,8,8,
{4}1/8,,,1,
{4}1,1,1b/8b,,
{1},
{1},
{1},
E
&inote_3=(180)
{1},
{4}3x,3,,4x,
{4}4,4,,6x,
{4}6,,5x,5,
{4}5,,3x,3,
{4},4x,4,,
{4}5x,5,,4xh[1:1]/5xh[1:1],
{1},
{2},3,
{4}3,,3,3,
{2}3/4,6,
{4}6,,6,6,
{2}5/6,3,
{4}3,,3,3,
{4}3/4,,2,2,
{8}2,,,1x/8x,,1x/8x,,1x/8x,
{4},,7,7,
{4}8,8,1h[8:3]/2h[8:3],,
{4},,2,2,
{4}1,1,7h[8:3]/8h[8:3],,
{4},,7,7,
{4}8,8,1/8,,
{8},,,1x/8x,,,,1x/8x,
{8},,,1xh[8:5]/8xh[8:5],,,,,
{4},,B2,B3,
{4}B4,,B7,B6,
{4}B5,,E2,E3,
{4}E4,E5,E6,E7,
{4}C1,,B7,B6,
{4}B5,B4,B3,B2,
{1}C1fh[2:3],
{1},
{4},,2,2,
{4}3,3,4,4,
{4}5/6,,7,7,
{4}6,6,5,5,
{4}3/4,,2,2,
{4}3,3,4,4,
{4}5/6,,7,7,
{4}6,6,5,5,
{4}3/4,,3,3,
{4}2,2,1,1,
{4}7/8,,6,6,
{4}7,7,8,8,
{2}1/2,7x/8x,
{4}6,6,5,5,
{4}4,4,3,3,
{4}2,2,1h[2:1]/8h[2:1],,
{4},,1/8,1/8,
{4}1b/8b,,2,2,
{4}1/2,,3,3,
{4}3/4,,5,5,
{4}4/5,,5/6,5/6,
{4}5/6,,7,7,
{4}7/8,,6,6,
{4}5/6,,4,4,
{4}4/5,,3/4,3/4,
{2}3/4,2h[4:3],
{4},3h[4:3],,,
{4}4h[4:3],,,5h[4:9],
{2},4h[2:3],
{1},
{4},,,(160)2-5[2:1],
{4},,,7-4[2:1],
{4},,,3-8[2:1],
{4},,,7,
{4},7/8,,7-4[2:1],
{4},,,2-5[2:1],
{4},,,6-1[2:1],
{4},,,2,
{4},1/2,,C1fh[1:1],
{4},,,(180),
{4},,,2,
{4}2,1/2,1/2,3,
{4}3,3/4,3/4,5,
{4}5,5/6,5/6,7,
{4}7,1/8,,7,
{4}7,7/8,7/8,6,
{4}6,5/6,5/6,4,
{4}4,3/4,3/4,2,
{4}2,1/8,,2,
{4}2,3/4,3/4,5,
{4}5,5/6,5/6,7,
{4}7,5/6,5/6,4,
{4}4,3/4,,3,
{4}3,3/4,3/4,6,
{4}6,5/6,5/6,3,
{1}3>8[4:3],
{4},,,6,
{1}6<1[4:3],
{4},,,3,
{1}3bx>8[4:3],
{4},,,6x,
{4}6,6,5x,5,
{4}5,,3x,3,
{4}3,4x,4,4,
{4},6x,6,6,
{4}7x,7,7,8x,
{4}8,8,1/2,,
{4},3/4,,,
{4}5/6,,,7/8,
{2},C1fh[4:15],
{1},
{1},
{1},
{1},
{1},
{1},
E
&inote_4=(180)
{1},
{8}4/5,,3,3,4,,2/5,,
{8}6,6,5,,4/7,,4/7,,
{8}6,6,5,,4/5,,3,3,
{8}4,,2/5,,1,,7,7,
{8}8,,1/8,,2,2,1,,
{4}3,4/5,3/6,C1h[1:1]/B3/B4/B5/B6,
{1},
{2},1-5[8:3],
{2},6-3[8:3],
{2},2>5[8:3],
{2},B5/B6/E6,
{2}B1/B2/E2,8-4[8:3],
{2},2-6[8:3],
{2},8h[2:1],
{8}2,,3/7,3bx/7x,,4bx/5x,,2h[4:1]/6bxh[8:3],
{4},,3x/5x,4/6,
{8}6,6,5,,3,,2/4,,
{8}3,3,4,,6h[4:1],,5,,
{8}3h[4:1],,5x,5,,4/6,,3/7,
{8},8,8,,1h[4:1],,2h[4:1],,
{4}3h[4:1],4,7h[4:1],6h[4:1],
{8}5,,4,4,,3/5,,4x/6x,
{8},4x/6x,,2bx/8bxh[8:5],,,,,
{4}C1,,2h[2:3],1,
{4}1,1,3,3,
{4}1,1,1x/2x,3,
{4}4/5,6,5/7,5/7,
{2}4b/8b,2h[4:1]/4h[4:1],
{4}2/4,5,6h[4:1],5h[4:1],
{16}7x,,,4x/6x,,,3x/5xp4[8:7],,,,,,,,,,
{1},
{4}2x/6x,,3/4,1/8,
{8}4/6,,2,2h[4:1],,1,,3/8,
{8},5/6,5/6,,3,3,4,2,
{8}6,6,5,7h[4:1],,8,8,8,
{8},1x/7x,,,5/6,,1/8,,
{8}3/5,,7,7h[4:1],,8,,1/6,
{8},3/4,3/4,,2,2,8,8,
{8}1,1,7,7,,2/8,,4/6,
{8},3b/7b,,,2/4,,1/8,,
{8}5/6,,7,7h[4:1],,8,,1x/6x,
{8},3/4,3/4,,6,6,5,7,
{8}3,3,4,2,8,8,1,8,
{8},2x/7x,,,3bx/8bx,,,2,
{8}2h[4:1],,4,3/4,,4/5,,5/6,
{8},7,7h[4:1],,8h[4:1],,1h[4:1],,
{1}3z7[2:1],
{8},8x,8x,,1h[4:1]/7h[4:1],,,,
{16}1x,,,2x/8x,,,3bxqq8[8:9]/7bxqq4[8:9],,,,,,,,,,
{1},
{4},1x,1/7h[4:1],5h[4:1],
{4}4h[4:1],2h[4:1],8-4[4:1],,
{4}3>8[4:1],,7h[4:1],5h[4:1],
{4}4h[4:1],2,6h[4:1],8h[4:1],
{8}1,,2/8,,7,7,5,5,
{8}6,6,6/4w8[2:1],,,,,,
{8},,,,2h[4:3],,1,1,
{4}1,3,4,3/5,
{8}6h[4:3],,5,5,5,,7,,
{4}8,1/7,C1f/B2/B6,,
{1},
{4},,,(160)3h[2:1],
{4},4h[2:1],,5h[2:1],
{4},6h[2:1],,3h[2:1],
{4},4h[2:1],,5h[2:1],
{4},6,,5h[4:1]/6h[4:1],
{4},4h[4:1]/5h[4:1],,3h[4:1]/4h[4:1],
{4},3h[4:1]/4h[4:1],,4h[4:1]/5h[4:1],
{4},5h[4:1]/6h[4:1],,7/4V28[4:3]q5[1:1],
{1},
{4},,,(180)8bx,
{4},,,4/6,
{8}2/8,,3/4,,7,7h[4:1],,8,
{8},1/6,,3/4,3/4,,6,6,
{8}5,7,3,3,4,2h[4:1],,1,
{8},3x/8x,,3x/8x,,,3/4,,
{8}1/8,,4/6,,2,2h[4:1],,1,
{8},3/8,,5/6,5/6,,7,7,
{8}1,1,8,8,2,2,,1/7,
{8},3/5,,2b/6b,,,3/4,,
{8}1/7,,5/6,,2,2h[4:1],,1,
{8},3/8,,5/6,5/6,,7,7,
{8}8,6,2,2,1,3,5,5,
{8}4,6,,3b/7b,,,1/2,,
{8}7/8,,5/6,,2,2bx/8bx,,1bx/7bx,
{8},3bx/5bx,,6,6h[4:1],,5h[4:1],,
{4}4h[4:1],3>6b[8:5],,,
{4},,4x/5x,3h[4:1],
{8}2h[4:1],,1,,2/8,2/8,,3/4,
{8},5/6,,8,8,,1h[4:1]/7h[4:1],,
{16},,,,1x,,,2x/8x,,,3x>8[8:3]/7x<4[8:3],,,,,,
{4},,,4/5,
{8}3,3,4,,2/5,,6,6,
{8}5,,4/7,,5/6,,7,7,
{8}8,,1/6,,2,2,1,,
{8}3/8,,1/2,,3,3,2/4,,
{8}4/5,,6,6,5/7,,4/6,,
{8}3,3,2/4,,3/5,,7/8,7/8,
{8}7/8,,4/6,,1/2,1/2,1/2,,
{8}8,8,1,1,6,6,4,4,
{8}5,5,3b>6b[4:7]qq4[384:767],,E5f,,,,
{1},
{1},
{1},
E
&inote_5=(180){2},{16}A4,A5,A3,A6,A2,A7,A1,A8,
{8}2bx,3,4,8x,7,6,2x,3,
4,8x,7,6,B1/B2,,
7bx,6,5,1x,2,3,7x,6,
5,1x,2,3,{24}E8,E7,E6,{8}E5,
1bx,2,3,7x,6,5,2x,3,
4,8x,7,6,3x,4,5,1x,
8,7,2h[2:1]/6h[1:1],,,,,,
,{32}D2,A1,D1,A8,{4}D8,{2},
7<4[8:3],B4/B3,
2>5[8:3],B5/B6,
6>3[8:3],B5/B4,
1V35[8:3]*V75[8:3],,
{8}6,5,7,7,3,4,2,2,
6,6h[4:1],,5h[4:1],,4h[4:1],,3>1[8:1],
,3/4,,6<8[8:1],,5/6,,3b/E6,
,E5/1b,,E4/6b,,,,,
3/4,3h[8:1]/4h[8:1],,2h[8:1]/4h[8:1],,1h[8:1]/4h[8:1],,8h[8:1]/4h[8:1],
,1h[8:1]/4h[8:1],,2h[8:1]/4h[8:1],,4,3,2/4-2[8:1],
,4/6,5,4-6[8:1],,2/4,3,4qq1[16:7]*pp7[16:7],
,,,,,,2x/6x,,
3/5b,,4,{48},B2,E2,A1,,,{8},7xs3[4:1],,3xs7[4:1],
,,,1,,3,2,1b/5b,
,C1/B2/B6,,3b/7b,,C1/B4/B8,,2bh[8:5]/6b<4[8:3],
{1},
{16}3,4,3,,6,5,6,,3,4,3,,6,5,6,,
4,5,3,6,4,5,3,6,4,5,3,6,{8}1b,,
1h[8:1],5h[8:1],2h[8:1],4h[8:1],3h[8:1],8h[8:1],4h[8:1],7h[8:1],
5h[8:1],6h[8:1],1h[8:1],5h[1:0],{16}3bh[1:0],6bh[1:0],3bh[1:0],6bh[1:0],{4}4xqq3b[16:3],
{16}5xpp6b[16:3],,,{32}A3,D4,{16}4xqq3b[16:3],,,{32}A6,D6,{16}5xpp6b[16:3],,,{32}A3,D4,{16}4xqq3b[16:3],,,{32}A6,D6,
{16}5x,,,{32}A3,D4,{16}4x,,,,3/5,,,4/7,,,6b/2b>8[8:3],,
{4},8>4[4:1],4<8[4:1],8,
{32}D1,D2,D3,D4,D5,D6,D7,D8,E1,E2,E3,E4,E5,E6,E7,E8,{2}C1f,
{8}7/2>5[8:1],1,7<4[8:1],8,2>5[8:1],1,7,8x-5[8:1],
,3x/8x,,1x/4x,,3/4,3/4,,
7-5-1<6-3[2:1],
{8},4,,3,3,,2,
,1-4[8:1]/5-8[8:1],,1x/5x,,4x/8x,,,
3/7<4[8:1],8,2>5[8:1],1,7<4[8:1],8,2,1x-4[8:1],
,1x/6x,,5x/8x,,8,1/7,2/6,
3/5,{16}6,5,6,,3,4,{8}3,8,7,2/6,
,1>4[8:1]/5<8[8:1],,1x/5x,,4bx/8bx,,,
3-6[8:1],3,2-7[8:1],2,3-6[8:1],3,1,1x-5[8:1],
,1x/3x,,2x/5x,,5/6,5/6,,
2-6-4-8[2:1],
{8},8,,7,7,,6,
1,2/8,3/7,4>1[8:1]/6p8[8:1],,,,,
1x/8x,A2/E3/E2/A7/E8/E7,,4/5,3,2>5[8:1],8,7,
,6<1[8:1],5,4,,2,3,4,
5/6,4,3,2,1/8,7,6,5h[4:1]/4>6[8:3],
,,,,,8,7,6,
4/5,6,7,8,{16}1/2,,,4>5b[2:1]/5<4b[2:1],{4},
,,,C1f/B2/B3/B6/B7/E3/E7,
2/7,1/8,{8}3,4,5,,
5/6,{16}7,8,7,,2,1,2,,7,1,7,1,7,1,
7h[4:1],,,,2x,1,2,1,3,8,3,8,3,,,,
3/5,,6,4,6,,2,4,2h[16:3],,,5x,,,6,8,
6,,2,8,2,8,2,8,{32}2bx,3x,4x,5x,6x,7x,8x,1x,{16}2x,,,,
6,4,6,3,5,3,6,4,6,3,5,3,7qq3[2:1],4,7,,
{1},
{4}Ch[1:3],B8,E7,E6,
E5,D4,D3,D2,
D1,D8,D7,D6,
D5,{1},,
(160){2}3h[4:1]/4h[4:1],3h[4:1]/4h[4:1],
5h[4:1]/4h[4:1],5h[4:1]/4h[4:1],
5h[4:1]/6h[4:1],{4}5/6,6xq3[2:1],
{2}Ch[2:1],,
3/2h[4:1],E5/3h[4:1],
5/4h[4:1],E5/5h[4:1],
6/7h[4:1],E5/6h[4:1],
4/5p4[4:3],{4},4>1[4:1],
{1}1<5[8:3],
(180){16}E8,B7,B6,E6,E2,B2,B3,E4,D7,D8,D1,D2,D3,D4,{8}D5,
6x/3x>8[8:1],4,6<1[8:1],5,3>8[8:1],4,6,5x-8[8:1],
,1x/5x,,3x/8x,,5/6,5/6,,
3-6-2-7-1[2:1],
,4,,5,5,,6,
,4qq5b[8:3]/6pp5b[8:3],,4bx/6bx,,,,,
3/6<1[8:1],5,3>8[8:1],4,6<1[8:1],5,3,4x-1[8:1],
,4x/7x,,5x/8x,,5,4/6,3/7,
2/8,{16}1,8,1,,7,8,{8}7,2,3,4-8[8:1]/5-1[8:1],
,4x/5x,,1b-4b[8:1]/8b-5b[8:1],,{48}1bx/8bx,B2/B7,C1f,B3/B6,B4/B5,E5,{8},,
1-5[8:1],1,8-6[8:1],8,2-4[8:1],2,1,1x-5[8:1],
,1x/3x,,2x/8x,,5/6,5/6,,
2-6-4-8[2:1],
{8},8,,7,7,,6,
1,2/8,3/7,4>1[8:1]/6p8[8:1],,,,,
2-5[8:1],2,1-6[8:1],1,2,2<7[4:1],,7x>2[4:1],
,6,,5,,2,3,4,
5/6,7,8,1,2,3>6[16:7]*p6[16:7],3,,
,,,,,7,6,5,
2/4,3,5/7,6,{16}5/3b,,,2/1b,{8},6b/8>5[4:1],
,,,,,8,7,6,
5,4/6,3/7,2/8,{16}1,,,4x/5x,,,2bhx[8:7]/7bhx[8:7],,
{1},
{8}2bx/4bx,3,4,5x/7x,6,5,4x/2x,3,
4,5x/7x,6,5,B1/B2,,
5bx/7bx,6,5,4x/2x,3,4,5x/7x,6,
5,4x/2x,3,4,{24}E1,E8,E7,{8}E6,
2bx/4bx,3,4,5x/7x,6,5,4x/1x,2,
3,4x/8x,7,6,5x/1x,3,4,5x/8x,
6,5,3hx[4:1]/4x,4,4,6hx[4:1]/5x,5,5,
2hx[4:1]/3x,3,3,7hx[4:1]/6x,6,6,{16}3b,1,3,1,
3,1,2b,8,2,8,2,8,1b,7,1,7,1,7,8b,6,
8,6,8,5,
{1}7bx<3s7[4:14]*>3z7[4:14],,,,E
