&title=ピュグマリオンの咒文
&artist=アリスシャッハと魔法の楽団
&first=0.14
&wholebpm=190
&engtitle=Hex of Pygmalion
&engartist=Alice Schach and the Magic Orchestra
&des_4=翠楼屋
&des_5=はぴネコ(はっぴー&ぴちネコ)
&lv_2=4
&lv_3=7
&lv_4=10+
&lv_5=13+
&inote_2=(190)
{1}1xh[1:1],
{1},
{1}8xh[1:1],
{1},
{1}1h[1:2]/8h[1:2],
{1},
{1},
{1},
{2}1,1,
{1}1,
{1}2,
{1}3,
{2}4,4,
{1}4,
{1}5,
{1}4/5,
{2}6,6,
{1}6,
{1}7,
{1}1/8,
{2}8,8,
{1}8,
{2}7,7,
{1}7,
{2}6,6,
{1}6,
{2}5,5,
{1}4/5,
{2}3,3,
{1}3,
{2}2,2,
{1}1x/2x,
{1}8-5[4:3],
{1},
{1}4,
{1}4,
{1}4-1[4:3],
{1},
{1}8,
{1}8,
{1}8-4[4:3],
{1},
{1}1,
{1}1,
{1}1-5[4:3],
{1},
{1}8,
{1}1x/8x,
{2}8,8,
{2}7,7,
{4}6,6,6,,
{1}5x/6x,
{2}4,4,
{2}3,3,
{4}2,2,2,,
{1}1x/2x,
{4}1,1,1,,
{4}2,2,2,,
{4}3,3,3,,
{4}4,4,4,,
{4}5,5,5,,
{4}6,6,6,,
{4}7,7,7,,
{1}7x/8x,
{1}7h[1:1]/8h[1:1],
{1},
{1}5h[1:1]/6h[1:1],
{1},
{1}3h[1:1]/4h[1:1],
{1},
{1}1h[1:1]/2h[1:1],
{1},
{2}1,1,
{2}2,2,
{2}3,3,
{2}4,4,
{2}5,5,
{2}6,6,
{2}7,7,
{1}8b,
{1}B1,
{1}B8,
{1}B2,
{1}B7,
{1}B3,
{1}B6,
{1}B4,
{1}C1fh[1:1],
{1},
{1},
{4}8b,8,8,,
{2}7,7,
{4}6,6,6,,
{2}4/5,4/5,
{4}4,4,4,,
{2}3,3,
{4}2,2,2,,
{1}1bx/8bx,
{4}1b,1,1,,
{4}2,2,2,,
{4}3,3,3,,
{4}4,4,4/5,,
{4}5,5,5,,
{4}6,6,6,,
{4}7,7,7,,
{4}8,8,8,,
{1}1b/8b,
{1},
{1},
{1},
E
&inote_3=(190)
{1}5xh[4:3]/6xh[4:3],
{1},
{1}4xh[4:3]/5xh[4:3],
{1},
{1}3xh[4:3]/4xh[4:3],
{1},
{1}C1f,
{1},
{1}7x/8x,
{2}6,6,
{1}6h[1:1],
{1}5,
{4}4/5,,3,3,
{2}3,3/4,
{1}3h[1:1]/4h[1:1],
{4},,2,2,
{4}2,,1,1,
{1}1,
{2}7x/8x,7x/8x,
{1}7bx/8bx,
{4}7,7,6,6,
{2}4/5,3/4,
{4}2,2,3,3,
{2}4/5,5/6,
{4}7,7,6,6,
{2}4/5,3/4,
{4}2,2,3,3,
{2}4/5,5/6,
{4}7/8,,7,7,
{2}7/8,7/8,
{2}1x/2x,1x/2x,
{1}1bx/2bx,
{2}3h[2:1],4,
{2}6h[2:1],5,
{2}3h[2:1],4,
{2}6h[2:1],5,
{2}7h[2:1],6h[2:1],
{2}5h[2:1],4h[2:1],
{2}3h[2:1],2,
{2}1/8,1/8,
{1}2-5[2:1],
{1}7-4[2:1],
{1}2-5[2:1],
{1}7-4[2:1],
{2}3h[2:1],4,
{2}6h[2:1],5,
{1}C1fh[1:1],
{1},
{4}1/2,1/2,8,8,
{4}7,7,5/6,,
{4}7/8,7/8,1,1,
{4}2,2,3/4,,
{4}1/2,1/2,8,8,
{4}7,7,5/6,,
{4}7/8,7/8,1,1,
{4}2,2,3x/4x,,
{4}B2,B3,B4,,
{4}B7,B6,B5,,
{4}B3,B4,B5,B6,
{1}C1,
{1}7<4[8:5]/8>3[8:5],
{2},1/2,
{4}2,2,3,3,
{4}4,4,5/6,,
{4}7xh[8:3]/8xh[8:3],,,7xh[4:3]/8xh[4:3],
{1},
{4}5xh[8:3]/6xh[8:3],,,5xh[4:3]/6xh[4:3],
{1},
{4}3xh[8:3]/4xh[8:3],,,3xh[4:3]/4xh[4:3],
{1},
{4}1xh[8:3]/2xh[8:3],,,1xh[4:3]/2xh[4:3],
{1},
{4}3/4,,3,3/4,
{4},5,4/5,,
{4}5/6,,6,5/6,
{4},4,4/5,,
{8}3x/5x,,,3x/5x,,,4x/6x,,
{8},4x/6x,,,4x/5x,,,,
{1}C1fh[1:1],
{1},
{1}7h[1:1],
{1}6h[1:1],
{1}5h[1:1],
{1}4,
{1}2h[1:1],
{1}3h[1:1],
{1}4h[1:1],
{1}5,
{1}C1f,
{4}1/8,1/8,1b/8b,,
{4}7/8,7/8,6,6,
{4}4/5,4/5,3,3,
{4}1/2,1/2,3,3,
{4}3/4,3/4,3/4,,
{4}1/2,1/2,3,3,
{4}4/5,4/5,6,6,
{4}7/8,7/8,6,6,
{4}5/6,5/6,5b/6b,,
{4}B7,B6,B5,,
{4}B2,B3,B4,,
{4}B6,B5,B4,B3,
{1}C1,
{1}1<6[8:5]/2>5[8:5],
{2},7/8,
{4}7,7,6,6,
{4}5,5,3/4,,
{1}C1fh[1:5],
{1},
{1},
{1},
{1},
{1},
{1},
{1},
E
&inote_4=(190)
{8}3xh[4:1]/4xh[4:1],,,3h[4:1]/4h[4:1],,,3h[4:1]/4h[4:1],,
{8},2x/5x,5x/2x<7[4:1],,,,,,
{8}5xh[4:1]/6xh[4:1],,,5h[4:1]/6h[4:1],,,5h[4:1]/6h[4:1],,
{8},4/7,4/7>2[4:1],,,,,,
{4}3,3,3/4,6,
{4}6,5/6,4,4,
{1}4h[4:7]/5,
{1}6h[4:3],
{4}6,6,6,6,
{4}5/6,6,5/6,6,
{4}4/6,6,6,6,
{4}5/6,5/6,4/7,,
{4}3,3,3/4,3,
{4}3/4,3,3/5,3,
{4}3/4h[4:5],3,3,3,
{2}3h[4:1],4h[4:1]/5h[4:1],
{4}4/6,6,4/6,6,
{4}3/5,3,3/5,3,
{4}2/5,5,1/5,5,
{4}1x/5x,,2,2,
{4}3,3/4,5,4/6,
{4}6,5/6,4,3/5,
{4}3,3/4,5,4/6,
{4}7,7,5/7,8,
{4}7,5/6,4,3/5,
{4}2,3/4,5,4/6,
{4}5/7,4/6,3/5,4/2>7[2:1],
{4},,8x,8x,
{4}7,6,3/5,3/5,
{4}2,1,2/8,2/8,
{2}3h[4:1]/7h[4:1],2h[4:1]/6h[4:1],
{8}1,1,8,,2/7,,,,
{2}4h[1:1],B3/B4,
{2}5h[1:1],B5/B6,
{2}3h[1:1],B3/E3,
{2}6h[1:1],B6/E7,
{2}2h[2:1],1h[2:1],
{2}8h[2:1],7h[2:1],
{2}6h[2:1],5h[2:1],
{2}4h[2:1],3,
{1}3<6[4:3],
{1}7>2[4:3],
{1}3<6[4:3],
{1}7>2[4:3],
{4}3,3,4,4,
{4}5,5,3/6,3>6[1:1]/6<3[1:1],
{1},
{8},,,,4,4,5,,
{4}1x/8x,3/5,1/2,4/6,
{4}7/8,3/5,1/2,1/2,
{4}7/8,5/6,3/4,1/2,
{4}1/2,3/4,5/6,5/6,
{4}7h[4:1],5h[4:1],4h[4:1],2,
{4}2h[4:1],4h[4:1],5h[4:1],6,
{2}4h[4:1]/7h[4:1],2h[4:1]/5h[4:1],
{4}3/4,5/6,3x/8x,,
{4}7b/8b,1b/2b,B3/E3/B4/E4f/E5,,
{4}1b/2b,7b/8b,B5/E5/B6/E6f/E7,,
{4}7b/8b,7b/8b,1b/2b,1b/2b,
{4}7b/8b,5b/6b,B4/E4/B5f/B6/E7,,
{1}C1h[1:1],
{2},1bx/7bx,
{4}6h[4:1],5h[4:1],4h[4:1],3h[4:1],
{4}4,4,2x/6x,,
{8}1bx/8bx,,2,2/4,,5,3/5,,
{4}6h[4:1],5h[4:1],7,7,
{8}1bx/8bx,,7,5/7,,4,4/6,,
{4}3h[4:1],4h[4:1],2,2/5,
{8}2bx/5bx,,3,3/4,,6,5/6,,
{4}7h[4:1],6h[4:1],5,6,
{8}4bx/8bx,,3,3/4,,6,5/6,,
{4}7h[4:1],6h[4:1],5,4/7,
{4}3/8,2/7,1/6,2h[4:1]/5h[4:1],
{4},2/5,2/5,3/4,
{4}3/4,4/5,5/6,4h[4:1]/7h[4:1],
{4},4/7,4/7,5/6,
{4}4/7,3/6,2/5,1/6,
{4}2/7,3/8,1/2,1/2,
{2}8<5[4:1],1>4[4:1],
{2}8-4[4:1],1-5[4:1],
{1}6bxh[1:1],
{1}5h[1:1],
{1}4h[1:1],
{1}3h[1:1],
{1}7h[1:1],
{1}8h[1:1],
{1}1h[1:1],
{1}2-6[4:1],
{1}8bx,
{8}4/5,,5,5,4,,3/6,,
{4}1x/2x,4/6,7/8,3/5,
{4}1/2,4/6,7/8,7/8,
{4}1/2,3/4,5/6,7/8,
{4}7/8,5/6,3/4,3/4,
{4}3h[4:1],1h[4:1],8h[4:1],6,
{4}6h[4:1],8h[4:1],1h[4:1],2,
{2}3h[4:1]/8h[4:1],1h[4:1]/6h[4:1],
{4}2/5,3/4,4x/8x,,
{4}1b/2b,7b/8b,B5/E5/B6/E6f/E7,,
{4}7b/8b,1b/2b,B3/E3/B4/E4f/E5,,
{4}1b/2b,1b/2b,7b/8b,7b/8b,
{4}1b/2b,3b/4b,B3/E3/B4f/B5/E6,,
{1}C1h[1:1],
{2},2bx/8bx,
{4}7h[4:1],5h[4:1],3h[4:1],1h[4:1],
{4}7h[4:1],8,6-2[4:1],,
{1}1b,
{1},
{1},
{1},
E
&inote_5=(190)
{8}
6bx-2[8:1],,1,1bx-4[8:1],,5,5bx<3[2:1],,4h[2:1],
{16}
,,,,,,,,,,4,5,4,5,
{8}
3bx-7[8:1],,8,8bx-5[8:1],,4,4bx>6[2:1],,5h[2:1],
{16}
,,,,,,,,,,,,5,4,
{8}
6h[4:1],,8,8h[4:1],,1,1h[4:1],,3,3h[4:1],,6,6,,5<8v6[8:5]/4>1v3[8:5],,,,,,,,
{16}
,,,,B4,B5,B3,B6,E3,E7,A2,A7,
{8}
Ch[2:1],,,,7b<4[2:1],,,,1,,1,,2/4h[4:1],,2,,3/5h[4:1],,3,,3/6q5[2:1],,3,,3,,3,,
{16}
3/4,,,4/5,,,5/6,,
{8}
5/6,,5,5,4h[4:1]/6,,6,,4/6,,5/6,,4h[4:1]/6,,6,,3h[4:1]/6,,6,,2pp4[4:1]/6,,6,,6,,5/4,5/4,
{6}
B3/E3,B6/E7,B8/B1,
{8}
Ch[4:1],,,,2>4[8:1]/7h[4:1],,,,6,,5,,4<6[8:1]/3h[4:1],,,,2,,3,,5xh[4:1]/4x>2[8:1],,,,1hx[4:1]/5x<7[8:1],,,,8/1,8<5b[8:1]/1>4b[8:1],,
{32}
8b/1b,D2/D8,D7/D3,D6/D4,
{16}
,,,,4,5,4,5,
{8}
3/6x-8[8:1],,5h[4:1],,6-8[8:1],4,4,,8hx[8:1],5,7hx[8:1],4,6hx[8:1],3,5hx[8:1],2,4x-1[8:1],,3h[4:1],,4-1[8:1],2,2,,
3hx[8:1],4,6h[8:1],5,2h[8:1],4,7h[8:1],5,
3x-1[8:1],,4h[4:1],,3x-1[8:1],5,5,,1xh[8:1],4,2h[8:1],5,3hx[8:1],6,4h[8:1],7,
5x-8[8:1],,6h[4:1],,5-8[8:1],7,7,,6,3,5-8[8:1]/4-1[8:1],,,,2b/7b,,
6h[8:1],5h[8:1],8h[8:1],1h[8:1],4h[8:1],3h[8:1],2h[8:1],1h[8:1],8h[8:1],1h[8:1],4h[8:1],3h[8:1],5h[8:1],6h[8:1],7h[8:1],8h[8:1],
7<4[8:1],,1,2,3>8[8:1],,5,6,7-3[8:1],,2b/7b,,2,1,8,7,
2-6>3[2:1],,,,B8/E1,,,,7-3<6[2:1],,,,B8/E1,,,,3>8-4<7[1:1],,,,E7/E6,,,,E2/E3,,,,4,,5,,
6<8v5[2:1],,E7/B7,,E2/D2,,3,,3>1v4[2:1],,B2/E3,,E8/D8,,6<2[4:1]*q3[4:1],,6b,,,,
3/4,,5/4,,6h[2:1]/5-1[8:1],,,,1,1,8,8,7>2[2:1],,,,2p6[2:1],,,,6v3<5[4:3],,,,
{6}
8x,8x,8x,
{8}
7x<4[2:1],,,,4q8[2:1],,,,8q4[4:1]*>3[4:1],,,,,,
2x/5x,,3/4,3,3/5,
{16}
3,4,
{8}
3,3,3/5,,
6/5,6,6/4,
{16}
6,5,
{8}
6,7/4,8<2[2:1]/3<1[2:1],,8b/3b,,,,,,8x/3x,,6/5,6,3/4,3,
{16}
8,1,8,1,8,,,,
7x-4[8:1]/2x,,6,8,7,,,,2-5[8:1],,3,1,2,,,,8-4[8:1],,,,8b/1b,,,,
3h[8:1]/5h[8:1],,,,4h[8:1]/6h[8:1],,,,
7-3[8:1],,,,7/8-4[8:1],,,,8/1-5[8:1],,,,1/2<5[4:1],,,,2b/4b,,,,,,,,
8h[8:1]/2h[8:1],,,,1h[8:1]/7h[8:1],,,,
2-5[8:1]/7,,3,1,2,,,,7-4[8:1],,6,8,7,,,,2>7[4:1],,,,E3,E4,E5,E6,E7,,,,
8x/1x,,,,2h[8:1]/4h[8:1],,,,7h[8:1]/5h[8:1],,,,2/4,,3,,7/5,,6,,4-8[8:1]/1,,,,,,,,7h[8:18]/2,,,,,,,,
{32}
D1,E1,E5,D5,,,,,D7,E7,E3,D3,,,,,D2,E2,E6,D6,,,,,D8,E8,Cf,E4,D4,,,,E1,B8,B7,E7,A6,,,,E6,B5,B4,E4,,,,A3,E3,B2,B1,E1f,
{8},,,
8-5[8:1],,8x/5-2[8:1],,5x/2-7[8:1],,2x/7-4[8:1],,7x/4-8[8:1],,4x/8bxw4b[8:1],,,,,,
2h[4:1]/7h[4:1],,,
,3/6,3<8[8:3]/6>1[8:3],,,,,,,
{12}
1,1,1,7,7,7,
{8}
3>8[4:1],,8<5[4:1],,5>2[4:1],,2pp6[16:10],,8,,8-4[8:1],,
{16}8b,Cf,
{8},,,
7bx-4[8:1],,1,2bx-5[8:1],,8,7bx<8[2:1],,1h[2:1],,,,,,
{16}
1,8,1,8,
{8}
2bx-5[8:1],,8,7bx-4[8:1],,1,2bx>1[2:1],,8h[2:1],,,,,,,
{16}
7,8,
{8}
7h[4:1],,5,4h[4:1],,6,7b>3[4:1],,3<7[4:1],,7,,
{16}
2,3,4,5,6,7,8,1,
{8}
2h[4:1],,4,5h[4:1],,3,2b,,
{16}
D4,A3,B4,B3,D3,,D6,B5,A6,B6,D7,,
{8}C,
,1bx-5[8:1],,7,6bx-2[8:1],,8,1bxq8[4:1],,7h[4:1],,,,
{6}
8bxh[12:1]/7hbx[12:1],7hbx[12:1]/6hbx[12:1],6hbx[12:1]/5hbx[12:1],
{8}
8bx-4[8:1],,2,3bx-7[8:1],,1,8bxp1[4:1],,2h[4:1],,,
{16}
,,2,8,1,8,1,8,1,8,
{8}
2h[4:1],,4,5h[4:1],,7,8,8h[4:1],6,5,5h[4:1],3,2,2,5-1[8:1],4,5b,,,,
{16}
2,3,8,7,3,4,7,6,5x,,5,,6/4,,6/4,,3,5,3,5,2,6,2,6,1bxqq4[4:3],,,,,,,,,,,,,,,,
6h[4:3],,,,,,,,,,,,,,,,5<8[2:1],,,,,,,,,,,,,,,,4>1[2:1],,,,,,,,,,,,,,,,
{8}
7,7,7,7,2,2,2,2,6,6,5,5,4,4,3,3,
{16}
5x,2,5,2,5,2,5,2,6,1,6,1,7,8,7,8,
{24}
E7,E6,E5,E1,E2,E3,D7,D6,D5,D1,D2,D3,
{32}
6x,5x,4x,3x,2x,1x,8x,7x,6x,5x,4x,3x,2x,1x,8x,7x,6xb,,,,,,,,
{16}
,,3,4,2bh[16:3],,,8bh[16:3],,,5bh[8:1],,4,,,,3/6,,2/7,,1,8,1,8,1,,,,
7bx-4[8:1]/2bx,,6,8,7,,1,,2-5[8:1],,3,1,2,,8,,8-4[8:1],,,,8b/1b,,,,3h[8:1]/5h[8:1],,,,6h[8:1]/4h[8:1],,,,
{4}
7-3[8:1],7/8-4[8:1],8/1-5[8:1],1/2<5[4:1],2b/4b,
{8},,
8h[8:1]/2h[8:1],,7h[8:1]/1h[8:1],,
{16}
8/2-5[8:1],,3,1,2,,8,,7-4[8:1],,6,8,7,,1,,1>8[4:1],,,,
{24}
E2,E3,E4,E5,E6,E7,E8,,,,,,
{8}
8x/1x,,2h[8:1]/4h[8:1],,7h[8:1]/5h[8:1],,2/4,3,7/5,6,1-5[8:1]/4-8[8:1],,,,3b/7bh[8:18],,,,
{32}
D1,E1,E5,D5,,,,,D7,E7,E3,D3,,,,,D2,E2,E6,D6,,,,,D8,E8,Cf,E4,D4,,,,E1,B8,B7,E7,A6,,,,E6,B5,B4,E4,,,,A3,E3,B2,B1,E1f,,,,,
{8}
,,8b-5b[8:1],,A8f/5b-2b[8:1],,A5f/2b-7b[8:1],,A2f/7b-4b[8:1],,A7f/4b-8b[8:1],,A4f/8bw4b[8:1],,A8f,,,,1bh[4:1]/8bh[4:1],,,3/6,3<8[2:1]/6>1[2:1],,,,,,,,
{12}
8,8,8,2,2,2,
{4}
6^1[4:1],1^4[4:1],4^7[4:1],7qq3[16:10],1,1-5[8:1],
{32}1b,
,Cf,B3/B5,,,,,,,,,,,,,2b/7b,
