&title=ピリオドサイン
&artist=Ponchi♪ feat.はぁち
&first=0.73
&des=サファ太
&wholebpm=195
&genre=maimai
&cabinet=DX
&version=maimai DX FESTiVAL
&lv_2=4
&lv_3=7+
&lv_4=10+
&lv_5=13
&inote_2=(195)
{2},
{1}1,
{1}1,
{1}1,
{1},
{1}8,
{1}8,
{1}8,
{1},
{1}1,
{1}1,
{1}1x/8x,
{2},1,
{2},2,
{2},3,
{2},4,
{2},5,
{2},6,
{2},7,
{2},1/8,
{2},8b,
{2},8,
{2},7,
{2},7,
{2},6,
{2},6,
{2},5,
{2},4/5,
{2},3,
{2},3,
{2},2,
{2},2,
{2},1x,
{2}1x,1x/8x,
{2},1h[1:1]/2h[1:1],
{1},
{2},3h[1:1]/4h[1:1],
{1},
{2},5h[1:1]/6h[1:1],
{1},
{2},7h[1:1]/8h[1:1],
{1},
{2},B7/B8,
{2},B5/B6,
{2},B3/B4,
{2},B1/B2,
{2},C1fh[8:15],
{1},
{1},
{1},
{2},1,
{2}1,1,
{2}1,2,
{2}2,1/2,
{2},3,
{2}3,3,
{2}3,4,
{2}4,4x/5x,
{2},5,
{2}5,5,
{2}5,6,
{2}6,5/6,
{2},7,
{2}7,7,
{2}7,8,
{2}8,1x/8x,
{2},1x/8x,
{2}1x/8x,1x/8x,
{2},B1,
{2},B2,
{2},B3,
{2},C1,
{2},B8,
{2},B7,
{2},B6,
{2},C1,
{2},B1/B2,
{2},B7/B8,
{2},C1h[8:7],
{1},
{2},8-5[4:3],
{1},
{2},4-1[4:3],
{1},
{2},8-5[4:3],
{1},
{2},4-1[4:3],
{1},
{4},,8,8,
{2}8,7,
{4}7,,6,6,
{2}6,4/5,
{4}4/5,,4,4,
{2}4,3,
{4}3,,2,2,
{2}2,1,
{2}1,1/8,
{2}1/8,2h[1:1]/7h[1:1],
{1},
{1},
{4},,1,1,
{4}1,,8,8,
{2}8,1h[2:1]/8h[2:1],
{1},
{1},
{1}B8,
{1}B1,
{1}B7,
{1}B2,
{1}B6,
{1}C1fh[8:7],
{1},
{1},
{1},
E
&inote_3=(195)
{2},
{1}3h[1:1],
{1}4h[1:1],
{1}5h[1:1],
{1}6,
{4}6,6,5/6,,
{4}3,3,3/4,,
{8}3x/4x,,,3x/4x,,,,,
{8}4x/5x,,,4x/5x,,,,,
{8}5x/6x,,,5x/6x,,,,,
{1}C1h[1:1],
{1},
{2},1-6[4:3]/2-5[4:3],
{1},
{2}7/8,7-4[4:3]/8-3[4:3],
{1},
{2}1/2,1-6[4:3]/2-5[4:3],
{1},
{2}7/8,7-4[4:3]/8-3[4:3],
{1},
{2}1/2,2,
{2}2,3,
{2}3,4,
{2}4,5/6,
{2}5/6,7,
{2}7,6,
{2}6,5,
{2}5,3b/4b,
{4}3b/4b,,6,6,
{4}5/6,,3,3,
{4}3/4,,6,6,
{4}5/6,,3,3,
{4}3/4,,2,2,
{4}1/2,,7,7,
{2}7/8,6h[2:1],
{2}5,3h[2:1],
{2}4,6h[2:1],
{2}5,3h[2:1],
{2}4,2h[2:1],
{2}1,7h[2:1],
{2}8,2h[2:1],
{2}1,7h[2:1],
{4}8,,B7,B6,
{4}B5,,B2,B3,
{4}B4,,B8,B7,
{4}B5/B6,,B1,B2,
{4}B3/B4,,E8,E7,
{4}E6,E5,E4,E3,
{2}E2,C1fh[8:7],
{1},
{4},,2,2,
{4}3/4,3/4,5,5,
{4}5/6,5/6,7,7,
{4}5/6,5/6,4,4,
{4}3/4,,2,2,
{4}1,1,7/8,7/8,
{8}7/8,,,,1x/8x,,,1x/8x,
{4},1xh[4:3]/8xh[4:3],,,
{4},,7,7,
{4}5/6,5/6,4,4,
{4}3/4,3/4,2,2,
{4}3/4,3/4,5,5,
{4}5/6,,7,7,
{4}8,8,1/2,1/2,
{2}1/2,3h[8:3]/4h[8:3],
{2},4h[8:3]/5h[8:3],
{2},5h[8:3]/6h[8:3],
{2},C1f,
{2},1-6[4:3]/2-5[4:3],
{1},
{2}7x/8x,7-4[4:3]/8-3[4:3],
{1},
{2}1x/2x,1-6[4:3]/2-5[4:3],
{1},
{2}7x/8x,7-4[4:3]/8-3[4:3],
{1},
{4}1x/2x,,7/8,7/8,
{4}7/8,,1/2,1/2,
{4}1/2,,3,3,
{4}4/5,4h[4:3]/5h[4:3],,,
{2},6h[1:1],
{2},5h[1:1],
{2},4h[1:1],
{2},3,
{4},,2,2,
{4}1/2,1/2,7,7,
{2}7/8,1b/8b,
{8},,,2bx/7bx,,,1x/8x,,
{4}1x/8x,,2,2,
{4}3/4,3/4,2,2,
{4}1/8,1/8,7,7,
{4}5/6,5/6,7,7,
{4}1/8,1/8,2,2,
{4}3/4,3/4,4/5,4/5,
{8}4bx/5bx,,,,3x/4x,,,3x/4x,
{8},,,,4x/5x,,,4x/5x,
{2},5-2[4:3]/6-1[4:3],
{1},
{2},7/8,
{2},5/6,
{2},3-8[4:3]/4-7[4:3],
{1},
{8},,,,1x/8x,,,1xh[8:25]/8xh[8:25],
{1},
{1},
{1},
{1},
{1}C1h[2:5],
{1},
{1},
{4},,1bx/8bx,1bx/8bx,
{1},
{1},
{1},
E
&inote_4=(195)
{2},
{1}6h[1:1]/4>1[4:3],
{1},
{1}2h[4:15]/8<5[4:3],
{1},
{4}4,4,4,4,
{4}4,4,4,8bx,
{8}4/6,4/6,,3/5,3/5,,2/6,,
{8}1/7,1/7,,2/8,2/8,,3/7,,
{1}6/4>5[4:3],
{1}C1fh[2:5],
{1}1xh[2:3],
{1},
{1},
{8},,,,7h[8:3],,,6h[8:3],
{8},,5,,3h[8:3],,,4,
{8},4h[8:3],,,C1f,,,,
{8},,,,7h[8:3],,,6h[8:3],
{4},5,3h[2:1],,
{2}1h[2:1],8h[2:1],
{4}6h[2:1],,5,5,
{4}5,5,5,5,
{4}5,5,E5,E4,
{4}E3,E2,E1,E8,
{4}E7,E6,4,4,
{4}4,4,4,4,
{8}4,,4,,5,5,3,3,
{8}6,6,4,,3/4,3/4,,,
{8}5/6,5/6,,,7h[4:1],,5,,
{4}2h[4:1],4,6h[4:1],8,
{8}3h[4:1],,1,,8h[4:1],,1,1>8[8:5],
{1},
{8},,,,5h[4:1]/7h[4:1],,,2h[4:1]/4h[4:1],
{8},,1x/8x,1x/8x,,2/7,2/7,,
{4}4/5,3/6,2q6[4:1],,
{8}7h[8:3],,,6h[8:3],,,5,,
{2}5/6,7p3[4:1],
{8}2h[8:3],,,3h[8:3],,,4,,
{2}3/4,3-8[4:1],
{8}7h[8:3],,,6h[8:3],,,5,,
{4}5/6,,7,8,
{8}1,,2,2h[4:1],,4,4,,
{4}5/6,4b/7b,8h[4:1],7h[4:1],
{4}6h[4:1],5h[4:1],4h[4:1],3h[4:1],
{8}2h[4:1],,1h[4:1],,8,,5/6,5/6,
{8},3/4,3/4,,2/5,2/5,,4/7,
{8}4/7,,3x/6x,3x/6x,,4x/5x,4x/5x,,
{4}3/4,5/6,2/4,5/7,
{8}4/5,4/5,,2b/7b,,,,,
{8},,,3bx/6bx,,1bx/8bx,1bxh[2:1]/8bxh[2:1],,
{8},,,,1/2,,3/4,3/4,
{8},5h[2:1]/2<7[4:1],,,,,,7/8,
{8}7/8,,6h[4:1],,5,,3,3,
{8}5,,2/6,2h[4:1]/6h[4:1],,,,7h[4:1],
{8},5,5,4/6,,2,2h[4:1],,
{8}4,,1/7,1-5[4:1]/7-3[4:1],,,,,
{8},8,8,,3,3h[4:1],,4pp7[4:3]*qq1[4:3],
{1},
{4},,1x/8x,2bh[4:1]/7bh[4:1],
{8},1,1,8,8,,7/8,,
{4}5/6,3/4,1/2,8,
{8}7h[8:7]/5>1[4:1],,,,,,,1x,
{8},2/8,,3/7h[4:1],,5,5,,
{8}2/4,,5/7,7h[4:1]/5v3[4:1]-1[384:95],,,,,
{8},8x,8x,,1/7,1/7,,2/8,
{8}2/8,,1/7,,5/6,5/6,,3/4,
{4}3/4,5/6,7h[4:1],5h[4:1],
{4}4h[4:1],2h[4:1],8b,,
{8},,,,7x-5[8:1],,,1x-3[8:1],
{8},,8x-4[8:1],,,1x-5[8:1],,,
{8}8x,,,,2x-4[8:1],,,8x-6[8:1],
{8},,1x-5[8:1],,,8x-4[8:1],,,
{8}1x,,,,8x-4[8:1],,,1x-3[8:1],
{8},,7x-5[8:1],,,3x-1[8:1],,,
{8}8x,,,,1x-5[8:1],,,8x-6[8:1],
{8},,2x-4[8:1],,,6x-8[8:1],,,
{4}1x,1x/8x,7h[4:1],5,
{8}3,,2,2h[4:1],,4,4,,
{8}1/5,1/5,,3/7,,8,8h[4:1],,
{1}5>6[4:3],
{2},5-8[4:5],
{1},
{2},4-1[4:5],
{1},
{4},,7,7,
{4}6,6,5,5,
{8}4,4/5,4-1b[8:1]/5-8b[8:1],,,,,,
{8},,,C1f/B3/B4/B5/B6,,,,,
{4}1>4[4:1]/8<5[4:1],,,2bxh[4:1]/7bxh[4:1],
{8},8,8,1,1,,1/2,,
{4}3/4,5/6,7/8,1,
{8}2h[8:7]/4<8[4:1],,,,,,,8x,
{8},1/7,1/7,2h[4:1]/6,,4,4,,
{8}3/5,,2/6,2<7b[4:1]/6>3b[4:1],,,,,
{8},1x,1x,,2/8,2/8,,1/7,
{8}1/7,,2/8,,3/4,3/4,,5/6,
{4}5/6,3/4,6<1[4:1],,
{2}2>5[4:1],6pp3[4:3],
{2},1bxh[2:3],
{2},8h[2:1],
{8},,2x/7x,,3x/6x,,4,4,
{8}5,5,3/6,3/6,2/7,2/7,1/8,1/8,
{2}1/8,2>4[8:1]/7<5[8:1],
{1}C1h[1:7]/B4/B5,
{1},
{1},
{1},
{1}B1/A1,
{1}B3/A3,
{1}B5/A5,
{8}B7/A7,,,,1x/8x,1x/8x,2x/7x,2x/7x,
{1},
{1},
{1},
E
&inote_5=(195){4},,
{1}5bx<3[4:11]/4bhx[4:21],,
,,
{4}5,5,5,5,5,5,{8}4/5,4/5,3/6,,
1x/8x,,3,4/2h[4:1],,1,8,7,6/4,,3,4/2h[4:1],,1,8,7,
6/5,,{16}4,5,4,5,4,5,4,5,4,5,4,5,{4}3xh[4:3],,,1>8[4:4],,,,,,,
{1}Cf/B3/B4/B5/B6,{8},,2xh[4:1]/7xh[4:1],,,3xh[4:1]/6xh[4:1],,,
4x/5x,,,7h[8:3],,,4,,6/4,,3/5,3/5,,2,2-6[8:1],,
{4}8bhx[4:3],,,5,{12}2,4,3,7,5,6,3,5,4,6,4,5,
{2}3-1[8:1],6-8[8:1]/8-4[8:1],3-1[8:1]/1-4[8:1],8-5[8:1]/5,
{4}6bx,6,6,{8}6,4h[8:5],{4}6,6,6,{8}6,5h[8:5],
{4}6,6,6,{8}6,4h[8:5],{4}6,6,6,{8}6>4[4:1],4,
3,,3,,3,,3<5[4:1],5,6,,6,,6,,6/4,,
5,5,4,4,5,6,7x/3x,,1/2,3/8,,,7/8,1/6,,,
3-6[8:1],,8,,7<2[8:3],,3,3h[8:3],,,1,,2/8,2/8h[4:1],,3,
2x/4x,,6,7x/5x,,1x/8x,2x/7xh[4:1],,4,4,5,3,8,7,6<1[4:1],,
4,,2,2V84[4:1],,4,5,6h[8:7],,,,4,4,,5>3[4:1],,
{4}A6,A7,5,5>3[4:1],A6,A7,5,5-1-3[2:1],B7/B6,,8x,{8}4,4/6,,3,3/5,,{4}2h[4:1],4<6[4:1],
{4}A3,A2,4,4<6[4:1],A3,A2,5,5h[4:1]/1,
{8}2,2,3,4/6,7,7,1/8,2-5[8:1],,6,6,,5/7h[4:1],,8,,
1x/7x,,5/6,5,5/7,5,5/8-5[8:1],,1x,,1/4,4,2/4,4,4/3h[4:1],,
1x,,7,7h[4:1]/5,,2,2h[4:1]/1,,7,7h[4:1]/8,,3,3h[4:1]/4,,6,4h[4:1]/6bxh[4:1],
,,6/4,3,2/5,6,7/4,3,2/6,7,8/3,2,1/7,1-5[8:1]/7,1/7,
{1}1/7h[4:4],{8}1,,3x/5x,2x/6x,,,,,8/7,
1b/6b,,3/4,5/2V48[4:1],,8,7,6-4[8:1],,3,2,1<6[8:1],,5,5h[4:1],,
4,,3/5,3V51[4:1]/5,,7,7,{4}8h[4:1],2,7-3[8:1]/3,4-8[8:1],{8}6>3[8:1],
,1x,1xv4[8:1]*v6[8:1],,1x,,7/3,{4}7-1[8:1]/3,2V46[4:1],4,{8}7,7,5,
4/6,3/5<1[4:1],,1,,3,3,4-8[8:1],,1,1,,1/8,1/8,2-5[8:1]/7-4[8:1],,
,,1b/8b,,7,7,5,6-4[8:1],,4,3,2-6[8:1],,7V15[4:1],,4x,
,,3,3<6[8:1],,6,7,8h[4:1],,5-8[8:1]*-2[8:1],,,,1x,1x,2x/8x,
,3/4,2/5,1/6,7/8h[4:1],,6,6>3[8:1],,3<6[8:1],,1,,2x/8x,2x/8x,7,
4b/6b,,3,2-6[8:1]/4,,8,8h[4:1],,5b,,6/4,6V48[4:1]/4,,3,3,,
2b/7b,,{16}1,8,1,8,1,8,1,8,1,8,1,8,{1}Ch[4:3],
{16}1/8,,,,3,4,2h[4:1],,,,8,1,7h[4:1],,,,5,6,4h[4:1],,,,5,,3/6,,,,5,4,5,,
3h[4:1]/6,,,,6,5,7h[4:1],,,,1,8,2h[4:1],,,,4,3,4,,,,3/5,,3/5w1[8:1],,,,,,,,
3bx/7bx,,,,6,5,7h[4:1],,,,1,8,2h[4:1],,,,4,3,5h[4:1],,,,4,,6/3,,,,4,5,4,,
7/3h[4:1],,,,6,5,7h[4:1],,,,2,1,3h[4:1],,,,6,5,7,,8x<2[8:3]/4x,,,,1x,,,,,,,,
{8}1x/7x,,6h[4:1],{16},5,5,,{8}7<4[8:1]/4,,1x,,3,3h[4:1],{16},4,4,,{8}2q6[8:1]/5,,8x,
,7,7,4,3,5/2qq5[8:9],,Cf,{1},
,,
,{4},,{8}4,4,4h[4:7],,
{4}B4,B5,B3,B6,B2,B7,{8}8,8,8-4[8:1],,
{4}1h[8:7],,,{8},Cf/B4/B5,,1x/8x,1x/8x,,{24}1bx,2x,3x,4x,5x,6x,7x,8x,1x,2x,3x,4x,
{4}5xw1b[8:1],5b,{8}3/7,3/7,,6-4[8:1],,4,3,2V48[4:1],,5,5,,
1x/7x,,3/5,3>8[8:1]/5,,4,5,{4}6h[4:1],5-3[8:1],7-3[8:1],{8}2,2x,2/1h[4:1],
,3,4,5,6-4[8:1]/8,,1,{4}1>4[8:1]*<6[8:1],1w5[8:1],1,{8}3/7,3/7,3/7,
6-4[8:1],4,6,2-6[8:1],1,2,8,7,3-5[8:1],5,3,7-3[8:1],8,7,1,2,
3h[4:1]/4,,{16}5,4,5,4,6,3,6,3,7,2,7,2,8,1,8,1,8,1,8,1,8,1,8,1,8-4[12:1],1,8,1,
{1},{8},,,,,{16}4,5,3b/6b,,,,
{8}1/2,1/2,3/4,3/4,5/6,5/6,7/8,7/8,{24}1b,2,3,4,5,6,7,8,1,2,3,4,{2}5h[4:2],Ch[4:2],
{1},,
,,
1>8[4:11],,
,{4},{16}1,8,1,8,{8}2b/7b,4b-1b[12:1]/5b-8[12:1],3b/6b,4b/5b,
