&title=キュートなカノジョ
&artist=syudou feat.音楽的同位体 可不(KAFU)
&first=0.18
&wholebpm=160
&des_4=翠楼屋
&des_5=はっぴー
&lv_2=3
&lv_3=6
&lv_4=9+
&lv_5=12+
&inote_2=(160)
{1},
{1}1h[1:1],
{1},
{1}8h[1:1],
{1},
{2}8,8,
{1}8,
{2}1,1,
{1}1,
{2}1/8,1/8,
{1}1b/8b,
{2}1,1,
{2}2,2,
{2}3,3,
{1}4/5,
{2}5,5,
{2}6,6,
{2}7,7,
{1}1/8,
{2}2,2,
{1}1/2,
{2}7,7,
{1}7bx/8bx,
{1}1-4[4:3],
{1},
{1}8-5[4:3],
{1},
{1}1-5[4:3],
{1},
{1}8-4[4:3],
{1},
{1}B2,
{1}B3,
{1}B4,
{1}B5,
{1}B6,
{1}B7,
{1}C1h[1:1],
{1},
{2}8x,8,
{2}7,7,
{2}6,6,
{2}5/6,5/6,
{2}4,4,
{2}3,3,
{2}2,2,
{1}1/2,
{2}7,7,
{1}7/8,
{1}1bx,
{1}1h[1:1]/2h[1:1],
{1},
{1}3h[1:1]/4h[1:1],
{1},
{1}5h[1:1]/6h[1:1],
{1},
{1}7h[1:1]/8h[1:1],
{1},
{1}B7/B8,
{1}B5/B6,
{1}B3/B4,
{1}B1/B2,
{1}E1,
{1}E2/E8,
{1}C1h[1:1],
{1},
{2}1,1,
{4}2,2,2,,
{2}3,3,
{4}4,4,4,,
{2}5,5,
{4}6,6,6,,
{2}7,7,
{2}1/8,1/8,
{4}8,8,8,,
{4}7,7,7,,
{4}6,6,6,,
{4}5,5,4/5,,
{4}4,4,4,,
{4}3,3,3,,
{4}2,2,2,,
{4}1,1,1/8,,
{1}1-4[4:3]/8-5[4:3],
{1},
{1}C1fh[1:1],
{1},
{1},
{1},
E
&inote_3=(160)
{1},
{1}3h[1:1],
{1}4h[1:1],
{1}5h[1:1],
{2}6x,5x/6x,
{1}6h[1:1],
{1}5h[1:1],
{1}4h[1:1],
{2}3,3/4,
{2}5/6,5/6,
{1}5b/6b,
{4}6,6,6,,
{4}7,7,7,,
{4}8,8,8,,
{4}1x/2x,1x/2x,1x/2x,,
{4}3,3,3,,
{4}2,2,2,,
{4}1,1,1,,
{4}7x/8x,7x/8x,7x/8x,,
{1}7-4[2:1],
{2}3,3/4,
{1}2-5[2:1],
{4}6bx,6bx,6bx,,
{2}7h[2:1],6h[2:1],
{2}5h[2:1],4h[2:1],
{2}3h[2:1],2h[2:1],
{2}1,1x/2x,
{2}2h[2:1],3h[2:1],
{2}4h[2:1],5h[2:1],
{2}6h[2:1],7h[2:1],
{2}8,7x/8x,
{4}B7,B6,B5,,
{4}B2,B3,B4,,
{4}E7,E6,E5,E4,
{2}E3,C1,
{4}B1,B2,B3/B4,,
{4}B8,B7,B5/B6,,
{4}B3,B4,B5,B6,
{1}C1f,
{4}3,3,2,2,
{4}1,1,7/8,,
{4}6,6,7,7,
{4}8,8,1/2,,
{4}3,3,2,2,
{4}1,1,7/8,,
{4}6,6,7,7,
{4}8,8,1/2,,
{4}3,3,3/4,,
{1}2-5[2:1],
{4}6,6,5/6,,
{1}7-4[2:1],
{1}2-5[2:1],
{1}6-1[2:1],
{4}2,2,1/2,,
{1}2-5[2:1],
{1}7-4[2:1],
{1}3-8[2:1],
{4}7,7,7/8,,
{1}7h[1:1],
{1}6h[1:1],
{1}5h[1:1],
{2}4,3/4,
{4}2,2,1/2,,
{4}3,3,3/4,,
{4}6,6,5/6,,
{4}7bx,7bx,7bx/8bx,,
{4}6,6,7,7,
{4}8,8,1/8,1/8,
{4}2,2,3,3,
{4}3/4,3/4,3/4,,
{4}3,3,2,2,
{4}1,1,1/8,1/8,
{4}7,7,6,6,
{4}5/6,5/6,5/6,,
{4}5,5,6,6,
{4}7,7,1/8,1/8,
{4}2,2,3,3,
{4}3/4,3/4,3/4,,
{4}4,4,3,3,
{4}2,2,1/8,1/8,
{4}7,7,6,6,
{4}5/6,5/6,5/6,,
{4}4,4,3,3,
{1}2-5[2:1],
{4}6,6,7,7,
{2}1/8,1b/8b,
{1},
{1},
{1},
E
&inote_4=(160)
{4},,,4/5,
{4}6h[1:1],5,5,5,
{4}3h[1:1],4,4,4,
{4}6h[4:3],5,5,5,
{4}5/6,5/6,4/7,,
{4}3h[2:1],4,4,3/4,
{4}6h[2:1],5,5,5/6,
{4}4/5,3,2,1,
{1}1-5[4:1]/7-3[4:1],
{8}3,3,5,5,4,4,6>3[8:3],,
{4},,,1bx,
{8}2/4,,1/2,,7,7,8,,
{8}5/7,,7/8,,2,2,1,,
{4}3h[4:1]/8,4,1/6h[4:1],5,
{8}3/4,,1/2,,7,7x/8x,7x/8x,,
{4}1/6-3[4:1],,2,2,
{8}7/2-6[4:1],,,,8,8,8,,
{4}7h[4:1],5h[4:1],4h[4:1],2,
{4}1/2,1/2,3b/7b,,
{1}5/4pp4[2:1]*qq4[2:1],
{4}3x/5x,4x/6x,7,5/7,
{1}6/4pp4[2:1]*qq4[2:1],
{8},5x,5x,5x,5xh[2:5],,,,
{6}E5,E4,E3,E2,,,
{6}E8,E7,E6,E5,,,
{2}2h[1:1],C1,
{4}1,2,3h[2:5]/4,,
{6}E5,E6,E7,E8,,,
{6}E2,E3,E4,E5,,,
{2}7h[1:1],E5,
{4}8,7,5/6,4b,
{4}3/5,2,1/4,2,
{4}3/5,6,5/7,8,
{4}5/7,4,3/5,2/6,
{8}1/5,,1/5,,3x,3x,3x,,
{4}2/4,3/5,4/6,8,
{8}5/7,,4x/6x,4x/6x,,1/8,1/8,,
{8}6,6,2,2,5,5,3<6[8:3],,
{4},,,8bx,
{8}4/6,,7/8,,2,2,1,,
{4}3h[4:1]/8,4,5/6h[4:1],8,
{8}2/8,,3,3,4,,1/2,,
{8}7/8,,5/6,,3,3x/4x,3x/4x,,
{2}1-5[4:1],8-4[4:1],
{4}1b,1,2/5,2/5,
{8}3/4,,6,6,5,,7/3<6[4:1],,
{2},7b/8b,
{1}5qq5[2:1]/6pp6[2:1],
{4}5x/6x,5/6,4/5,3/4,
{4}2h[4:1],1h[4:1],8,8x,
{4}2b/7b-4[4:1],,1,1,
{4}5/2-6[4:1],,7,7,
{4}E1,E2,E3,E4,
{4}E5,C1,E2/E8,,
{4}6/3-8[4:1],,5,5,
{4}3/6-1[4:1],,4,4,
{8}8,,7,,4/6,,5,5h[4:1],
{8},4,4/5,,3/6,,,,
{1}5h[1:1],
{1}3h[1:1],
{1}4h[2:3],
{1}5h[2:1],
{4}6,6,4/5,4/5,
{4}3,3,1/2,1/2,
{4}8,1/7,2/6,5/3p6[2:1],
{4},,,8b,
{8}3/5,,1/2,,7,7,8,,
{8}4/6,,7/8,,2,2,1,,
{4}3h[4:1]/8,4,1/6h[4:1],5,
{8}3/4,,1/2,,7,6x/8x,6x/8x,,
{4}1v6[4:1],,7,7,
{8}2/8v3[4:1],,,,1,1,1,,
{4}2h[4:1],4h[4:1],5h[4:1],7,
{4}7/8,7/8,2b/6b,,
{8}3/5,,6,6,5/7,,7/8,,
{8}1/2,,3,3,2/4,,1/2,,
{4}8h[4:1],7h[4:1],6h[4:1],5,
{8}5/6,,3/4,,2,1x/2x,1x/2x,,
{4}8/3v5[4:1],,7,7/8,
{8}2/6v3[4:1],,,,1,1,1,,
{4}2h[4:1],4h[4:1],5h[4:1],6V83[2:1],
{4},,,4x/5x,
{1}5qq5[2:1]/6pp5[2:1],
{4}4x/6x,4/6,3/5,1/7,
{8}8,8,1,,2x/8x,,3bx/7bx,3bx/7bxs3b[8:3],
{1},
{1},
{1},
E
&inote_5=(160)
{4},,,{16}7h[4:1],,,,6,6h[16:3],,,5,5,,,4/7,,,,
{16}2h[4:1],,,,3,3h[16:3],,,4,4,,,2/5,,,,
{16}7h[4:1],,,,5,5h[16:3],,,4,4h[16:3],,,2,2h[16:3],,,
{16}1,1h[16:3],,,8-4[8:1]*-5[8:1],8,,,,,,,3x/6x,,,,
{16}1h[4:1],,,,3,3h[16:3],,,4,4h[16:3],,,5,,,,
{16}6,6,,,3p7b[8:1]/7p3b[8:1],,,,,,,,4x/8x,,,,
{8}7,8,1,2,3,4,5,6,
{8}7,8-4[8:1],,3-5-7[4:1],,6h[8:7],,,
{8},,5,5,5,5,5/6,5/6,
{8}5/6<5[2:1],5/6,5b/6b,,,,,,
{8}2bx-4v5-7[8:3],,1,,8,8h[4:1],,4,
{8}4<1[4:1],,7,,5,5,2/6,3/7,4>1[8:1]/8<5[8:1],
{8},,,1>4[8:1]/5<8[8:1],,,,
{8}8<5[8:1],,3>8[8:1],,6>3[8:1],
,2,1b,
{4}1b,3h[8:1]/5h[8:1],4h[8:1]/6h[8:1],2h[8:1]/5h[8:1],
{4}4h[8:1]/7h[8:1],3v8[8:1]/5v8[8:1],,7-4[8:1]/8-3[8:1],
{8}7b/8b,,3x-1[8:1]/4x,,5,5-7[8:1],,1,
{8}1,2/8,2/8p4[8:1],,1q5[8:1],,7,8b,
{8}8b,,6,,7,5,4pp4[4:1]*qq4[4:1],,
{8},,,,2x/6x,,1/7,8x,
{4}8x,4pp4b[4:1]*qq4b[4:1],,,
{8}3x/5x,2x/6x,,E6,E5
,E4,C,,
{4}8x,
{6}3x/7xqq4[4:3],3x/7x,2,1,8,1,
{6}2pp5[4:3],2,7,8,1,8,
{6}7qq4[4:3],7,2,1,8,1,
{16}2x-5[8:1],2x,,,6x-1[8:1],6x,,,2b,,,,
{8}3pp4[8:3]*-1-4[8:3],,
{6},,,3,2,1,
{6}2v5[8:1]/8v5[8:1],,,4-6[8:1]/7-3[8:1],,,
{6}1x,2/8,3/7,5x,4/6,3/7,
{12}2x-5[12:1],2x,,6x,6x,,3b/7b,,,
{16}3,5,3,5,3,,2,,1,,6/8,,7,,8,,
{8}1/3,2,1,6/8,7,8,1/3,4-8[8:1],
{8}5,5,,6,6,7,8,8,
{8}1/7,1/7,,2-4[8:1]/6-8[8:1],2/6,,,1x/5x,
{8}1x/5x,,3h[8:1]/4h[8:1],,3h[8:1]/2h[8:1],,1h[4:1]/2h[4:1],,
{8},1/8,1h[8:1]/8h[8:1],,E7/B6/B5/B4/B3/E3,C,,1x/8x,
{8}1x/8x,1x/8x,2>4[8:1]/7<5[8:1],,2-5[8:1]/7-4[8:1],,2x/7x,,
{4}4/6<3[4:1],3>4[8:3],,,
{8}1b,,2/5<2[4:1],,4,4h[4:1],,1,
{8}1<4[4:1],,3,,1,1,8-4[8:1]*-5[8:1],8,
{8},,3>8[4:1],,4,4,5<8[4:1],,
{8}4,4,3-6[8:1],,7-2[8:1],,4,3b,
{8}3b,1,8-6[8:1],,8-2[8:1],,8-5[8:1],,
{8}8/1pp1[4:1],,5,,6,6,1/7,1/7,
{8}2x/6x,,5<8[8:1],,4,4,5>2[8:1],,
{8}7,8-4[8:1],,2,1>6[4:1],,7,8b,
{8}8b,,7,,5/6,4/5,3qq4[8:3]/4pp4[8:3],,
{8},,,,3x/5x,,2/8,1x,
{8}1x,,3qq4b[8:3]/4pp4b[8:3],,,,,,
{8}3x/5x,6x,6>3[8:1],,3,2<7[8:1],,5,
{8}5,6,6>3[8:1],,2,1,8,5,
{8}1/4,,3<6[8:1],,6,7>2[8:1],,4,
{8}3,3<6[8:1],,7,7,8,8,1x/7x,
{8}1x/7x,2,3<4-6[8:1],,6,7>8-2[8:1],,4,
{8}4,3,3<4-6[8:1],,7,8,1,4,
{8}5/8,,6>5-3[8:1],,3,2<1-7[8:1],,5,
{8}6,6>5-3[8:1],,1,2q4[8:5],,7,8x,
{8}8x,,5h[4:7],,,,,,
{8},4,3h[4:7],,,,,,
{8},5,6h[8:13],,,,,,
{8},3,4h[8:5],,,,,,
{8}4x/6x,,3h[8:1]/5,,2h[8:1]/4,,3h[8:1]/4,,
{8}3/4,5,4/6h[8:1],,5/7h[8:1],,5/6h[8:1],,
{8}5/6,4,3,3,5,5,4,4,
{8}6pp5qq4[8:5],6,,,,,,,
{8}2bx>4v5<7b[8:3],,1,,8,8h[4:1],,4,
{8}4-6-8-2b[16:5],3,7,,5,5,2/6,3/7,
{8}4/8-6>5[8:1],,8-2>3[8:1],,5,4h[4:1],,3,
{8}4,5,2-5[8:1]/6v1[8:1],,2/6,,3/7,8b,
{8}8b,1,1h[8:1]/7h[8:1],,2bh[8:1]/8bh[8:1],,1h[8:1]/6h[8:1],,
{8}3bh[8:1]/8bh[8:1],,4-1[8:1]/6v1[8:1],,4x/6x,,1-5b[8:1]/2-6b[8:1],,
{8}1b/2b,,5x>1[4:1]/6x,,1<5[4:1],,5,,
{8}1,1,8p4[8:1],8,1-5[8:1],1,7-2[8:1],7bx,
{8}4bx,4,3x<6[8:1],3,7x,7,8xp4[8:1],8,
{8}3x,3,1x>2-4[8:1],1,5x,5,4x/6x,3/7,
{8}2x/8x,,6xv4>3[8:1],6,1x,1,2xv8<7[8:1],2,
{8}5x,5,6x>3[8:1],6,1-5[8:1],1,6bx,7bx,
{8}7bx,5,4-2[8:1],4,5-7[8:1],5,4v1[8:1],4,
{8}8qq8[8:1],8,1,1,2,2,1/7,1/7,
{8}2x/6x,,4-2<1[8:1],,5,5-7>8[8:1],,3,
{8}2,1v4[8:1],,7,8<3[8:1],,2,1b,
{8}1b,,3qq3[8:3]/4pp3[8:3],,,,,,
{8}3x/5x,3x/5x,2,1,8,7,6,3x/5x,
{8}3x/5x,3x/5x,1qq1b[8:3]/2pp1b[8:3],,,,,,
{8}7x/8x,7x/8x,,1b,3bq7[8:1],5bh[8:1],,E
