&title=folern
&wholebpm=200
&artist=ぬゆり
&des=翠楼屋
&shortid=11400
&genre=オンゲキCHUNITHM
&cabinet=DX
&version=maimai DX UNiVERSE PLUS
&chartconverter=Neskol
&lv_2=5
&des_2=
&lv_3=8
&des_3=
&lv_4=12
&des_4=翠楼屋
&lv_5=13+
&des_5=翠楼屋
&des_6=
&inote_2=
(200){1},
{1},
{1},
{1}1x,
{1},
{1}1,
{1},
{1}8,
{1},
{1}8,
{1},
{1}7,
{1}6,
{1}5,
{1}4,
{1}3,
{1}2,
{1}1h[8:7]/8h[8:7],
{1},
{2}2,2,
{1}2,
{2}3,3,
{1}3,
{2}4,4,
{1}4,
{1}4h[1:1]/5h[1:1],
{1},
{2}5,5,
{1}5,
{2}6,6,
{1}6,
{2}7,7,
{1}7,
{2}8,8,
{1}1/8,
{1}8-4[1:1],
{1},
{2}1,1,
{1}1,
{1}1-5[1:1],
{1},
{2}8,8,
{1}8,
{1}7-3[1:1],
{1},
{2}1,1,
{1}1,
{1}2-6[1:1],
{1},
{2}7,7,
{1}7,
{1}1b/8b,
{1},
{1}B1,
{1}B8,
{1}B2,
{1}B7,
{1}B3,
{1}B6,
{1}B4,
{1}B5,
{1}E5,
{1}B4/B5,
{1}B3/B6,
{1}B2/B7,
{1}C1xh[1:1],
{1},
{4}1x,1,1,,
{2}2,2,
{2}3,3,
{1}3/4,
{4}5,5,5,,
{2}6,6,
{2}7,7,
{1}7/8,
{4}8,8,8,,
{2}7,7,
{2}6,6,
{4}5,5,4/5,,
{4}3,3,3,,
{4}2,2,2,,
{1}1h[1:1]/8h[1:1],
{1},
{4}1,1,1,,
{4}2,2,2,,
{4}3,3,3,,
{4}4/5,4/5,4/5,,
{4}5,5,5,,
{4}6,6,6,,
{4}7,7,7,,
{1}7/8,
{4}8,8,8,,
{4}7,7,7,,
{4}6,6,6,,
{4}4/5,4/5,4/5,,
{4}3,3,3,3,
{4}2,2,2,2,
{1}1h[1:1]/2h[1:1],
{1},
{4}2,2,2,,
{2}1/2,1/2,
{4}3,3,3,,
{2}3/4,3/4,
{4}5,5,5,,
{2}5/6,5/6,
{4}7,7,7,,
{2}7/8,7/8,
{1}1b,
{1},
{1}B1/B8,
{1}B2/B7,
{1}B3/B6,
{1}B4/B5,
{1}B3/B6,
{1}C1xh[1:1]/B2/B7,
{1},
{1},
{1},
E
&inote_3=
(200){1},
{1},
{1},
{1}6h[1:1],
{1}5h[1:1],
{1}4h[1:1],
{2}3,3/4,
{1}2h[1:1],
{1}1h[1:1],
{1}8h[1:1],
{2}7,1/8,
{1}2-6[2:1],
{1}7-3[2:1],
{1}2-5[2:1],
{4}6,6,5/6,,
{1}7-3[2:1],
{1}2-6[2:1],
{2}7,8-4[2:1],
{1},
{4}2,2,1,,
{4}7,7,8,,
{4}2,2,1,,
{4}8,8,1/7,,
{4}6,6,5,,
{4}3,3,4,,
{4}6,6,5,,
{4}3,3,4/5,,
{4}6,6,5,5,
{4}4,4,3/5,,
{4}2,2,1,1,
{4}8,8,1/8,,
{4}7,8,1,2,
{4}3,4,5,6,
{4}4/5,4/5,3/6,3/6,
{4}2/7,2/7,1b/8b,,
{1}7-4[2:1],
{2}3h[2:1],4,
{1}2-5[2:1],
{2}6h[2:1],5,
{1}6-1[2:1],
{2}2h[2:1],1,
{1}3-8[2:1],
{2}7h[2:1],8,
{1}7p3[2:1],
{4}2,2,1/2,,
{1}2q6[2:1],
{4}7,7,7/8,,
{1}7<4[2:1],
{4}3,3,3/4,,
{4}6,6,5,5,
{4}4,4/5,3/6,,
{1}E5,
{1}E4,
{1}E3,
{1}E2,
{1}E1,
{1}E8,
{1}E7,
{1}E6,
{1}6h[1:1],
{1}5h[1:1],
{1}4h[1:1],
{1}3,
{1}3h[2:1]/4h[2:1],
{1}5h[2:1]/6h[2:1],
{4}6,6,7,7,
{1}1/8,
{4}7b,7,7/8,7/8,
{4}2,2,1/2,1/2,
{4}3,3,4,4,
{4}5,5,4/6,,
{4}3h[4:1],4,4/5,4/5,
{4}6h[4:1],5,4/5,4/5,
{4}3,3,4,4,
{4}5,4/5,3/6,,
{4}6b,6,5/6,5/6,
{4}3,3,3/4,3/4,
{4}2,2,1,1,
{4}8,8,1/7,,
{4}2h[4:1],1,1/8,1/8,
{4}7h[4:1],8,7/8,,
{4}2,2,1,1,
{4}8,1/8,1/8,,
{4}7b,7/8,7,7/8,
{4}2,1/2,2,1/2,
{4}3,3,4,4,
{4}5,5,4/6,,
{4}3h[4:1],4,2/5,,
{4}6h[4:1],5,4/7,,
{4}3,3,4,4,
{4}4/5,4/5,3/6,,
{4}6b,5/6,6,5/6,
{4}3,3/4,3,3/4,
{4}2,2,1,1,
{4}8,8,1/7,,
{4}2h[4:1],1,3/8,,
{4}7h[4:1],8,1/6,,
{4}2,2,1,1,
{4}1/8,1/8,2/7,,
{4}6,5/6,3,3/4,
{4}6,5,4,3,
{4}2,1/2,7,7/8,
{4}2,1/8,2/7,,
{4}3,3/4,6,5/6,
{4}3,4,5,6,
{4}7,7/8,2,1/2,
{4}7,1/8,2/7,,
{1}6<1[2:1],
{1}2>5[2:1],
{1}6<1[2:1],
{4}2,2,3/4,,
{1}5<8[2:1],
{1}1>4[2:1],
{4}5,6,7,8,
{4}1,2,3,4xqq1[4:5]/5xpp8[4:5],
{1},
{1},
{1},
{1},
E
&inote_4=
(200){1},
{1},
{1},
{8}4/5,,3h[8:7],,4,4,,5h[2:1],
{8},,,3,3,,3/5,,
{8}5,,6h[8:7],,5,5,,4h[2:1],
{8},,,6,,5,,4,
{8}4,,3h[8:7]/5,,4,4,,5h[2:1],
{8},,,3,3,,3/5,,
{8}5,,6h[4:1],,5,5,,4,
{8},3,,2,,1/6,1/6,,
{8}5,,4/5,,6,6h[2:1],,5h[4:1],
{8},,,6,6,,5/6,,
{8}4,,4,,3/5,3h[2:1]/5,,4,
{8},4,,3/4,,2/5,2/5,,
{8}5h[4:1],,4,,6,6h[2:1],,5h[4:1],
{8},,,5/6,5h[4:1]/6h[4:1],,,,
{8}E6,,E5,,C1xh[8:3]/E4,,,1x,
{8},1x,,2x/8x,,,4/5,,
{8}3-5[4:1]/7x,,,,8,8,,5/7,
{8},6,,3/5,,2/6,2/6,,
{8}1,,1,,2/5,,3,3,
{8},2/6,2/6,,3/7,,4/5,,
{8}2x/6-4[4:1],,,,1,1,,2,
{8},3/5,,4/6,,7h[4:1],,8,
{8},6,6,,5/7,,4/6,4/6,
{8},3/5,3/5,,2/6,,4/5,,
{8}3-5[4:1]/6x,,,,8,8,,7,
{8},4/6,,3/5,,2h[4:1]/4h[4:1],,,
{8},1,1,,2/6,,3/5,3/5,
{8},4/6,4/6,,3/7,,2/4,,
{8}1-7[4:1]/5,,,,6,6,,5,
{8},4/6,,3/5,,2,2h[4:1],,
{4}4h[4:1],5h[4:1],6,5/6,
{8}4/5,,3/4,,1x/7x,1b/7b,,,
{8}2b/8b,,3h[4:1],,4,4q1[8:3],,,
{8},2,2,,1/2,,3,,
{8}3/8,,7h[4:1],,8,8q5[8:3],,,
{8},6,6,,5/6,,3/4,,
{8}2/5,,1h[4:1],,8,8p3[8:3],,,
{8},2,2,,1/2,,3/8,,
{4}7h[4:1],5,2h[4:1],4,
{4}3,2/4,3-6[8:1],,
{8}7h[4:1],,8b,,8,,1/7,1/7,
{8},6h[4:1],,5,5,,4/7,,
{8}2h[4:1],,1,,1,,2/8,2/8,
{8},3<6[4:1],,,,7x,7,,
{4}7x-3[4:1]/8x-4[4:1],,,2,
{4}1x-5[4:1]/2x-6[4:1],,,8x,
{8}7,7,5,,3,3,4,,
{8}1/8,1/8,,5/6,,2/4,2/4,,
{1}B1/C1f/B6,
{1},
{2}4/6h[2:3],B5,
{2},B4,
{2}3h[2:3],B5,
{2},B3,
{2}8h[2:3],B5/B6,
{2},C1,
{2}1h[2:1],3h[2:1],
{2}4h[2:1],B3/B4,
{2}7h[2:1],6h[2:1],
{2}5h[2:1],B4/B5,
{2}2h[2:1],4h[2:1],
{2}5h[2:1],B5/B6,
{1}7<2[4:3],
{4}1h[4:3],,,8,
{8}1b/8b,,1/2,3,4/5,,6,,
{8}2/5,,3/4,2,1/7,,6-1[8:1],,
{4}4,3-6[8:1],6,7h[4:1],
{16}6,,,5/7,,,4/6,,4/6,,,,1x,,,,
{8}2/4,3,3,2-6[8:1]/4,,8,8,,
{8}5/7,6,6,5/7-3[8:1],,1,1>6[2:1],,
{4}8b,,,7,
{4}4/7,5/6,3/4,2/5,
{8}1b/8b,,7/8,6,3/5,,2,,
{8}4/7,,5/6,7,2/8,,3-8[8:1],,
{4}5,6-3[8:1],3,1-5[8:1],
{4}7,4-1[8:1]/6-1[8:1],,2x/8x,
{8}7,5,6,3,4,2,2,8,
{8}3,4,2,7,8,6,1<5[2:1]*>5[2:1],,
{4},,,3/7,
{4}2xh[8:3]/6xh[8:3],,2x/6x,3x/5x,
{8}4/6,,1b,,2/4,2-6[8:1]/4,,5-8[8:1],
{8},4,,1/2,1-5[8:1]/2-6[8:1],,,,
{8}4/7,,3/4,2/5,,5/6,4/7,,
{16}3h[16:3],,,2h[16:3],,,1,,1,,,,3>8[8:1]/8,,,,
{8}7,,5/6,,3/4,2/5,1/6<1[8:1],,
{8}2,,3/4,,5/6,4/7,3/8<2[4:3],,
{1}C1f,
{4}1/2,7/8,4/5,2/7,
{16}6h[16:3],,,5,,,4/7,,4/7-3[8:1],,,,1,,,,
{16}2h[16:3],,,1,,,3/8,,3-8[8:1]/8,,,,5,,,,
{8}1/6,,1/2,3/8,,7/8,1/6h[4:1],,
{4}8h[4:1],1h[4:1],4,3/6,
{8}2/7-4[8:1],,3,3-7[8:1],,8,8,,
{8}1/6-2[8:1],,3,3-7[8:1],,8,8<2[4:3],,
{1}C1f,
{4}1x/8x,2-4[8:1]/7-5[8:1],,2b/7b,
{8}3,4,2,6,5,7,1,1,
{8}4,4,2,2,6,6,5,7,
{8}2,1,3,7,8,6,4,5,
{16}3h[16:3],,,2h[16:3],,,1,,1,,1,,1x/8x,,,,
{8}7,7,5,6,3,3,4,2,
{8}8,8,3,3,4,4,2,2,
{8}6,5,7,3,4,2,8,1,
{8}7,7,4,5,3,3,2b/8b,,
{8}3x/7x,,,E3,E4,,B5/B6,,
{8}C1,,,E7,E6,,B3/B4,,
{4}B1/E2,B5/E6,B4/E4,B8/E8,
{4}B3/E3,B5/E5,C1,,
{8}3x/7x,,,E7,E6,,B3/E3/B4,,
{8}C1,,,E3,E4,,B5/E6,,
{4}B7/E7/B8,B1/E1/B2,B3/E3/B4,B5/B6/E7,
{16}C1xh[16:15],,,,,,,,,,,,,,,B2/B3/B6/B7,
{1},
{1},
{1},
E
&inote_5=
(200){1},
{1},
{16},,,,,,,,,,,,E6,B5,B4,E4,
{8}C1,,8,,7,7,,5/6,
{24},,,4/5,,,,,,3/4,,,3,4,3,4h[8:1],,,,,,,,,
{8}3,,4,,5,5,,B4/B6,
{8},B3/B5,,E4/B7,,B2/E6,,,
{8}3h[4:1],,4,,3,3,,3/4,
{24},,,4/5,,,,,,5/6,,,6,5,6,5h[8:1],,,,,,,,,
{8}6,,5,,4,4,,4/5,
{8}4/5,3,3,4/5,6,6,4/5,,
{8}3x/6x,,5,5,4,6h[4:1],,5h[4:1],
{24},,,6,,,,,,4/7,,,6,5,6,5h[8:1],,,,,,,,,
{8}6,6,4,5,5,3,4,4h[4:1],
{8},2h[4:1],,3h[4:1],,4h[4:1],,5,
{8}5,,2,5,5,3,4,4h[4:1],
{24},,,3,,,,,,2/5,,,3,4,3,4h[8:1],,,,,,,,,
{8}3,4,5,6,7,1-5[8:1]/8,,7x-3[8:1],
{8},1x-4[8:1]*-6[8:1],,,,5,4b/6b,,
{8}6x,5,7h[4:1],,6,5,4,3h[4:1],
{8},5,2h[4:1],,4,,1/5,,
{8}3,4,2h[4:1],,4,4,3,6h[4:1],
{8},5,4/7,,3/5,,2/6,,
{8}1,8,2h[4:1],,3,4,5,6h[4:1],
{8},5,5,,4/7,,3/8h[4:1],,
{8}5,7,4h[4:1],,6,4,5,3h[4:1],
{8},4,2h[4:1],,1,,3b/8b,,
{8}7x-4[8:1],4,3,,2,2,4,3h[4:1],
{8},4,2h[4:1],,1,1,3/8,,
{8}7-4[8:1],4,3,,2,2,4,3h[4:1],
{8},4,2h[4:1],,6,,3/5,,
{8}2-5[8:1],6,7h[4:1],,6,5,4,3h[4:1],
{8},4,4,1,1,5,4,3,
{8}2x/5x,3,3,2x/5x,4,4,2x/5x,3,
{16}3x/4x,,4x/5x,,5x/6x,,6,5,6,,2b/7b,,,,,,
{8}3x-7[8:1]/4x-8[8:1],,,,1x/6x,,5,5<8[4:1],
{8},1,2,3,4h[4:1],,8,8,
{8}5-2[8:1],,7-4[8:1],,1x,1>4[4:1],,4<7[4:1],
{8},7x,,8x,8x,,4/7,3/8,
{8}1-5[8:1]/2-6[8:1],,,,4/7,,3/8,3/8h[4:1],
{8},1,1,7,7,5,5,6,
{16}5x/6x,,7,8,7,,1/6,,2,1,2,,3x/8x,,3/8,,
{8},5/6,4/5,3/4,2h[4:1],,1,1x,
{8}7x-3[8:1]/8x-4[8:1],,7b/8b,,2x/5x,,6,6<1[4:1],
{8},1,2,3,4h[16:3],,8,8,
{8}5-2[8:1],,7-4[8:1],,1x,1>4[4:1],,4p7[4:1],
{8},7x,,8x,8x,1,6,4,
{8}8b,,3/7h[4:1],,5,5h[4:1],,4,
{16},,3/4,,2/5,,1/6,,7,8,7,,1/6,,2,,
{8}5-3[8:1],,1,2-5[8:1],,5,6,4x/7x,
{8},1/8,,3/4,3-8[8:1]/4-8[8:1],,,,
{2}1b/7b,E1,
{2},C1,
{2},E5,
{2},C1,
{2}5h[1:4],E1,
{2},C1,
{2},E5,
{2},C1,
{2}1x<4[4:13],E1,
{2},C1,
{2},E5,
{2},C1,
{2}8>5[4:11],E1,
{2},C1,
{2},C1xh[2:1],
{4},,,2/6<1[8:1],
{24}2x,3,4,5>2[8:1],,,1x,,,1x,8,7,6,,,,,,3>8[8:1]/7,,,4,,,
{24}7x,6,5,4<7[8:1],,,8x,,,8x,1,2,3,,,,,,2/6<1[8:1],,,5,,,
{24}2x,3,4,5>2[8:1],,,1x,,,1x,8,7,6,,,,,,1,,,1,,,
{16}4h[8:1]/7h[8:1],,,5h[8:1]/6h[8:1],,,3/4,,3x-8[8:1]/4x-7[8:1],,,,3b/4b,,,,
{16}1x/6,,2,,3/5,,6,5,6,,7,,1,,5,,
{16}2/4,,3,,4/7,,6,5,6,,5/6,,4/7,,3,,
{8}8<5[8:1],,2,3>8[8:1],,5,6,6,
{16}7b/8b,,,,1/2x,3,4,5,8x,7,6,5,1x,,,,
{16}5xh[8:1]/7xh[8:1],,,5x/7x,,,6,5,7,,7,,4/6,,3/5,,
{16}2xh[8:1]/4xh[8:1],,,2x/4x,,,3,4,2,,2,,3/5,,4,,
{8}6<1[8:1],,2,3<6[8:1],,8,7-3[8:1],,
{4}4-1[8:1]/7x,4x/8-4[8:1],8x,2b/6b,
{16}3x,,3,,4/7,,6,5,7,,4/8,,1,,2,,
{16}3x,,3,,2/5,,3,4,2,,1/5,,1,,7,,
{16}6,5,6,5,7,4,7,4,8,3,8,3,1,2,1,2,
{8}3b/8b,,,,4/5,4/5,3/6,2/7,
{16}1-5[8:1]/8-4[8:1],,,,1b/8b,,,,2/7,,3,,4,,6,5,
{16}6,,4/7,,3/8,,2,1,2,,3/8,,3/8,,7,,
{24}1/6,2,3,4xh[8:1],,,1,,,1,2,3,4xh[8:1],,,1,,,1,,,8,,,
{16}7h[8:1]/8h[8:1],,,1h[8:1]/6h[8:1],,,2/5,,2-5[8:1]/5-1[8:1],,,,2b/5b,,,,
{16}8x,,7,,5/6,,3,4,3,,2/5,,1,8,1,8,
{16}1x,,2,,3/7,,6,5,7,,4/6,,3/5,,2/4,,
{8}1<6[8:1],2,3,4>1[8:1],5,6,7,7,
{16}7/8,,,,1x/6x,2,3,4,8x,7,6,5,1,2,3,4,
{16}5xh[16:3]/6x,,,6x,,,7,8,6,,1/5,,2/4x,,3,,
{16}4xh[16:3]/6x,,,6,,,7,8,6,,1/5,,2x/4,,3,,
{16}6x,5,7,,4/8,,3x,4,2,,1/5,,7x,8,7,8,
{16}6,,3,4,,7,5,,8,1,8,,2b/7b,,,,
{16}1x/6x,,3,4,3,4,2x,,6,5,7,4,8,,1/2,,
{16}3x/8x,,6,5,6,5,7x,,3,4,2,,1/6,,1/6,,
{32}1x,2,3,4,5,6,7,8,1x,2,3,4,5,6,7,8,1x,2,3,4,5,6,7,8,1x,2,3,4,5,6,7,8,
{4}C1f/1x,,8w4[8:1],8b,
{16}2x,1,3,,4/8,,7,5,6,,4,5,3,,2/6,,
{16}1,8,2,,3/7,,6,4,5,,3,4,2,,1/2,,
{24}3xh[8:1],,,1x,8x,7x,6x,,,4xh[8:1],,,8x,7x,6x,5x,,,3x/4x,,,3/4,,,
{16}2xh[8:1]/5xh[8:1],,,1h[8:1]/6h[8:1],,,7/8,,7-3[8:1]/8-4[8:1],,,,7b/8b,,,,
{16}1h[8:1]/2h[8:1],,,1/2,,,3/8,,7,4,6,3,5,,2/4,,
{16}7h[8:1]/8h[8:1],,,7/8,,,1/5,,2,4,3,5,4,,5/6,,
{24}7xh[8:1],,,8x,1x,2x,3x,,,5xh[8:1],,,1x,2x,3x,4x,,,6xh[8:1],,,2x,3x,4x,
{8}5x,7/8,7-3[8:1]/8-4[8:1],,7b/8b,,2/5,,
{16}3/4h[16:3],,,5h[16:3],,,6,,6,,5,,4/5,,,,
{16}3/4h[16:3],,,5h[16:3],,,6,,6,,4,,3/5,,,,
{8}6h[4:1],4,3h[4:1],5,6h[4:1],5,3h[4:1],4,
{16}6,,6,,4,,4,,7,6,5,4,3,,,,
{16}3,,3,,5,,5,,2,3,4,5,6,,,,
{8}6,6,4,4h[4:1],,5,4/5,,
{16}3,,3,,6,,6,,4,5,4,5,4,5,4,5,
{24}6x,7x,8x,1x,2x,3x,4x,5x,6x,7x,8x,1x,2,3,4,5,6,7,8,1,2,3,4,C1xh[24:49]/5h[24:49],
{1},
{1},
{1},
{1},
{1},
E
