&title=YONA YONA DANCE
&wholebpm=145
&artist=和田アキ子
&des=はっぴー
&shortid=11450
&genre=POPSアニメ
&cabinet=DX
&version=maimai DX UNiVERSE PLUS
&chartconverter=Neskol
&lv_2=1
&des_2=
&lv_3=6
&des_3=
&lv_4=9
&des_4=隅田川星人
&lv_5=12
&des_5=はっぴー
&des_6=
&inote_2=
(145){1},
{1},
{1}1x,
{1},
{1}1,
{1},
{1}8,
{1},
{1}8,
{1},
{1}1,
{1}1,
{1}2,
{1}2,
{1}3,
{1}3,
{1}4,
{1}4/5,
{1}5h[1:1],
{1},
{1}6h[1:1],
{1},
{1}7h[1:1],
{1},
{1}8h[1:1],
{1},
{1}1h[1:1]/8h[1:1],
{1},
{2}8,8,
{1}8,
{2}7,7,
{1}7,
{2}6,6,
{1}6,
{2}5,5,
{1}4/5,
{2}4,4,
{1}4,
{2}3,3,
{1}3,
{2}2,2,
{1}2,
{2}1,1,
{1}1b/8b,
{1}1-4[4:3],
{1},
{1}8-5[4:3],
{1},
{1}1-5[4:3],
{1},
{1}8-4[4:3],
{1},
{1}1,
{1}2,
{1}3,
{1}3/4,
{1}5,
{1}6,
{1}7,
{1}1x/8x,
{1}B1/B8,
{1}B2/B7,
{1}B3/B6,
{1}B4/B5,
{1}C1xh[1:2],
{1},
{1},
{1}1x/8x,
{2}7,7,
{1}7/8,
{2}6,6,
{1}5/6,
{2}3,3,
{1}3/4,
{2}2,2,
{1}1x/2x,
{1}8-5[4:3],
{1},
{1}4-1[4:3],
{1},
{1}8b,
{1}7-4[4:3],
{1},
{1}C1xh[8:7],
{1},
{1},
{1},
E
&inote_3=
(145){1},
{8}4x/5x,,,4x/5x,,,,,
{4}6,6,5/6,,
{4}3,3,3/4,,
{4}2,2,1/2,,
{4}7,7,1/8,,
{8}1h[8:3],,,8x,,,1x/8x,,
{4}7,7,7/8,,
{4}2,2,1/2,,
{4}3,4,3/5,,
{2}6h[2:1],5,
{2}3h[2:1],4,
{2}6h[2:1],5,
{4}4,4,3/5,,
{2}6h[2:1],5h[2:1],
{2}4h[2:1],3,
{4}3,3,3/4,,
{4}5x/6x,5x/6x,5x/6x,,
{2}7h[2:1],8,
{2}2h[2:1],1,
{2}7h[2:1],8,
{4}1,1,2/8,,
{2}7h[2:1],8h[2:1],
{2}1h[2:1],2,
{4}2,2,1/2,,
{4}1x/8x,1x/8x,1x/8x,,
{1}7q1[4:3],
{4},,,1/8,
{4}7,7/8,2,1/2,
{4}3b/8b,,4/5,4/5,
{4}6,5/6,3,3/4,
{4}2b/5b,,4/5,4/5,
{4}6,5,5/6,4,
{4}3,3/4,2,1-5[8:3]/8-4[8:3],
{1},
{4}5,6,7,1/8,
{4}2,1/2,7,7/8,
{4}1b/6b,,4/5,4/5,
{4}3,3/4,6,5/6,
{4}4b/7b,,4/5,4/5,
{4}4,3,2,1,
{4}8,7,6,5,
{4}4/5,4h[4:1]/5h[4:1],,,
{1}B1/C1f/B5,
{1}8x-4[8:3],
{4}3,3,3/4,,
{1}2-5[8:3],
{4}6,6,5/6,,
{1}7<4[8:3],
{4}3,3,3/4,,
{1}2>5[8:3],
{4}6,6,4/5,,
{2}E5,E4,
{2}E3,E2,
{2}E1,E8,
{2}E7,E6,
{1}4xqq1[4:5]/5xpp8[4:5],
{1},
{8}8h[8:5],,,,1x,1x,,2x/7x,
{1},
{2}6h[2:1],5,
{2}3h[2:1],4,
{2}6h[2:1],5,
{2}3h[4:1]/4h[4:1],3/4,
{2}2h[2:1],1,
{2}7h[2:1],8,
{4}1/8,1/8,2/7,2/7,
{4}3/6,3/6,4/5,4/5,
{4}6,5/6,3,3/4,
{4}2b/5b,,1/8,1/8,
{4}7,7/8,2,1/2,
{4}3b/8b,,1/8,1/8,
{4}8,7,6,5,
{4}4,3,2,1,
{4}1/8,1h[4:1]/8h[4:1],,,
{4}2/7,2/7,3/6,4/5,
{4}3x,3,3/4,,
{4}6,6,5/6,,
{4}3,3,3/4,,
{4}5,5,4/6,,
{8}5h[8:3],,,4x,,,4x/5x,,
{4}6,6,5/6,,
{4}3,3,3/4,,
{4}2,2,1/8,2x/7x,
{1},
{1},
{1},
E
&inote_4=
(145){1},
{8}4h[16:3]/6h[16:3],,,3h[16:3]/5h[16:3],,,2b/6b,,
{16}7h[16:3],,,6h[16:3],,,5h[4:1],,,,4,,4,,,,
{16}2h[16:3],,,3h[16:3],,,4h[4:1],,,,5,,5,,,,
{16}7h[16:3],,,6h[16:3],,,5h[4:1],,,,4,,4,,,,
{16}2h[16:3],,,3h[16:3],,,4h[4:1],,,,5,,4/5,,,,
{8}B5/B7/E8,,,B2/E2/B4,,,3x/6x,,
{16}7h[16:3],,,6h[16:3],,,5,,,,4/6,,4/6,,,,
{16}2h[16:3],,,3h[16:3],,,4,,,,3/5,,3/5,,,,
{8}4h[16:3]/6h[16:3],,,3/5,,2/6,2x/6x,,
{8}3h[4:1],,4,3/4,,4/5,,5/6-3[4:1],
{4},,2x/4x,3x/5x,
{8}6h[4:1],,5,5/6,,4/5,,3-6[4:1]/4,
{4},,5x/7x,4x/6x,
{8}3h[4:1],,4,3/4,,4/5,,5/6,
{8},4/5,,3/4,,2/5,2/5,,
{8}3/6,,4/7,4v5[4:1]/7v5[4:1],,,,,
{16},,5x/6x,,,5x/6x,,,5x/6x,,,,2/7,,,,
{8}7h[4:1],,6,6/7,,4/5,,2/3v6[4:1],
{8},,,,,4x/5x,4x/5x,,
{8}2h[4:1],,3,2/3,,4/5,,6v3[4:1]/7,
{8},,,,,4x/5x,4x/5x,,
{8}7,7,5,,2,2,4,4,
{8},E3,,E2,,E1,,E8,
{8},E7,,E6,,4,4,4/5s1[8:3],
{4},,,1/8,
{8}4/6,4/6,,3/5,3/5,,2/6,2/6p4[16:7],
{4},,,3/5,
{4}2b/4h[4:1],5,3/6,5/7,
{4}B3/E3/B6/E7,,3/5,4/6,
{4}5h[4:1]/7b,4,3/6,2/4,
{8}B3/E3/E4/B6/E6/E7,,,,4,4,4/5,,
{4}6xh[4:1],5,4/7,3xh[4:1],
{4}4,2/5,4/7,C1f/B3/B4/B5/B6,
{4}1xh[8:1]/8xh[8:1],1h[8:1]/8h[8:1],2h[8:1]/7h[8:1],2h[8:1]/7h[8:1],
{8}3h[8:1]/6h[8:1],,3/6,,5,5,2,,
{4}1b/4h[4:1],6,2/5,4/7,
{8}B3/E3/E4/B6/E6/E7,,,,4,4,7,,
{4}5h[4:1]/8b,3,4/7,2/5,
{8}B2/B3/E3/B6/B7/E7,,,,4,5,3qq5[2:1]/6pp4[2:1],,
{4},,,4/5,
{4}2/3,1/8,6/7,4/5,
{8}B6/B7,,B2/B3,,,4/5,4>1[8:1]/5<8[8:1],,
{8},,,1x/8x,,2/7,2/7,,
{1}4<2[2:1]/5,
{4}E8,E7,E6,E5,
{1}4x/5x>7[2:1],
{4}E2,E3,E4,E5,
{1}5x<3[2:1]/6x,
{4}E7,E6,E5,E4,
{1}3x/4x>6[2:1],
{4}E3,E4,E5,E6,
{4}7h[4:1],8h[4:1],1h[4:1],2h[4:1],
{4}3h[4:1],4h[4:1],5h[4:1],6h[4:1],
{4}7h[4:1],1h[4:1],3h[4:1],5qq6[2:1],
{1},
{8}6,6,5,,5qq2[4:3]/6pp1[4:3],,,,
{1},
{8}3,3,4,,2/5,2/5,,C1f/B3/B4/B5/B6,
{4},,,4/5,
{2}6h[1:2],B6,
{2},E5,
{2}3h[1:2],B3,
{2},E5,
{2}5h[2:3],B6/B7,
{2},B2/B3,
{4}4h[8:1]/5h[8:1],4h[8:1]/5h[8:1],3h[8:1]/6h[8:1],3h[8:1]/6h[8:1],
{8}1h[8:1]/8h[8:1],,1/8,,2,2,5,,
{4}1b/4h[4:1],6,3/7,1/5,
{8}B3/E3/E4/B6/E6/E7,,,,7,7,4,,
{4}5h[4:1]/8b,3,2/6,4/8,
{8}B2/B3/E3/B6/B7/E7,,,,5,4,3qq5[2:1]/6pp4[2:1],,
{4},,,4/5,
{4}5/7,1/8,2/4,4/5,
{8}B2/B3/E3,,B6/B7/E7,,,4/5,4/5,,
{4}3h[8:1]/6h[8:1],2h[8:1]/7h[8:1],1h[8:1]/8h[8:1],2b/7b,
{16}2h[16:3],,,3h[16:3],,,4h[4:1],,,,5,,5,,,,
{16}7h[16:3],,,6h[16:3],,,5h[4:1],,,,4,,4,,,,
{16}2h[16:3],,,3h[16:3],,,4h[4:1],,,,5,,5,,,,
{16}7h[16:3],,,6h[16:3],,,5h[4:1],,,,4,,4/5,,,,
{8}B2/E2/B4,,,B5/B7/E8,,,3x/6x,,
{16}2h[16:3],,,3h[16:3],,,4,,,,3/5,,3/5,,,,
{16}7h[16:3],,,6h[16:3],,,5,,,,4/6,,4/6,,,,
{16}2h[16:3],,,3h[16:3],,,4,,,,3/5,,2/6,,1b>7[8:9]/7b<1[8:9],,
{1},
{1},
{1},
{1},
E
&inote_5=
(145){1},
{16}3,4,,2/5,,,6,5,,4/7,,,2,4,2,4,
{16}1h[16:3],,,2h[16:3],,,3<5[8:1],,,4,3,,7,,8,,
{16}8h[16:3],,,7h[16:3],,,6>4[8:1],,,5,6,,2,,1,,
{16}1h[16:3],,,2h[16:3],,,3<5[8:1],,,4,3,,7,,8,,
{16}8h[16:3],,,7h[16:3],,,6>4[8:1],,,5,6,,1,,1,,
{16}2,4,,1/5,,,7,5,,4/8,,,2,4,2,4,
{16}1h[16:3],,,2h[16:3],,,3<5[8:1],,,4,3,,7,,8,,
{16}8h[16:3],,,7h[16:3],,,6>4[8:1],,,5,6,,1,,1,,
{16}2/4,,,3/5,,,4/6,,,6,4,,2b/8b,,,,
{8}3,3,2/4,2q6[8:1]/4,,6,,7h[4:1],
{16},,5,,,4/6,,,3h[4:1]/5,,,,5,,,,
{8}6,6,5/7,5/7p3[8:1],,3q7[8:1],,1h[4:1],
{16},,8,,,2/7,,,2/7,,,,4/5,,,,
{8}3,3,2/4,2q6[8:1]/4,,6,,8h[4:1],
{8},5>2[4:1],,6,,6,7,8,
{8}1,2,3,2-6[8:1]/4,,6,,8h[4:1],
{16},,B2/E2/E3,,,B6/E6/E7,,,B4/E4/E5,,,,3/5,,,,
{8}7,7v4[8:1],2,2v5[8:1],,6,,7h[4:1],
{16},,4,,,3/6,,,2h[4:1]/5,,,,5,,,,
{8}3,3,2/4,2<8[8:1]/4,,6>4[8:1],,2,
{16},,4/5,,,5/7,,,1/8,,,,4/6z2[4:1],,,,
{8}2>6[4:1],,1,,1,,2,2h[4:1],
{8},4-8[8:1],,1,,1h[4:1],,8h[4:1],
{8},6h[4:1],,5h[4:1],,4-1[8:1],,6,
{16},,B7/E7/E8,,,B3/E3/E4,,,B5/E5/E6,,,,4/6,,,,
{16}3,4,,2/5,,,6,5,,4/7,,,1>8[8:3],8,1,8,
{4},,,3>1[8:1]/7<5[8:1],
{4}3-7[8:1]/7-4[8:1],,2-8[8:1]/6-4[8:1],2/6,
{4}2b/6b,2-5[8:1]/6-4[8:1],2x/6x,3>1[8:1]/7<5[8:1],
{4}3-7[8:1]/7-4[8:1],,2-8[8:1]/6-4[8:1],2/6,
{8}C1f/B3/E3/B6/E7,,,,1,7,4>1[8:1]/8<5[8:1],,
{4}4q8[8:1]/8q4[8:1],,2x/6x,1>4[8:1]/5<8[8:1],
{4}1p5[8:1]/5p1[8:1],,1x-4[8:1]/5x-8[8:1],1x/5x,
{4}4h[8:1]/8h[8:1],4h[8:1]/8h[8:1],3h[8:1]/7h[8:1],2h[8:1]/6h[8:1],
{8}1/5,1/5,2,3,4/6,4/6,3>1[8:1]/7<5[8:1],,
{4}3-7[8:1]/7-4[8:1],,2-8[8:1]/6-4[8:1],2/6,
{4}2b/6b,2-5[8:1]/6-4[8:1],2x/6x,3>1[8:1]/7<5[8:1],
{4}3-7[8:1]/7-4[8:1],,2-8[8:1]/6-4[8:1],2/6,
{8}C1f/B3/E3/B6/E7,,,,1x/8x,2x/7x,3xqq5[8:3]/6xpp4[8:3],,
{8},,,,3x/6x,3x/6x,3x/6x,,
{4}4h[8:1]/7h[8:1],2h[8:1]/5h[8:1],4>1[8:1]/7<4[8:1],4b/7b,
{8}1b/4b,,2b/5b,,,4/6,3/5p8[4:1],2,
{8}1h[8:3],,,C1f/B4/B5,,,1x/8x,,
{2}5>1[4:1]/6,4<8[4:1],
{4}2>4[8:1],8<6[8:1],4,3,
{2}3/4<8[4:1],5>1[4:1],
{4}7-4[8:1],1-5[8:1],4,6,
{2}5>1[4:1]/6,4<8[4:1],
{4}2>4[8:1],8qq5[8:5],,,
{2}4>1[4:1],4<8[4:1],
{4}3h[4:1],1h[4:1],8h[4:1],6,
{4}2>5[8:1],7>2[8:1],4<7[8:1],1>4[8:1],
{4}6<1[8:1],3<6[8:1],8>3[8:1],5<8[8:1],
{4}2>5[8:1],7pp2[2:1],,,
{8},,3/5,,6,6,4/6,,
{8}3,3,4pp1[8:7],2,1,,8,,
{8}8,,8,,8,1/7,1>4[8:1]/7,,
{32}5<8[8:1],,,,,,,,4,,,,,,,,8,,,,8x,7x,6x,5x,4x,3x,2x,1x,C1f/8x,,,,
{1},
{64}6h[2:11],,,,,,,,,,,,,,,,,,,,,,,,,,,,,,,,B4,E5,,,,,,,,,,,,,,,,,,,,,,,,,,,,,,,
{64},,,,,,,,,,,,,,,,,,,,,,,,,,,,,,,,B4,E5,,,,,,,,,,,,,,,,,,,,,,,,,,,,,,,
{64},,,,,,,,,,,,,,,,,,,,,,,,,,,,,,,,B4,E5,,,,,,,,,,,,,,,,,,,,,,,,,,,,,,,
{64},,,,,,,,,,,,,,,,,,,,,,,,,,,,,,,,B4,E5,,,,,,,,,,,,,,,,,,,,,,,,,,,,,,,
{64},,,,,,,,,,,,,,,,,,,,,,,,,,,,,,,,B4,E5,,,,,,,,,,,,,,,,,,,,,,,,,,,,,,,
{64},,,,,,,,,,,,,,,,,,,,,,,,,,,,,,,,B4,E5,,,,,,,,,,,,,,,,,,,,,,,,,,,,,,,
{4}3h[8:1]/5h[8:1],2h[8:1]/6h[8:1],4h[8:1]/6h[8:1],3h[8:1]/7h[8:1],
{8}C1f/B4/B5/E5,,,,1x/8x,1x/8x,3>1[8:1]/7<5[8:1],,
{4}3-7[8:1]/7-4[8:1],,2-8[8:1]/6-4[8:1],2/6,
{8}2b/6b,,3/7,,2b/6b,4b,3b>1[8:1]/7b<5[8:1],3b/7b,
{4}3b-7[8:1]/7b-4[8:1],,2-8[8:1]/6-4[8:1],2/6,
{8}C1f/B2/E3/B7/E7,,,,1x/8x,2x/7x,3xqq5[8:3]/6xpp4[8:3],,
{8},,,,3x/6x,3x/6x,3x/6x,,
{4}2h[8:1]/5h[8:1],4h[8:1]/7h[8:1],2<7[8:1]/6>3[8:1],2b/6b,
{8}8xh[2:1],,1xh[4:1],,,1/8,2/7,3/6,
{8}4x-8[8:1],4x,6x-1[8:1],6x,3x-8[8:1],3x,5b,,
{16}1h[16:3],,,2h[16:3],,,3<6[8:1],,,4,3,,7,,8,,
{16}8h[16:3],,,7h[16:3],,,6>3[8:1],,,5,6,,2,,1,,
{16}1h[16:3],,,2h[16:3],,,3<6[8:1],,,4,3,,7,,8,,
{16}8h[16:3],,,7h[16:3],,,6>3[8:1],,,5,6,,1,,1,,
{16}2,4,,1/5,,,7,5,,4/8,,,2,4,2,4,
{16}1h[16:3],,,2h[16:3],,,3<6[8:1],,,4,3,,7,,8,,
{16}8h[16:3],,,7h[16:3],,,6>3[8:1],,,5,6,,1,,1,,
{16}2,4,,7,5,,2,4,,6,6,5,7,3,5,1b,
{1},
{1},
{1},
E
