&title=WiPE OUT MEMORIES
&artist=t+pazolite
&first=1.132
&des=
&wholebpm=210
&lv_2=6
&lv_3=8+
&lv_4=12+
&lv_5=14+
&inote_2=(210.0){1},
{1}1b,,
{2}8,8,
{1}8,
{2}7,7,
{1}7,
{2}6,6,
{1}6,
{2}5,5,
{1}4b/5b,
{2}4,4,
{2}4,4,
{2}3,3,
{1}3,
{2}2,2,
{2}2,2,
{2}1,1,
{1}1/8,
{1}1-4[1:1],,,
{1}5,
{1}5-8[1:1],,,
{1}1,
{1}B8,
{1}B1,
{1}B7,
{1}B2,
{1}B6,
{1}B3,
{1}B5,
{1}C1,
{1}7h[1:1]/8h[1:1],,
{1}5h[1:1]/6h[1:1],,
{1}4,
{1}3,
{1}2,
{1}1,
{2}1x,1,
{2}2,2,
{2}3,3,
{1}4/5,
{2}5,5,
{2}6,6,
{2}7,7,
{1}1x/8x,
{1}8-4[1:1],,
{1}3-7[1:1],,
{1}8-3[1:1],,
{1}1-4[1:1],,
{2}5,5,
{2}6,6,
{2}7,7,
{2}8,8,
{2}1,1,
{2}8,8,
{2}1/8,1/8,
{1}1b/8b,
{4}1x,1,1,,
{4}2x,2,2,,
{4}3x,3,3,,
{4}4x,4,4b/5b,,
{4}5,5,5,,
{4}6,6,5/6,,
{4}7,7,7,,
{4}8,8,1/8,,
{1}1h[1:1]/8h[1:1],
{2},1/8,
{4}7,7,6,6,
{4}4/5,4/5,4/5,,
{4}3,3,2,2,
{4}1,1,8,8,
{4}1/8,1/8,1/8,1/8,
{4}2/7,2/7,3/6,3/6,
{1}4b/5b,,,,
{1}Chf[1:1],,
{4}1,1,1,,
{2}1/2,1/2,
{4}3,3,3,,
{2}3/4,3/4,
{4}5,5,5,,
{2}5/6,5/6,
{4}7,7,7,7,
{4}7x/8x,7x/8x,7x/8x,,
{4}6,6,5/6,,
{4}4,4,4/5,,
{4}3,3,3/4,,
{4}2,2,1/2,,
{4}8,8,8,8,
{4}7,7,7/8,,
{4}1,1,1,1,
{4}2,2,
{2}1h[2:1]/2h[2:1],{1},
{1}B1/B2,
{1}B6/B7,
{1}C1,
{4}8,8,7,7,
{4}6,6,5/6,,
{4}4x,4x,3x,3x,
{4}2x,2x,1x/2x,,
{4}3,3,4,4,
{4}5,5,4/5,4/5,
{4}3/6,3/6,2/7,2/7,
{4}1/8,1b/8b,
E
&inote_3=(210.0){1},
{1}4qq1[4:5]/5pp8[4:5],,
{4}8,8,1/8,,
{4}2,2,1/2,,
{4}7,7,7/8,,
{4}1,1,2/8,,
{4}3,3,3/4,,
{4}6,6,5/6,,
{4}3,3,4,4,
{1}4b/5b,
{4}6,6,5,5,
{4}4,4,3/5,,
{4}2,2,1,1,
{4}8,8,1/8,,
{4}2,2,3,3,
{4}4,4,3/5,,
{4}6,6,5,5,
{4}4/5,4/5,4b/5b,,
{1}E5,
{1}E4,
{1}E3,
{1}E2,
{1}E1,
{1}E8,
{1}E7,
{1}E6,
{2}6hx[2:1],5,
{2}3h[2:1],4,
{2}6h[2:1],5,
{2}4/5,3/4,
{2}2h[2:1],1,
{2}7h[2:1],8,
{2}2h[2:1],1,
{1}1h[2:1]/8h[2:1],
{4}7,7,8,8,
{4}1,1,2/8,,
{4}3,3,4,4,
{4}5,5,4/5,,
{4}3,4,5,6,
{4}5,4,3,2,
{8}1/8,1/8,1/8,,2/7,2/7,2/7,,
{1}3b/6b,
{4}B1,B8,B7,B6,
{4}B5,B4,B3,B2,
{4}B1,B8,B7,B6,
{4}B5,B4,
{2}Chf[2:1],{1},
{4}8x,8x,7,6,
{4}4/5,3/6,2/7,1/8,
{1}1b/8b,
{1}7-3[2:1],
{1}2-6[2:1],
{1}7-4[2:1],
{1}3-8[2:1],
{1}7^4[2:1],
{1}3^8[2:1],
{1}7p3[2:1],
{1}2q6[2:1],
{4}7,7,7/8,,
{4}2,2,1/2,,
{4}3,3,3/4,,
{4}5,5,4/6,,
{4}5,5,3,3,
{4}4,5,6,7,
{8}1/8,1/8,1/8,,2/7,2/7,2/7,,
{1}C1f,
{4}8b,8,7/8,7/8,
{4}6,5,4/6,,
{4}3,3,3/4,3/4,
{4}2x,1x,1x/8x,,
{4}2,2,1/2,1/2,
{4}3,4,3/5,,
{4}6,6,4/5,4/5,
{4}3/6,3/6,2/7,2/7,
{1}C1f,
{4}1hx[4:1]/8hx[4:1],,2x/7x,2/7,
{4}8,8b,1,2,
{4}3,4/5,3/6,,
{4}7,7,7/8,,
{4}2,2,1/2,,
{8}1/8,1/8,1/8,,2/7,2/7,2/7,,
{8}3/6,3/6,3/6,,4/5,,,,
{1}5b/4bqq5[4:5],,
{1}5pp4[4:5],,
{1}3h[1:1],
{4}4,3/4,3/4,,
{4}2b,1/2,2,1/2,
{4}3,4,5,6,
{4}7,7/8,7,7/8,
{4}6,5,4/6,,
{4}3h[4:1],4,4/5,4/5,
{4}6h[4:1],5,4/5,,
{8}4,,4,,5,,4/5,4x/5x,
{8},3hx[8:3]/6hx[8:3],,,,,,,
{4}7b,7/8,7,7/8,
{4}6,5,4,3,
{4}2,1/2,2,1/2,
{4}3,4,3/5,,
{4}3,4,5,6,
{4}5,4,3,2,
{8}1/8,1/8,1/8,,2/7,2/7,2/7,,
{8}3/6,3/6,3/6,,4b/5b,,,,
{1}E5,
{1}C1,
{1}E1,
{1}1-4[2:1]/8-5[2:1],
{4}6,5/6,3,3/4,
{4}4/5,3/6,2/7,,
{8}1x/8x,,1x/8x,,1x,1x,1x,,
{8}8x,8x,8x,,1b/8b,,1b/8b,,
{4}2,1/2,7,7/8,
{4}1/8,2/7,3/6,4/5,
{4}4x/5x,3x/6x,2x/7x,1hx[4:1]/8hx[4:1],
{4},C1f/B2/B7,
E
&inote_4=(210.0){1},
{1}6^3[2:3],,
{4}4,5,3,6,
{4}1,2/8,3/7,,
{4}5/6,7/8,5/6,2/7,
{4}3/4,1/2,3/4,2/7,
{4}4,5,3,6,
{4}1,2/8,3/7,,
{4}5/6,7/8,1/2,3/4-8[8:5],
{4},,,1,
{4}6,5/7,4/6,2/8,
{4}3,2/4,3/5,1/7,
{2}2q6[4:1],7p3[4:1],
{4}1,3,5,1/7,
{4}3,2/4,3/5,1/7,
{4}6,5/7,4/6,2/8,
{4}7-5[8:1],4,2-4[8:1],5,
{1}7p4[4:3],
{1}1b,
{1}8h[2:1],
{1}3h[2:1],
{1}6h[2:1],
{2}4^1[4:1],6,
{2}8^5[4:1],2,
{2}4-8[4:1],6,
{1}8z4[2:1],
{8}3,,4,,2/5h[8:3],,,4,
{8},5,,4/6,,7,7,,
{8}6,,5,,7/4h[8:3],,,5,
{8},4,,3/5,,2,2,1,
{8},,3/8,,1/6,,2,2,
{8},3/4,,5/6,,7,7,8,
{8},,1/6,,3/8,,2/7,2h[8:5]/7h[8:5],{1},
{4}1/8V64[4:3],2,2,2,
{4}3,3,3,2/4,
{4}5/1V35[4:3],7,7,7,
{4}6,6,6,5/7,
{4}4/8,4/7,4/6,4/5,
{4}3/5,2/5,1/5,1/8,
{8}3b,4,4,4,2b,6,6,6,
{8}1b,8,8w4[4:1],8,,,,,
{4}2/6,3/4,3/4,6/7,
{4}6/7,3/4,6/7,3b/4b-8[8:1],
{4}1,3,5/6,5/6,
{4}2/3,5/6,2/3,4qq1[4:3]/5pp8[4:3],{1},
{4}2/7,5/6,3/4,1/8,
{4}3/6,1/2,7/8,4/5p4[8:5],
{4},,,1,
{2}7h[4:7]/3-5[8:1],2-4[8:1],
{2}1-3[8:1],8-2[8:1],
{2}6h[4:7]/3^5[8:1],2^4[8:1],
{2}1^3[8:1],8^2[8:1],
{2}3h[4:7]/6-4[8:1],7-5[8:1],
{2}8-6[8:1],1-7[8:1],
{2}2h[4:7]/6^4[8:1],7^5[8:1],
{2}8^6[8:1],1^7[8:1],
{8}3,,3,,3/5,,4,4,
{4}5,5,4/2-4[8:1],,
{8}6,,6,,4/6,,5,5,
{4}4,4,5/7-5[8:1],,
{8}3,3,4,4,2,2,8,8,
{8}1,1,7,7,5,5,6,6,
{16}4x,5x,4x,5x,4x,5x,4x,5x,4x,5x,4x,5x,4x,5x,4x,5x,
{8}C1f,,,,8,1b,1b,,
{8}3,4,2,6,5,7,2,1,
{8}2,7,8,7,3,4,2b/5b,,
{8}6,5,7,1,1,8,3,4,
{8}2^5[8:1],6v1[8:1],,,,2,3b/8b,,
{8}5/6-1[8:1],,3,3,2,1,3/8,,
{8}4/3-8[8:1],,6,6,7,8,1/6,,
{16}6/5-1[8:1],,,,8,,8,,7h[16:3],,,5h[16:3],,,4,,
{4}4/5,2/7v5[8:1],3v1[8:1],,
{2}B7/E8,B4/E4,
{8}B6/E6,,,,3/4-8[8:1],,1,1,
{4},C1f/B2/B3/E3,B1/C1f/E1/B8,C1f/B6/B7/E7,
{8}C1f/B4/B5/E5,,1b/8b,1b/8b,1b/8b,,3b/6b,,
{8}1/8x,8x,1/8x,8x,2/8x,8x,2/8x,8x,
{8}3/8x,8x,3/8x,8x,4/8x,8x,4/8x,8x,
{1}4h[4:3]/8x<1[2:1],
{8}1,2,3,4,5,,1b/8b,,
{1}C1f/B2/B3/E3/B6/B7/E7,,,,,
{4}1h[2:1]/8h[2:1],,,2b/7b,
{8}6/8,6/8,,5,5,3,4,2-4[8:1],
{8},8-6[8:1],,1-5[8:1],,8,8,,
{8}2/4,2/4,,1,1,7,8,6h[4:1],
{8},5,6,4/7,,3,4,2/5-8[16:3],
{8},,1h[4:1],,8,1,2/7,2/7,
{8},6/8,,1/3,,4/5,5/4-1[8:1],,
{8}8,,5/7,5/7,,2/4,,1-5[8:1]/8-4[8:1],
{8},,,3x/6x,3x/6x,,1b/8b,,
{8}1/3,1/3,,4,4,6,5,7-5[8:1],
{8},1-3[8:1],,8-4[8:1],,1,1,,
{8}5/7,5/7,,8,8,2,1,3h[4:1],
{8},4,3,2/5,,6,5,7/4-1[16:3],
{8},,8h[4:1],,1,8,2/7,2/7,
{8},4^1[16:3]/5^8[16:3],,,,,2/7,,
{8}4/5,,2/6h[4:1],,5,5,7,7,
{16}1,8,1,8,1,8,1,8,1,,,,2b/7b,,,,
{8},,C1,,E3,B3,B4,E5,
{8},B6/E6,,B3/E4,,E1,C1,E5,
{8},,B1/B8,,E7,B6,B5,E5,
{8},,1b/8b,3b-6[8:1]/7b-2[8:1],,,,,
{16}1/8,,,3,,,5/6,,,8,,,2,,2,,
{8}4,3,6,6,5,7,1,1,
{16}2x/3x,,,,6x/7x,,,,1x/8x,,4x,5x,4x,,3x/6x,,
{8}2b/7b,2b/7b,2b/7b,2b/7b,2b-4[8:1]/7b-5[8:1],,2x/7x,,
{16}1/8,,,6,,,3/4,,,1,,,7,,7,,
{8}5,6,3,3,4,2,5,5,
{16}3hx[8:1]/4hx[8:1],,,1hx[8:1]/2hx[8:1],,,7hx[8:1]/8hx[8:1],,,5hx[8:1]/6hx[8:1],,,4x/8x,,4xqq4[16:3]/8x-5[16:3],,
{4},
{16}C1f,,
E
&inote_5=(210){1},
{24}4b,5,4,5-1[1:1],,,{4},,,
,,,{16}8,1,8,,
{8}2x/7x,,3/5,4,7,6,5/3,2,
1/7-3[8:1],,4-1[8:1],,,,2b/6b,,
3h[8:1]/5h[8:1],,3h[8:1]/5h[8:1],,{16}6,5,6,,7,,7,,
3,4,{8}3,2,2,1/7,1/7,2h[16:1]/6h[16:1],,
3x/5x,,4/6,5,2,3,4/6,7,
3/8-3[8:1],,4-1[8:1],,,,2/6,,
5,5,4,4,{16}5,4,5,4,5s1[2:1],4,5,4,
{4}5,,2-6[8:1],8b,
{16}4h[8:1]/7h[8:1],,,4h[8:1]/7h[8:1],,,4/7,,6,5,6,,4/5,,3,,
2/1,,8,,4/7,,6,5,6,,4/7,,3,,2,,
1h[8:1]/6h[8:1],,,2h[8:1]/5h[8:1],,,2/5,,3,4,3,,4/5,,5/6,,
4/7,,2,1,,3,4,,7,8,,6,5,,4/6,,
3h[8:1]/7h[8:1],,,3h[8:1]/7h[8:1],,,4/6,,
3,4,3,,2/5,,2/5,,
3/4,,5,,4/6,,7,8,7,,1,,2/8,,3/7,,
4h[8:1]/6h[8:1],,,4h[8:1]/6h[8:1],,,5h[8:1]/3h[8:1],,,3h[8:1]/5h[8:1],,,2/6,,1,,
2/8-4[8:1],,7-3[8:1],,8,,7,,,,2,,2/8,,,,
{2}1h[2:1],6h[2:1],
1h[2:1],5h[2:1],
1h[2:1],4h[2:1],
1h[2:1],3h[2:1],
1h[2:1],2h[2:1],
3h[2:1],4h[2:1],
5h[2:1],6h[4:5],
4h[4:3],,
{8}E1,,C1,,B6,B5,B4,B3,
,B7/E8,,E2/B2,,B6,B3,,
E5,,C1,,B3,B4,B5,B6,
,E2/B2,,B7/E8,,E6,E5,E4,
,,C1,,B7,B5,B4,B1/B2,
,B8/B7,,C1,,E4,E5,E6,
,,3/7,,4,4,6,6,
5-1[8:1],,,,8b,,,,
4>8[2:1]/5,,5,,5,,5,,
5/8,,5/7,,5/6,,4,4,
4/5<1[2:1],,4,,4,,4,,
4/1,,2/4,,3/4,,5,5,
5/4,,5/6,,3/5,,5/7,,
6/1,2,3/7,6,5/2,3,4/8,7,
6h[1:1]/3x,3,3,3,2x,2,2,2,
1hx[2:1],,2,,{32}E3,B3,B4,B5,B6,E7,,,{4},
7b/1h[4:1],{16}7,6,5,4,8,7,6,5,1,8,7,6,
2,1,8,7,3,2,1,8,4,3,2,1,C1,,,,
1,7,1,7,2,6,2,6,3,5,3,5,4,6,4,6,
5,7,5,7,4-1[8:1],8,4,8,{4}4-7[8:1],4>6[4:3],
C1f,,,1b,
{16}8,7,6,5,1,8,7,6,2,1,8,7,C1,,,,
2,8,2,8,3,7,3,7,4,6,4,6,3q6[2:1],5,3,5,
{4}3,,,4/7,
{8}5b-1[8:1]/6h[16:1],6h[16:1],6h[16:1],6h[16:1],4-2[8:1]/6h[16:1],6h[16:1],6h[16:1],6h[16:1],
5-1[8:1]/6h[16:1],6h[16:1],6h[16:1],6h[16:1],
6x/1x,,4x/5x,,
4-8[8:1]/3h[16:1],3h[16:1],3h[16:1],3h[16:1],5-1[8:1]/3h[16:1],3h[16:1],3h[16:1],3h[16:1],
4-8[8:1]/3h[16:1],3h[16:1],3h[16:1],3h[16:1],3x/8x,,5/6,,
4-8[8:1]/7h[16:1],7h[16:1],7h[16:1],7h[16:1],
5-2[8:1]/7h[16:1],7h[16:1],7h[16:1],7h[16:1],
4-8[8:1]/6h[16:1],6h[16:1],6h[16:1],6h[16:1],
5/7,,3b/8b,,
5-1[8:1]/2h[16:1],2h[16:1],2h[16:1],2h[16:1],3-8[8:1]/2h[16:1],2h[16:1],2h[16:1],2h[16:1],
6-1[8:1]/3h[16:1],3h[16:1],3h[16:1],3h[16:1],3x/8x,,5/4,,
3b-7[8:1],3,8-4[8:1],8,1-5[8:1],1,8,7,
6-3[8:1],6,2<7[8:1],2,4x,,3/5,,
2-5[8:1],2,8-4[8:1],8,3-8[8:1],3,7,6,
5-1[8:1],5,3<6[8:1],3,8x,,1/7,,
2/8,2/8,3,3,4/6,4/6,5,5,
4,3,2,1,8,7,6,5,
{16}4,5,6,7,8,1,2,3,4,5,6,7,{4}8<1[2:1],
1x/8x,,{8},8b,1b,,
{16}2-5[16:1],1,2,1,2b,,7-4[16:1],8,7,8,7b,,2>5[16:1],1,2,1,
2b,,7-3[16:1],8,7,8,7b,,2b,8b,2b,8b,2b,,,,
6-1[16:1],5,6,5,6b,,3-8[16:1],4,3,4,3b,,7,1,7,1,
{32}7bv4[16:1],6,5,4,3v8[16:1],2,1,8,{8}7x,3x,5,1,3b/7b,,
4b/8b-4[8:1],8,2,2,{16}4x,3,2,1,7,6,5,4,
1-5[8:1],,1,,7,,7,,5x,6,7,8,2,3,4,5,
7<4[8:1],,7,,3,,3,,2-5[8:1]/1h[16:3],,,2,1,,6,,
7/8,,,,1/8,,1/8,,{32}1b/8b,2/7,3/6,4/5,{8},1x/8x,,
{16}2x/7x,,,,,,,3/B6,,,,,,,,5/B3,
{8},,2-5[8:1],5-2[8:1],2bV85[4:1],,,,
6x,,8-4[8:1]/7-5[8:1],,8/7-3[8:1],,7/2-6[8:1],,
{8}2/5-8[8:1],,3-1[8:1]/5-1[8:1],4,3/5,,3h[1:0]/8h[1:0],,
{16}1b,1,1,1,1,1,1,1,1b,1,1,1,1,1,1,1,
{16}1b,1,1,1,1,1,1,1,1b,1,1,1,1,1,1,1,
{16}1b,1,1,1,1b,1,1,1,1b,1,1,1,1b,1,1,1,
{8}1b/8,2b/7,3b/6,4b/5,4-1[8:1]/5b-8[8:1],,,,
{1}B1/B2/B3/B4/B5/B6/B7/B8/C1f/E5,,,,
B6/B7/Ch[1:1],
{4}8z4[2:1],,2-6[8:1],2b,
{16}7x/8x,,6,,4/5,,3,,2,1,3,,4/8-4[8:1],,7-3[8:1],,
8V26[4:1],,7,,8,,5,,,,7,,1/7<4[8:1],,,,
4,,3,,2/1,,3/8,,7,5,6,,3/5,,2/4,,
1/5,,7,8,6,,1/5,,2-5[8:1],,1-6[8:1],,2,,1,,
4>1[8:1]*<7[8:1],,,,4b,,,,8x,,8,,7,,1/6-3[8:1],,
,,6-1[8:1]/2-6[8:1],,,,6/2>4[8:1],,,,{24}8x,7x,6x,{16}5b,,,,
6,,5/7,,3,,2/4,,1,7,2,6,3,,5-7[8:1]/4-2[8:1],,
,,4/5,,,,1/8,,7/2w6[8:1],,,,2b,,,,
4/8,,7,,6/2,,3,,6,5,7,,8/1-5[8:1],,2-6[8:1],,
1V73[4:1],,2,,1,,4,,,,2,,8/2>5[8:1],,,,
5,,6,,7/8,,6/1,,3,4,2,,1/7,,2/6,,
3/5,,6,5,7,,4/8,,3/1,,2,4,3,5,4,6,
5w1[8:1],,,,{32}5b,B5,C1f,B1,{16},,3/7,,3/7,,2,,1-5[8:1]/8-6[8:1],,
,,1b-3[8:1]/8b-4[8:1],,,,1b/8b,,,,6,5,6,,7/4,,
3-8[8:1]/8-4[8:1],,,,3b/8b,,,,2x/5x,,2/5,,6/3,,3/6,,
{32}4b,5,6,7,8,1,2,3,4b,5,6,7,8,1,2,3,{4}4b-8[8:1],7b<1[8:19],
{1},,,
{8}1h[4:1],,4q5[4:1],4,C1f,,,,
{16}7h[8:1],,8,6h[8:1],,1,5h[8:1],,2,4h[8:1],,3,4,,2/5,,
7,8,7,,1/6,,3,4,,7,5,,3/6,,2/7,,
1b/8b,,,,4b/5b,,,,7b/8b,,7b/8b,6b/1b,5b/2b,,1b/2b,3b/8b,
4b/7b,,4b/7b,,2b/5b,,2b/5b,,1b-5[8:1]/8b-4[8:1],,,,C1f,,,,
3/6,,7,8,,3,4,,2,1,,6,5,,3/4,,
2,1,3,8,4h[8:1],,6,5,,2,4,,1/8,,2/7,,
3,4,2,6,5,7,3,4,1,6,5,8,3,5,1,,
{4}2-5[8:1]/6-1[8:1],{96}2b/6b,B1/B2/B3/B4/B5/B6/B7/B8/E3/E7/C1f,,,,,{16},,,{2},
