&title=Reach For The Stars (Re-Colors)
&artist=大谷智哉「ソニックカラーズ アルティメット」
&wholebpm=203
&first=1.175
&lv_2=5
&lv_3=7+
&lv_4=11
&lv_5=13+
&des_4=隅田川星人
&des_5=小鳥遊さん
&inote_2=(203.0){1}1h[1:1],,
{1}1,
{1}1,
{1}8h[1:1],,
{1}8,
{1}8,
{1}1h[1:1]/8h[1:1],,
{1}1/8,
{1}1x/8x,
{2}1,1,
{1}1,
{2}2,2,
{1}2,
{2}3,3,
{1}3,
{2}4,4,
{1}4,
{2}5,5,
{1}5,
{2}6,6,
{1}6,
{2}7,7,
{1}7,
{2}8,8,
{1}1/8,
{1}B1/B8,
{1}B2/B7,
{1}B3/B6,
{1}B4/B5,
{1}B3/B6,
{1}B2/B7,
{1}Chf[1:1],,
{2}8,8,
{2}8,8,
{2}7,7,
{1}7,
{2}6,6,
{2}6,6,
{2}5,5,
{1}4/5,
{2}4,4,
{2}4,4,
{2}3,3,
{1}3/4,
{2}2,2,
{2}2,2,
{2}1x/8x,1x/8x,
{1}1b/8b,
{4}1,1,1,,
{2}2,2,
{4}3,3,3,,
{2}4,4,
{4}5,5,5,,
{4}4,4,4,,
{2}4/5,4/5,
{1}4/5,
{4}6,6,6,,
{2}7,7,
{4}8,8,8,,
{2}8,8,
{4}1,1,1,,
{2}1,1,
{1}1h[2:1]/8h[2:1],
{1}1x/8x,
{1}1-4[4:3],,
{1}5-8[4:3],,
{1}1-4[4:3],,
{1}5-8[4:3],,
{2}1,1,
{2}2,2,
{4}3,3,3,,
{1}3/4,
{2}5,5,
{2}6,6,
{4}7,7,7,,
{1}7/8,
{2}6,6,
{2}5,5,
{2}4,4,
{2}3,3,
{2}3/4,3/4,
{1}3/4,
{2}5,5,
{1}4/5,
{1}B4,
{1}B5,
{1}B3,
{1}B6,
{1}B2,
{1}B7,
{1}Chf[1:1],,
{4}1x,1,1,,
{4}2,2,2,,
{4}3,3,3,,
{4}4,4,4/5,,
{4}5,5,5,,
{4}6,6,6,,
{4}7,7,7,,
{4}8,8,1/8,,
{4}7,7,7,7,
{4}6,6,5/6,,
{4}4,4,4,4,
{4}3,3,3/4,,
{4}2,2,1,1,
{4}8,8,7,7,
{1}1hx[1:1]/8hx[1:1],,
{1}B1/B2,,
{1}B3/B4,,
{1}B5/B6,,
{4}Ch[4:9],{1},,,
E
&inote_3=(203.0){1},,,,
{2}2,2,
{2}1,1,
{1}8p5[1:1],,
{2}3,4,
{2}5,6,
{1}4qq1[4:5]/5pp8[4:5],,
{4}7,7,7/8,,
{4}2,2,1/2,,
{4}7,7,7/8,,
{4}1,1,2/8,,
{4}3,3,3/4,,
{4}6,6,5/6,,
{4}3,3,3/4,,
{4}5,4/5,3/6,,
{4}2,2,1/2,,
{4}7,7,7/8,,
{4}2,2,1/2,,
{4}8,8,1/7,,
{4}6,6,5/6,,
{4}3,3,3/4,,
{4}6,6,5,4/5,
{1}3b/6b,
{1}7p3[2:1],
{1}2q6[2:1],
{1}7^4[2:1],
{1}3^8[2:1],
{1}7-4[2:1],
{1}3-8[2:1],
{4}7,7,8,8,
{1}1x/8x,
{2}7h[2:1],8,
{4}6,5,4/6,,
{2}3h[2:1],4,
{4}2,1,1/8,,
{2}2h[2:1],1,
{4}3,4,3/5,,
{2}6h[2:1],5,
{4}7,8,1/8,,
{2}2h[2:1],1,
{4}3,4,3/5,,
{2}6h[2:1],5,
{4}7,8,1/8,,
{2}7h[2:1],8,
{2}5/6,4/5,
{1}4-1[2:1]/5-8[2:1],
{4}1x/8x,1x/8x,2x/7x,,
{4}1b,1,1/2,1/2,
{4}3,4,5,6,
{4}7,7,7/8,7/8,
{4}6,5,4/6,,
{4}3,3,3/4,3/4,
{4}6,6,5/6,5/6,
{4}7x,7,8x,8,
{4}1x,1,1x/8x,,
{4}7b,7,7/8,7/8,
{4}6,5,4,3,
{4}2,2,1/2,1/2,
{4}3,4,5,6,
{1}4-1[8:3]/5-8[8:3],
{4}2,1,8,7,
{4}1/8,1/8,2/7,2/7,
{4}3/6,3/6,4/5,,
{1}4bqq1[4:5]/5bpp8[4:5],,
{2}1/8,1/8,
{2}2/7,3/6,
{1}4bqq1[4:5]/5bpp8[4:5],,
{2}1/8,2/7,
{4}3/6,3/6,3/6,,
{4}E7,B6,B5,,
{4}E3,B3,B4,,
{4}E7,B6,B5,,
{4}E3,B3,B4,,
{4}E6,B6,B7,,
{4}E4,B3,B2,,
{4}E6,B6,B7,,
{4}E4,B3,B2,,
{1}8x-4[2:1],
{1}3-8[2:1],
{1}7-4[2:1],
{4}3,3,3/4,,
{1}2q6[2:1],
{1}7p3[2:1],
{4}2,2,1,1,
{1}1/8,
{1}7h[1:1],
{1}8h[1:1],
{1}1h[1:1],
{1}2,
{1}3h[1:1],
{1}4h[1:1],
{1}5h[1:1],
{1}6,
{4}6b,6,5/6,5/6,
{4}7,8,1,2,
{4}3,3,3/4,3/4,
{4}2,1,8,7,
{4}6,6,5,5,
{4}4,4,3,2,
{1}1-4[8:3]/8-5[8:3],
{4}4x/5x,4x/5x,4x/5x,,
{4}3b,3,3/4,3/4,
{4}2,1,8,7,
{4}6,6,5/6,5/6,
{4}7,1/8,2/7,3/6,
{1}4b-1[8:3]/5b-8[8:3],
{2}1x/8x,1x/8x,
{4}2,2,1/8,1/8,
{4}2/7,3/6,4/5,,
{1}4/5<4[4:9],,,,
{2}4/5<4[4:9],{1},,,
E
&inote_4=(203.0){1}3h[1:2],
{4},,,5,
{1}6h[8:7],
{8},,,,,5x/6x,5x/6x,,
{1}4/7V58[4:3],
{1}2V41[4:3],
{8}8x,,,,,2/6,,2/6<4[8:5],{1},
{4}3h[4:3],4,5,6,
{4}7h[4:3],8,1,2,
{8}3h[8:3]/6h[8:3],,,,,4xqq1[8:5]/5xpp8[8:5],,,{1},
{4}3/6,3/6,4/6,4/6,
{4}6/E5,6/E4,6/E3,6/E2,
{4}1x/6x,1/6,2/6,2/6,
{4}4/6,4/6,3/5,3/5,
{4}3x/4x,3/4,3/5,3/5,
{4}3/E5,3/E6,3/E7,3/E8,
{4}3/8x,3/8,3/7,3/7,
{4}3/5,3/5,4/6,4/6,
{4}3x/7x,3/7,4/7,4/7,
{4}7/E4,7/E3,7/E2,7/E1,
{4}7x/8x,7/8,1/7,1/7,
{4}4/7,4/7,3/5,3/5,
{4}2x/6x,2/6,2/5,2/5,
{4}2/E6,2/E7,2/E8,2/E1,
{4}1x/2x,1/2,3/4,3/4,
{4}2b/5b,5/6,4b/7b,,
{8}6^3[4:1],,,,1,1,,2/4,
{8},3/5,3/5^8[4:1],,,,,,
{8}3^6[4:1],,,,8,8,,5/7,
{8},4/6,6/4^1[4:1],,,,,,
{8}6^3[4:1],,,,1,1,,2/4,
{8},3/5,3/5^8[4:1],,,,,,
{2}3h[4:1]/7h[4:1],4h[4:1]/6h[4:1],
{1}C1f/B3/B7,
{8}4h[4:1]/6h[4:1],,,5/7,5h[4:1]/7h[4:1],,,,
{8}3h[4:1]/5h[4:1],,,2/4,2h[4:1]/4h[4:1],,,,
{4}5-8[4:1],4-1[4:1],,,
{4}2-5[4:1],1-6[4:1],,,
{8}4h[4:1]/6h[4:1],,,3/7,3h[4:1]/7h[4:1],,,,
{8}3h[4:1]/5h[4:1],,,2/6,2h[4:1]/6h[4:1],,,,
{4}1-4[4:1],8-5[4:1],,,
{4}3-8[4:1],4-7[4:1],,,
{8}1/8,,6,6,5,,4/7,,
{8}1/8,,3,3,4,,2/5,,
{4}6-1[4:1],3-6[4:1],,,
{4}8-5[4:1],3-8[4:1],,,
{4}5/7,2/4,1/8,1-5[8:1]/8-4[8:1],
{2},4z8[4:3]/5s1[4:3],{1},
{8}1x/8x,1x/8x,,C1f/B3/B4/B5/B6,,,,,
{4}1/8,5/7,1/8,2/4,
{4}1/8,6/7,4/5,2/3,
{4}1/8,2/4,1/8,5/7,
{4}1/8,2/3,4/5,6/7,
{4}8,2/6,1/7,3/5,
{4}1,3/7,2/8,4/6,
{2}5^8[4:1],1^4[4:1],
{2}5^8[4:1],1x,
{4}1/2,3/5,7/8,4/6,
{4}1/2,3/4,5/6,7/8,
{4}1/2,4/6,7/8,3/5,
{4}1/7,5/6,2/8,3/4,
{8}1-4[4:1]/7-4[4:1],,,,,,,3x/5x,
{4},4/6,3/7,2-5[4:1]/8-5[4:1],
{8},,,,,1x/7x,,1x/7x,
{8},8,8h[4:1],,1,,
{4}1b>8[4:5]/8b<1[4:5],{1},,
{8}4/6h[8:3],,,5,5,,,4/7,
{8},2/5,,3/6,3/6,,
{4}1b>8[4:5]/8b<1[4:5],{1},,
{8}5/3h[8:3],,,4,4,,,2/5,
{8},4/7,,3/6,,1/8,1/8,,
{4}7,7h[4:1],5,5h[4:1],
{4}4,4h[4:1],2,2,
{1}8<3[8:3],
{4}E2,E1,E8,E7,
{4}3,3h[4:1],1,1h[4:1],
{4}8,8h[4:1],6,6,
{1}4>7[8:3],
{4}E6,E5,E4,E3,
{4}2h[4:1],4,7h[4:1],5,
{4}3h[4:1],4,6h[4:1],5,
{4}3h[4:1],4h[4:1],5h[4:1],6h[4:1],
{4}7h[4:1],8h[4:1],1h[4:1],2,
{1}1q6[8:3]/2^5[8:3],
{1}7^4[8:3]/8p3[8:3],
{16}2hx[16:3],,,3hx[16:3],,,4x,,7hx[16:3],,,6hx[16:3],,,
{8}5xp4[2:1],{1},
{4}3h[1:1],4,4,5,
{4}6h[1:1],5,5,4,
{4}3h[1:1],4,4,5,
{4}6h[1:1],5,5,4,
{8}3,3,5,5,4,4,6,6,
{8}3,3,5,5,4,4,6,6,
{4}5/7,2/4,5/7,2/4,
{8}1/8,1/8,1/8,,3x/6x,,3x/6x,,
{4}7/8,3/5,1/2,4/6,
{2}7-4[8:1]/8-3[8:1],1-6[8:1]/2-5[8:1],
{4}7/8,3/5,1/2,4/6,
{2}7-4[8:1]/8-3[8:1],1-6[8:1]/2-5[8:1],
{4}7h[4:1],8h[4:1],1h[4:1],2h[4:1],
{4}3h[4:1],4,2/5,2/5,
{4}6^1[4:1],,4,4,
{4}3x^8[4:1],,5,5,
{4}1/7,3/4,2/8,5/6,
{4}7-4[8:1],1,2-5[8:1],8,
{4}8,4/6,1/8,3/5,
{4}6-1[8:1],4,3-8[8:1],5<4[8:5],{1},
{4},3x/6x,2/7,1bpp4[1:1]/8bqq5[1:1],{1},
{4},,,3/6,
{1}4>5[4:11]/5<4[4:11],,,
{4},,,3/6,
{1}4>5[4:11]/5<4[4:11],,,,
{12},,,E4,
{995}B4,,,,,,,,,,,,,,,,,,,,,,,,,,,,,,,,,,,,,,,,,,,,,,,,,,,,,,,,,,,,,,,,,,,,,,,,,,,,,,,,,,,
{12}B5,E6,
E
&inote_5=(203)
{8}4h[8:7],,,,,,,5h[8:7],
,,,,,,4<6[2:1],,
3h[8:7],,,,,,,6h[4:3],
,,,,,5,4/5,,
{2}2h[2:1],1h[2:1],
8h[2:1],7h[2:1],
6h[8:5],{8},7h[8:1],8h[1:1],1h[8:7],
{4},,,,
5h[2:1],6,6h[2:1],7,
7h[2:1],8,8h[2:1],1,
1h[8:5],,{8},8,1,2h[8:7]/7h[8:7],
{1},
{8}1x/8x,2,3/4,,5/7,,2/4,,
5/6,5/6,,7/8,,1/2>1[8:5],,6,
,,,,,,3/4,,
B6,B7,B8,B1,B2,B3,,,
7x/8x,6,2/5,,4/7,,3/5,,
1/2,1/2,,2/4,,5/7,,7/8>4[8:3],
,5,5,,6,,5/6,,
4h[4:1],,6,6,7h[4:1],,5,,
4/6,3,1/2,,7/8,7/8,,4/6,
,1/2,,5/7,,3/5<4[8:5],,1h[8:5],
,,,,,,5/7,5/7,
,4/6,4/6,,3,4,2/5,,
1/8,,4/6,3,2/4,,5/7,,
1/2,3,4/5,,7/8,,4/6,4/6<3[8:3],
,5,5,,4,,6/3,,
1b/8b,,{16}6x,5,6,5,4x/7x,,,,3x,4,3,4,
{8}2x/5x,,1x/8x,,5/7,4/6,,4/2h[1:1],
,,E8/B7,,B6,B5,,E4/B4,
,,1x/8x,,2/4,3/5,,5/7h[1:1],
,,E2/B2,,B3,B4,,E6/B5,
,,1x/8x,,5/7,4/6,,4/2h[8:7],
,5,5,,6,,7,,
{4}1x/8x<4[4:1],4>8[4:1],8<4[4:1],4w8[4:1],
,,2b/6b,,
7h[8:3],{8},8,7,,1/5,,
2h[8:3],,,1,2,,7/4qq8[1:1],,
8b,,8,,7,,7,,
6,,6,,5/6,,4,,
3/4,,2,,1,,8,,
7h[2:1],,,,5pp1[4:5],,4,4b,
,,2,,2,,3,,
3,,4,,4/5,,6,,
4/6,,5/7,5,6,5,4/7,,
3/5,,2/4,4,3,4,5/2qq7[1:1],,
7b,,7,,6,,6,,
5,,5,,5/4,,4/5,,
3/6,,5/7,6,2/4,3,4/5,,
7h[8:3]/8h[8:3],,,,6-1[8:1]/5-2[8:1],,5/6,,
2x,6,{16}4,4,{8}5,7,5/6,,4/5,
3x/6x,1x-5[8:1]/8x-4[8:1],,{48}1x/8x,C1f,{12},{8},,{16}2b,7,2b,7,
{8}2x,1/5,6,4/7,3,2/8,7,6x/4x,
5,4x/6x,5,4x/6x,3,2/7,{16}1,8,1,8,
{8}1,2/5,6,3/7,4,5/6,7,2x/8x,
1,2x/8x,1,2x/8x,3,4/6,{16}7,8,7,8,
{8}7x,6/8,5/1,4/2,3x,2/4,1/5,6/8,
7x/1x,2/8,7/3,4/6,5<1[4:1],,1>1[2:1],,
C1f,,1>1[2:1],,C1f,,1>1[2:1],,
C1f,,1-5[8:1],,C1f,,3b/7b,,
8x,4/7,3,2/5,6,7/1,2,3x/5x,
4,3x/5x,4,3x/5x,6,2/7,{16}8,1,8,1,
{8}8,4/7,3,2/5,6,4/7,3,2/6,
1x/8b,3b/5x,2x/7b,4b/6x,3x/8b,1b/5x,4x/7b,2b/6x,
1x/3x,,6/8,,3/5,4/6,,2/4,
,,4/5,,3/6,,2/7,,
1h[2:1]/8h[2:1],,,,,2b/7x,3b/6x,4b/5x,
,3/6,3/6,,7/8,,5/6pp1[2:3],,
{1},,
{8}3h[8:3],,,4,3,,,4/5,
,5/6,,7,7,,8/1pp4[2:3],,
7,,,8,8,,,7,
,6,,5,5,,4,,
3h[8:3],,,4,3,,6,{16}4,5,
{8}3,3,6,6,2,2,1b/5b,,
2/4,3,3,3,5/7,6,6,6,
1/3,2,2,2,6/8,7,7,7,
2/4,3/5<4[2:1],4/6,5/7,,,,,
,5/7,6,5,4/2,3,5pp4[2:1]/7,6,
3/5,,,,,,{12}3,5,4,
{8}6,6,8,8,7/1,,2/4,3/5,
,5/7,,3/5,6,6,2,2,
7,8,1,2,3/6,,1/8,,
{12}2x,4,{96}2,{32},,7,,,{12}5,7,3,4,3,6,5,6,
2,1,2,7,8,7,3,1,3,{8}4x/8x,,
3/6,,{24}5/1,,2,{16}3,4,5/8,7,6,5,4/1h[4:1],,,,
5,1,5,1,6,2,6,2,7,3,7,3,{8}4x/8x,,
2b/6b,,,{16}8,1,{6}8h[6:1],7h[6:1],6h[6:1],
2h[6:1],3h[6:1],4-8[6:1],5h[2:1],,,
2h[6:1],3h[6:1],4h[6:1],8h[6:1],7s3[12:7],6b,
{1},
{16}4x,5,4,5,4,5,4,5,4,5,4,5,4,5,4,5,
4,5,4,5,4,5,4,5,4,5,4,5,4,5,4,5,
4,5,4,5,4,5,4,5,4,5,4,5,4,5,4,5,
4,5,4,5,4,5,4,5,4,5,4,5,4,5,4,5,
4,5,4,5,4,5,4,5,4,5,4,5,4,5,4,5,
4,5,4,5,4,5,4,5,4,5,4,5,4,5,4,5,
4x,5,4,5,4x,5,4,5,4x,5,4,5,4x,5,4,5,
4x,5,4,5,3x,6,3,6,2x,7,2,7,1x,8,1,8,
2b/7b,,,,6,6,5,,5/4-8[8:1],,3,,2/4,,1,,
2/7,,6,,3,3,4,,4/5-1[8:1],,6,,5/7,,8,,
2/7,,3,,6,6,5,,5/4-8[8:1],,3,,2/4,,1,,
2/7,,6,,3,3,4,,2/5,,1/6,,7,8,7,8,
{8}7-3[8:1],7,8-4[8:1],8,1-5[8:1],1,2-6[8:1],2,
1-5[8:1],1,8-4[8:1],8,7-3[8:1],7,2,,
{32}4x,5x,6x,7x,8x,1x,2x,3x,4x,5x,6x,7x,{8}8x,,7x/8x,5x/6x,3x/4x,
,1/2,3-1[8:1]/4-6[8:1],,3-7[8:1]/4-8[8:1],,3/4,,
5b/6b,7,{16}2,2,1,,1/8-4[8:1],,7,,6/8,,5,,
3/6,,2,,7,7,8,,8/1-5[8:1],,2,,1/3,,4,,
3/6,,7,,2,2,1,,1/8-4[8:1],,7,,6/8,,5,,
3,4,2,5,1,6,8,7,{2}8w4[8:1],
{32}6x,5x,4x,3x,2x,1x,8x,7x,6x,5x,4x,3x,2x,1x,8x,7x,6x,5x,4x,3x,2x,1x,8x,7x,6x,5x,4x,3x,2x,1x,8x,7x,
{8}6b/C1f,,1x/8x,,2/7,,3/6,3/6,
,4/5,{4}4>5[4:3]/5<4[4:3],,,
,,,6/5-2[1:3],
,,,,
,E7,B7,B8,
E1,,,,
,,,1/8-5[1:3],
,,,,
,E2,B2,B3,
E4,,,,
E5,,,,
,{12}B6,B5,B4,B3,
