&title=N3V3R G3T OV3R
&wholebpm=128
&artist=C-Show
&des=隅田川星人
&shortid=11385
&genre=maimai
&cabinet=DX
&version=maimai DX UNiVERSE PLUS
&chartconverter=Neskol
&lv_2=4
&des_2=
&lv_3=7+
&des_3=
&lv_4=12
&des_4=Jack
&lv_5=14
&des_5=隅田川星人
&des_6=
&inote_2=
(128){1},
{1},
{1}1x-4[4:3],
{1},
{1}5-8[4:3],
{1},
{4},1,,2b,
{4},3,,4,
{4},5,,6,
{4},7,,1/8,
{1}1xh[2:1]/8xh[2:1],
{1}1xh[2:1]/2xh[2:1],
{1}7xh[2:1]/8xh[2:1],
{1}1xh[2:1]/8xh[2:1],
{2}7,6,
{2}5,4,
{2}3,2,
{1}1b/8b,
{4}2,2,2,,
{4}3,3,3,,
{4}4,4,4,,
{2}5/6,5/6,
{4}7,7,7,,
{4}8,8,8,,
{4}1,1,1,,
{1}1/8,
{2}2,1/2,
{2}3,3/4,
{2}6,5/6,
{1}7b,
{1}C1xh[1:1],
{1},
{1}8h[2:1],
{2}7/8,7/8,
{1}6h[2:1],
{2}4/5,4/5,
{1}3h[2:1],
{2}1/2,1/2,
{1}8x-4[4:3],
{1},
{1}3-7[4:3],
{1},
{1}8-3[4:3],
{1},
{1}3-6[4:3],
{1},
{2}7/8,5/6,
{2}3/4,1/2,
{4}8,8,1,1,
{1}1b/8b,
{1}2xh[1:1]/7xh[1:1],
{2},2x/7x,
{4}1,1,2,2,
{2}3,3/4,
{1}4h[16:7]/5h[16:7],
{4}5,5,6,6,
{4}7,7,7/8,,
{4}1,1,8,8,
{2}1/8,2/7,
{2}3/6,4/5,
{4}5,5,4,4,
{4}3/6,3/6,2/7,2h[16:3]/7h[16:3],
{1},
{1},
{1},
E
&inote_3=
(128){1},
{1},
{8}3,3,3,,4h[4:1]/5h[4:1],,,,
{8}6,6,6,,5/7,,4/6,,
{8}3,3,3,,2/4,,3/5,,
{8}6,6,6,,7,7,7,,
{4}1/8,2b/7b,3h[4:1]/6h[4:1],,
{4}E5,E4,E3,E2,
{4}E1,E8,E7,E6,
{1}C1xh[2:1],
{1}8x<3[2:1],
{1}1x>6[2:1],
{1}8xV63[2:1],
{1}1xV36[2:1],
{4}7h[4:1],8h[4:1],1h[4:1],2x,
{4}3h[4:1],4h[4:1],5h[4:1],6x,
{8}5/6,,7/8,,1/8,1/8,1/8,1pp4[8:5]/8qq5[8:5],
{1},
{8}3x/6x,,3/6,,7,7,7,,
{8}1/8,,2,,3,3,3,,
{8}2b/4b,,1,,8,8,8,,
{8}5/7,,6,,4/5,4/5,4/5,,
{8}3/6,,3/6,,2,2,2,,
{8}1/8,,7,,6,6,6,,
{8}5b/7b,,8,,1,1,1,,
{8}2h[4:1]/8h[4:1],,,,3/7,3/7,3/7,,
{4}6h[2:1],,5,4b/7b,
{4}3h[2:1],,4,2b/5b,
{4}6h[2:1],,5,4b/7b<2[2:1],
{1},
{1}C1f,
{8},,1/8,1/8,1/8,,2/7,,
{4}1b/8b,7h[4:1],8,1/8,
{4}2h[4:1],1h[4:1],8h[4:1],7,
{4}1b/8b,,E7,B6,
{4}B5,B4,B3,B2,
{4}C1f,,E3,B3,
{4}B4,B5,B6,E7,
{1}C1f/B2/B7,
{1}8x<5[8:3],
{1}4>1[8:3],
{4}7,6,4/5,,
{4}3h[4:7],4x,,4x,
{4},4x,,5x,
{4}6h[4:5],5x,,5x,
{4},5x,5/6,4/5,
{4}4,3,2,1b,
{4}8,7,6,5b,
{8}4/5,4/5,4/5,,3/6,3/6,3/6,,
{1}2b-5[8:3]/7b-4[8:3],
{1}3h[4:3]/6h[4:3],
{8}1x,,2x,,3x,3,3/5,,
{8}1b/2b,,3/8,,4,4,4/5,,
{8}6,,5/7,,8,8,1/8,,
{4}2-6[4:1]/7-3[4:1],,,1b/8b,
{8}1/8,,1/8,,7,7,7/8,,
{8}5/6,,4/7,,3,3,3/4,,
{8}1/2,,3/8,,7,7,1/8,,
{4}2h[4:1],1h[4:1],8h[4:1],7,
{4}6h[4:1],5h[4:1],4h[4:1],3,
{8}2,2,1/2,,7,7,7/8,,
{4}5h[8:1]/6h[8:1],3h[8:1]/4h[8:1],2/5,1h[16:3]/8h[16:3],
{1},
{1},
{1},
E
&inote_4=
(128){1},
{1},
{4}C1f/B2/B3/B6/B7,,,1b,
{16}2,,2h[16:3],,,3h[16:3],,,4,,,,4/5,,,,
{16}7,,7h[16:3],,,6h[16:3],,,5,,,,4/5,,,,
{16}2/7,,6,,5,,4,,3,,2,,1/5,,,3h[4:1]/7h[4:1],
{8},,3x/7x,2/8,1-5[8:1],,1x,,
{16}7,,7h[16:3],,,6h[16:3],,,5,,,,4/5,,,,
{8}3,3/4,6,5/6,3x,2x,6x>3[4:1],7x,
{2},4x-1[8:1]/5x-8[8:1],
{16}2x/7x,,,3/4,,,6/7,,,1/2,,,4/7,,5,,
{16}2/6,,,5/7,,,2/3,,,7/8,,,2/5,,4,,
{16}3/7,,,2/4,,,6/7,,,1/2,,,4/7,,8,,
{16}1/3,,,6/8,,,2/7,,2-6[8:1]/7,,,,,,,,
{16}5/7,,6,5,,5,4,,4,3,,3,2,,1x/5x,,
{16}2/4,,3,4,,4,5,,5,6,,6,7,,4x/8x,,
{16}5/7,,6,5,6,,3,4,3,,2,,1/8<1[2:1],,7,,
{4},,,8-4[8:1],
{8},,2h[8:1]/6h[8:1],,5h[8:1]/7h[8:1],,4h[8:1],8x,
{4}1h[8:1]/7h[8:1],6h[8:1],5h[8:1]/7h[8:1],2-8[12:1]/6-4[12:1],
{8},,3h[8:1]/7h[8:1],,2h[8:1]/4h[8:1],,5h[8:1],1x,
{4}2h[8:1]/8h[8:1],3h[8:1],2h[8:1]/4h[8:1],3-5[12:1]/7-1[12:1],
{8},,2/6,2h[8:1]/6h[8:1],,5h[8:1]/7h[8:1],,4x/8x,
{8},2h[8:1]/6h[8:1],,5h[8:1]/7h[8:1],,4h[8:1]/6h[8:1],,3/5,
{8}2x/6x,,3/7,3h[8:1]/7h[8:1],,2h[8:1]/4h[8:1],,1x>4[8:1]/5x,
{8},7x<5[12:1],,2x>4[12:1],,8x<5[8:1],,1x,
{16}1xh[16:3],,,3h[16:3],,,2h[16:3],,,4h[16:3],,,3,,3/5,,
{16}8h[16:3],,,6h[16:3],,,7h[16:3],,,5h[16:3],,,6,,4/6,,
{16}3/5,,,4,5,,4/6,,5,4,,,2/7pp2[8:5],,,,
{4},,,3-6[8:1],
{8},,,E7,,E6,,E5,
{8},E4,,E3,,1/8,2/7-2[8:1],,
{8}3h[1:2],,E4,E3,E5,E2,C1,,
{4}B7/E8,B4/E4,B7/E8,B4/E4,
{8}6xh[1:2],,E6,E7,E5,E8,E4,E1,
{8}E3,E2,E4,E1,E5,E8,E6,E7,
{8}3xh[8:9],,E4,E3,E5,E2,E6,E1,
{4}7h[8:1],2h[8:1]/6h[8:1],1h[8:1]/5h[8:1],4xq2[2:1]/8xq6[2:1],
{16},,,,,,,,,,,,3,4,3,4h[16:3],
{16},,2,,6,5,6,5h[16:3],,,7,,,,,,
{16}B2/E3,,,B5/E5,,,B1/E1,,,B6/E7,,,7<2[2:1],8,7,8,
{4},,,4/5,
{8}6,5,E8,5,6,5,E7,,
{8}3,4,E2,4,3,4,E3,,
{16}B7/E7,,,B4/E5,,,E1/B8,,,B3/E3,,,2>7[2:1],1,2,1,
{4},,,4/5,
{4}3h[8:1]/4,4/5h[8:1],3/4h[8:1],2x/3x,
{4}5/6h[8:1],4h[8:1]/5,5h[8:1]/6,6x/7x,
{8}3/4,4,5/6,5,2/4,4,5/7,5,
{4}3/4h[4:1],5h[4:1],6,3<6[8:1]/7>2[8:1],
{4},,,1b,
{16}C1,,,,E3/E7,,,,C1/E1/E5,,3/6,,2/7,,1,8,
{8}1b,,3/4,8,5/6,1,3/4,1/8,
{8}5/7,1,2/4,8,5/7,1,2-6[8:1]/4,6,
{8}8xz4[16:3],,,,,,1b,3/7,
{8}3/7,,5/6,1,3/4,8,5/6-3[8:1],1,
{8}1,,2/4,8,5/7,1,2/4,8,
{8}7<4[8:1],7,2q6[8:1],2,8-4[8:1],8,1b,,
{4}E5/3xh[8:1],3h[8:1]/4h[8:1],C1/3xh[8:1],2h[8:1]/4h[8:1],
{4}E5/6xh[8:1],5h[8:1]/6h[8:1],C1/6xh[8:1],5h[8:1]/7h[8:1],
{4}E5/3xh[8:1],C1/6xh[8:1],E1/2xh[8:1],C1/7xh[8:1],
{16}1x/5x,,2,8,3,7,4,6,5w1[12:1],,,,,,,3b/7b,
{1},
{1},
{1},
E
&inote_5=
(128){1},
{1},
{16}4/5,,4/5,,3,4,,6,5-8[8:1],,,,,,,,
{16}6,,6,,6,5,,5,7h[4:1],,,,6,,,,
{16}4/5,,4/5,,3,4,,4,2h[4:1],,,,3,,,,
{16}4/5,,6,5,6,,3,4,3,,6,5,6,4,7,C1xh[16:5],
(128){32},,,,,,,,8x,,,,,,,,2/5-8[8:1],,,,,,,,B4/5x,E5,,,,,,,
{32}3/5,,,,6,,,,B4/7,E5,,,6,,,,3/5,,,,6,,,,B4/7,E5,,,6,,,,
{32}3/5,,,,6,,,,B4/7,E5,,,6,,,,3/5,,,,6,,,,B4/7,E5,,,6,,,,
{48}2xh[2:1]/6xh[2:1],,,,,,,,,,,,,,,,,,,,,,,,,3/7,4/8,1/5,,,,,,,,,2-6[16:1]/5>2[4:1],,,,,,,,,,,,
(128){32}2b<6[16:5]/5,C1f,,,,,,,,,,,,,,,4V28[8:1],,,,,,,,4<7[4:1]/7-3[16:1],,,,,,,,
{32}4/7b>3[16:5],C1f,,,,,,,,,,,,,,,5-1[8:1],,,,,,,,2-6[16:1]/5>2[4:1],,,,,,,,
{32}2b<6[16:5]/5,C1f,,,,,,,,,,,,,,,4V28[8:1],,,,,,,,4<7[4:1]/7-3[16:1],,,,,,,,
{32}4/7b>3[16:5],C1f,,,,,,,,,,,,,,,4-1[8:1]*-7[8:1],,,,,,,,4,,,,,,,,
(128){16}2xh[8:1]/6x,,4,3,7h[8:1],,5,6,2V46[8:1],,4,1,6x,,,,
{16}4/7h[8:1],,5,6,2h[8:1],,4,3,7V53[8:1],,5,8,3x,,,,
{16}2h[8:1]/6,,4,3,7h[8:1],,5,6,1-5[8:1],,8-4[8:1],,1,,8,,
{32}E1,E2,E3,E4,E5,E6,E7,E8,E1,E2,E3,E4,E5,E6,E7,E8,1x,2x,3,4,5,6,7,8,1s5[32:5]*z5[32:5]/5,,,,,,,,
(128){24},,,,,,3/7,,,1,,6,4,,7,5,,6,4-1[8:1],,7,1b,,6,
{24}4,,,,,,2/4,,,4,,3,5,,2,4,,3,5-8[8:1],,2,4,,3,
{24}5b,,,,,,5/7,,,4,,7,5,,8,6,,7,5-1[8:1],,8,6,,7,
{24}5,,,,,,2/4,,,5,,2,4,,1,8,,8<5[8:1]*>3[8:1],,,2/6,,,8b,
(128){24},,,,,,5,,,4/6,,7,5,,8,1,,6,5>2[8:1],,1,2b,,6,
{24}5,,,,,,3/5,,,5,,2,4,,1,8,,3,4<7[8:1],,8,7,,3,
{24}4b,,,,,,4/6,,,4,,7,5,,8,1,,6,5p5[4:1]*q5[4:1],,1,2,,6,
{24},,,,,,,,,4/6,,3,5,,4,6,,2,8-3[8:1],,1,7,,,
(128){16}2/8b,,5,5h[8:1],,6,3,7,1s5[16:3],8,3,3,1<6[8:1],,,,
{16}1b,,4,4h[8:1],,3,6,2,8z4[16:3],1,6,6,8>3[8:1],,,,
{16}8b,,5,5h[8:1],,6,3,7,1s5[16:3],8,3,3,1,,,,
{32}1,8,7,6,5,4,3,2,1z5[4:1]/5s1[4:1],8,7,6,5,4,3,2,,,,,,,,,,,,,,,,,
(128){1}C1f/8b,
{24}3/6,,,3/6,,,4,,3,5,,6,3-1[8:1],,2,6,,7,3-5[8:1]/8-4[8:1],,,,,,
{8}3b/8b,,2-4[8:1],1,2-8[8:1]/7-5[8:1],8,2-6[8:1]/7,,
{8}2/7-3[8:1],8,2-5[8:1]/7,1,2/7-4[8:1],8,2-6[8:1]/7-1[8:1],1,
(128){24}2b/7b,,,,,,4/7,,3,5,,6,5,,4,5,,B6,E6,,B3,E4,,7,
{24}5,,E7,B6,,3,5,,B4,E5,,7,5,,E7,B6,,3,5-1[8:1],,B4,E5,,7,
{24}5b,,,,,,2/5,,6,4,,3,4,,5,4,,B3,E4,,B6,E6,,2,
{24}4,,E3,B3,,7,5,,5,4,,4,2,,2,8,,8,6<5[8:5],,6,5,,,
(128){1}C1f,
{16}4/6,,4/6h[16:9],,,5,,,4,,,4h[16:3],,,,,
{16}3/5,,3h[16:9]/5,,,4,,,5,,,5h[16:3],,,,,
{16}4/6,,4/6h[16:9],,,5,,,4,,,3,,,2/4,,
(128){32}2h[4:1]/4,,,,,,,,B5,E5,,,3,,,,4/6,,,,3,,,,B5/2,E5,,,3,,,,
{32}4/6,,,,3,,,,B5/2,E5,,,3,,,,4/6,,,,3,,,,B5/2,E5,,,3,,,,
{32}4/6,,,,3,,,,B5/2,E5,,,3,,,,4/6,,,,3,,,,B5/2>8[2:1],E5,,,1,,,,
{4}8,,,4/5,
(128){4}5h[8:1]/6h[8:1],6h[8:1]/7h[8:1],7h[8:1]/8-4[8:1],2b/8b,
{4}3h[8:1]/4h[8:1],2h[8:1]/3h[8:1],1-5[8:1]/2h[8:1],1b/7b,
{24}6,,6,5,,5,8,,8,1,,1,4,,4,3,,3,8-4[16:13],7,6,2,3,4,
{4}8b,,,C1hf[4:1],
{48}5,6,7,8,1p7[3:1],,,,,,,,,,,,,,,,,,,,,,,,,,,,,,,,C1,,,,,,,,,,,,
{32}1,,,,,,,,2,,,,,,,,3/4w8[16:1],,,,1/7,,,,4b,C1f,,,,,,,
(128){24}2x-5[8:1]/6x,,,3/5,,,1/2,,,6,,7,8,,4,3,,8,1-3[12:1],,7,5-7[12:1],,8,
{48}1-5[8:1],,,,,,5,,,,,,1,,,,,,6,,,,7,,8,,,,4,,2,,,,6,,8,,,,8,,,,,,1bv3[24:1]/7bv5[24:1],2/6,
{48}3s7[6:1]/5z1[6:1],4,,,,,,,,,,,,,,,,,,,,,,,,,,,,,,,,,,,1b-5[8:1]/2b,,,,,,4x/6x,,,,,,
{24}1/7v4[8:1],,,6,,,7/8,,,3,,2,1,,5,6,,1,8-6[12:1],,2,4-2[12:1],,1,
{24}8b-4[8:1],,,4,,,8,,,3,,2,1,,5,7,,3,1s5[16:3],,5,6,,2,
{24}1,,,,,,4x/6x,,,7,,7,5,,5,4,,4,2,,2,8,,8,
(128){8}3bV51[4:1]/7b,5,8-6[8:1],6,8-4[8:1],3-1[8:1],8,3,
{8}6-4[8:1],4-8[8:1],1-3[8:1],3,1-5[8:1],6-8[12:1],1,6,
{24}1-5[12:1]/2,,,7/8-4[12:1],,,1,,,8,,,3,,2-6[12:1],8-4[12:1],,1,7,,2,8,,,
{24}C1f,,,1,5,2,4,,,8,4,7,5,,,3/6,,4-8[12:1]/5-1[12:1],6,7,1/8,2,3,4b/5b,
{1}C1f,
{1},
{1},
{1},
E
