&title=Mjölnir
&wholebpm=222
&artist=xi
&des=翠楼屋
&shortid=11426
&genre=ゲームバラエティ
&cabinet=DX
&version=maimai DX UNiVERSE PLUS
&chartconverter=Neskol
&lv_2=6
&des_2=
&lv_3=8+
&des_3=
&lv_4=12+
&des_4=隅田川星人
&lv_5=14
&des_5=翠楼屋
&des_6=
&inote_2=
(222){1},
{1},
{1},
{1},
{1},
{1}1,
{1}1,
{1}8,
{1}8,
{1}1h[1:1]/8h[1:1],
{1},
{1}1,
{1}2,
{1}3,
{1}4/5,
{1}5,
{1}6,
{1}7,
{1}1/8,
{1}8,
{1}7,
{1}6,
{2}5,5,
{1}4,
{1}3,
{1}2,
{1}1/8,
{1}1b/8b,
{1},
{4}1,1x,1,,
{2}2,2,
{2}3,3,
{2}4,4,
{2}5,5,
{2}6,6,
{2}7,7,
{1}1/8,
{2}8,8,
{2}7,7,
{2}6,6,
{2}4/5,4/5,
{2}3,3,
{2}2,2,
{2}1/8,1/8,
{1}1b/8b,
{2}2,2,
{1}1/2,
{2}7,7,
{1}7/8,
{2}6,6,
{1}5/6,
{2}3,3,
{1}3/4,
{1}4b/5b,
{1},
{1}C1f,
{1},
{1}1h[1:1]/8h[1:1],
{1},
{4}1/8,,2,2,
{4}2,,3,3,
{4}3,,4,4,
{4}4,,5,5,
{4}5,,6,6,
{4}6,,7,7,
{4}7,,8,8,
{4}8,,1,1,
{4}1/8,,7,7,
{4}7,,6,6,
{4}6,,5,5,
{4}5,,4,4,
{4}4,,3,3,
{4}3,,2,2,
{4}2,,1,1,
{4}1,,8,8,
{4}1/8,,7,7,
{4}7,7,8,8,
{4}1/8,,2,2,
{4}2,2,1,1,
{2}1/8,2b/7b,
{1},
{2},C1xh[2:3],
{1},
{1},
{2},1x-4[4:3],
{1},
{2},5x-8[4:3],
{1},
{2},1-5[4:3],
{1},
{2},6-2[4:3],
{1},
{2},1,
{2}1,2,
{2}2,3,
{2}3,3/4,
{2},5,
{2}5,6,
{2}6,7,
{2}7,7/8,
{2},B1,
{2},B8,
{2},B2,
{2},B7,
{2},B3,
{2},B6,
{2},B4,
{2},B5,
{2},C1hf[4:9],
{1},
{1},
{1},
{2},1xh[1:1]/8xh[1:1],
{1},
{4},,1,1,
{4}1,,2,2,
{4}2,,3,3,
{4}3,,4/5,4/5,
{4}4/5,,6,6,
{4}6,,7,7,
{4}7,,8,8,
{4}8,,1/8,1/8,
{4}1/8,,7,7,
{4}6,6,5,5,
{4}4/5,,3,3,
{4}2,2,1,1,
{4}1/8,,2,2,
{4}3,3,4,4,
{4}5,5,6,6,
{4}7,7,1x-4[4:3]/8x-5[4:3],,
{1},
{4},,,C1xh[4:5],
{1},
{1},
{8},,,,,1x/8x,,1x/8x,
{8},2x/7x,,2x/7x,,,,,
{1},
{1},
{1},
E
&inote_3=
(222){1},
{1}C1f,
{1},
{2}4x/5x,4x/5x,
{4}3/6,3/6,3/6,,
{1}7h[2:1]/8h[2:1],
{2}1h[4:1]/2h[4:1],1h[4:1]/2h[4:1],
{2}3x/4x,5x/6x,
{4}4/5,3/6,2h[4:1]/7h[4:1],,
{1}2/7,
{6}8x,8x,8x,1x,1x,1x,
{1}8b,
{1}E2,
{1}E1,
{1}E8,
{1}E7,
{1}E6,
{1}E5,
{1}E4,
{1}E3,
{1}E2,
{2}1x/8x,2/7,
{4}3/6,,4/5,4/5,
{4}6,6,5/6,,
{4}3,3,3/4,,
{4}6,5,4,3,
{8}2,,1,,8,8,8,,
{1}1b>6[4:3],
{4},,7,7,
{4}6,6b,5/6,5/6,
{4}7,8,1,2,
{4}3,3,3/4,3/4,
{4}2,1,2/8,,
{4}7,7,7/8,,
{4}2,2,1/2,,
{4}3,3/4,6,5/6,
{4}4,4/5,3/6,,
{4}2,2,1/2,1/2,
{4}3,4,5,6,
{4}7,7,7/8,7/8,
{4}6,4/5,3/6,,
{4}2,1,8,7,
{8}1,1,1,,8,8,8,,
{4}1/8,1/8,2/7,2/7,
{1}3-8[2:1]/6-1[2:1],
{4}7,7,8,8,
{4}1,1,2/8,,
{4}3,3,4,4,
{4}5,4/5,3/6,,
{4}7,8,1,2,
{4}3,4,5,6,
{2}4h[4:1]/5h[4:1],3h[4:1]/6h[4:1],
{2}2h[4:1]/7h[4:1],1h[4:1]/8h[4:1],
{1}C1f/B3/B6,
{4}1x/8x,1x/8x,2x/7x,3x/6x,
{1}4bqq1[4:5]/5bpp8[4:5],
{1},
{1}C1xh[1:1],
{1},
{4}1x/8x,,7h[4:1],8,
{4}8,,2h[4:1],1,
{4}1,,7h[4:1],8,
{2}8,1h[4:1]/2h[4:1],
{4}1/2,,3h[4:1],4,
{4}4,,6h[4:1],5,
{4}5,,3h[4:1],4,
{2}4,4h[4:1]/5h[4:1],
{2}4/5,6h[2:1],
{2}5h[2:1],4h[2:1],
{2}3,2h[2:1],
{2}1h[2:1],8h[2:1],
{4}7,,E7,B6,
{4}B5,,E3,B3,
{4}B4,,E7,B6,
{4}B5,,E3,B3,
{2}B4,C1f,
{2}B1/B8,B2/B7,
{2}B3/B6,B4/B5,
{2}E4/E6,E3/E7,
{2}E2/E8,C1f,
{4},,1/8,1/8,
{2}2/7,1xq5[4:3]/8xp4[4:3],
{1},
{4}4/5,3/6,,,
{2},7bp5[4:5],
{1},
{2},4h[2:1]/5h[2:1],
{4},,4/5,4/5,
{4}3/6,,7,7/8,
{4}7,7/8,2,1/2,
{4}2,1/2,3,3/4,
{4}6,5/6,4,4/5,
{4}3/6,,6,5/6,
{4}6,5/6,7,8,
{4}1,2,3,3/4,
{4}3,3/4,2,1/8,
{4}2/7,,6,5,
{8}4,,3,,5,5,5,,
{8}4,4,4,,4/5,,4/5,,
{4}3/6,3/6,2-5[2:1]/7-4[2:1],,
{4},,3,3,
{4}4,4,5,5,
{4}4/6,,7,7,
{4}8,8,1,1/8,
{4}2/7,,3,4,
{4}5,6,7,8,
{4}1,2,1h[4:1]/2h[4:1],,
{2}3h[4:1]/4h[4:1],5h[4:1]/6h[4:1],
{2}7h[4:1]/8h[4:1],1h[4:1]/2h[4:1],
{2}3h[4:1]/4h[4:1],5h[4:1]/6h[4:1],
{4}7h[4:1]/8h[4:1],,,1x/8x,
{8}1x/8x,,2x/7x,,3/6,3/6,3/6,,
{8}4/5,4/5,4/5,,3bqq5[4:5]/6bpp4[4:5],,,,
{1},
{4},,4/5,3b/6b,
{4},4/5,6,5/6,
{4}6,4/7,3,3/4,
{8}3,,2/5,,1,1,1,,
{8}8,8,8,,7,,7/8,,
{4}7,1/6,2,1/2,
{4}2,3/8,4,5,
{8}6,,7,,8,8,8,,
{8}1/8,,2/7,,3,3,3,,
{8}2,2,2,,1/8,,7,,
{8}6,,4/5,,6,6,6,,
{8}7,7,7,,1/8,,2,,
{4}3,4/5,6-1[2:1],,
{2},2-5[2:1],
{8},,,,6,6,6,,
{8}3,3,3,,4bqq1[4:5]/5bpp8[4:5],,,,
{1},
{4},,,C1f/B3/B6,
{1},
{1},
{8},,,,,1/8,1/8,1/8,
{8},2/7,2/7,2b/7b,,,,,
{1},
{1},
{1},
E
&inote_4=
(222){1},
{1}C1f/B2/B3/E3/B6/B7/E7,
{1},
{2}5,4/5,
{4}6,5,4/6,,
{1}3h[1:1]/5,
{2}6h[2:1],5h[2:1],
{8}4h[8:3],,,3,3/4,,,6,
{4}5/6,7/8,1/2,3>5[4:3]/4,
{1}C1f,
{6}4x,4x,4x,5x,5x,5x,
{1}C1f,
{2}B3,B4,
{2}B5,B6,
{2}B7,E2/E8,
{1}C1xh[2:1],
{2}B7,B6,
{2}E4,B3,
{2}B2,E2/E8,
{1}1xh[2:1]/8xh[2:1],
{2}E1,C1,
{4}E5,,4x/5x,4x/5x,
{8}3/6,,4,4,,5,5,,
{4}4h[4:1]/6h[4:1],,5/7,5/7,
{4}3h[4:1]/5h[4:1],,2/4,2/4,
{6}6x,7x,8x,1x,2x,3x,
{6}4/5,3/6,2/7,1/8,2/7,3/6,
{1}4bpp1[8:7]/5bqq8[8:7],
{24},,,,,,,,,,,,,1x/8x,,,,,,,,,,,
{8}2/7-4[8:1],,1b,1,,3,2/4<1[8:3],,
{16}1,,,,2,,,,3h[16:3],,,4,,,2/5,,
{8}2/5,,6,5/7,,1,2/8-4[8:1],,
{4}3-8[8:1],6-2[8:1],1,3,
{8}5/7,,2/4,2/4,,5/7,5/7,,
{4}1h[8:1]/8h[8:1],2h[8:1]/4h[8:1],4h[8:1]/5h[8:1],5/7,
{4}1>4[8:1],8,7<4[8:1],8,
{8}1,,2/4,2/4,,5/7,5/7,,
{8}1/8,,3,2/4,,6,5>8[8:3]/7,,
{16}8,,,,7,,,,6h[16:3],,,5,,,4/7,,
{8}4/7,,3,2/4,,8,1-5[8:1]/7,,
{4}6-1[8:1],3-7[8:1],8,6,
{8}2/4,,5/7,5/7,,2/4,2/4,,
{8}5,6,4,3,6,7,4,3,
{2}1h[16:3]/2-5[8:1],7-4[8:1]/8h[16:3],
{16}2h[16:3],,,1,,,3/8,,7h[16:3],,,8,,,1/6,,
{8}1/6,,2/4h[4:1],,3,3,,4/5,
{8},6h[4:1],,5,5,,4/7,,
{8}8,,5h[4:1]/7,,6,6,,4/7,
{4}4x/7x,2x/5x,1x/8x,4x/5x,
{8}2/7,,4/6,4/6-1[8:1],,2x,2x,,
{8}4/8,,3/5,3-8[8:1]/5,,7x,7x,,
{8}2b/5b,,,B6,E6,,,B3,
{8}E4,,,C1,E5,,,,
{1}2b/7b,
{12}1x,8x,1x,8x,1x,8x,1x,8x,1x,8x,1x,8x,
{1}1b>8[4:5],
{1},
{1}1-4[8:3]/8,
{1}5<8[8:3],
{4}1h[8:1]/8h[8:1],1b/8b,6h[2:3],5,
{4}5,5,E7,E6,
{4}E5,E4,3xh[2:3],4,
{4}4,4,E3,E4,
{4}E5,E6,6xh[4:5],7,
{4}7,7,E7,E8,
{4}E1,E2,3xh[4:5],2,
{4}2,2,E3,E2,
{4}E1,E8,7xh[1:1],E6,
{4}E4,C1,8>3[4:1],,
{4}5<8[4:1],,3xh[1:1],E2,
{4}E8,C1,4<7[4:1],,
{4}1>4[4:1],,7xh[1:1],E6,
{4}E4,C1,8>3[4:1],,
{4}5<8[4:1],,3xh[1:1],E2,
{4}E8,C1,4<7[4:1],,
{4}1>4[4:1],,5,5h[6:1]/7h[6:1],
{4}5h[6:1]/7h[6:1],5h[6:1]/7h[6:1],5h[6:1]/7h[6:1],4h[6:1]/6h[6:1],
{4}3h[6:1]/5h[6:1],2h[6:1]/4h[6:1],1h[6:1]/5h[6:1],2h[6:1]/6h[6:1],
{12}3h[6:1]/7h[6:1],,,3/7,,,4,5,4,5,4,5,
{12}4,5,4,5,4,5,4b>8[2:1],,,,,,
{4},,7,7/8,
{8}1,1,2/8,,3xqq8[8:7]/7xqq4[8:7],,,,
{1},
{6}2x/6x,2x/6x,2xpp8[4:3]/6xpp4[4:3],,,,
{2},C1f/B3/B6,
{1},
{2},5h[1:1],
{4},,4,4/5,
{8}3/6,,,,1b/8b,,2/4,2/4,
{8},5/7,5/7,,1h[8:1]/8h[8:1],,2h[8:1]/4h[8:1],,
{4}4h[8:1]/5h[8:1],5/7,1>4[8:1],8,
{8}7<4[8:1],,8,,1,,2/4,2/4,
{8},5/7,5/7,,1/8,,6,5/7,
{8},3,2/4V68[8:3],,1,,2,,
{16}3h[16:3],,,4,,,2/5,,6h[16:3],,,5,,,4/7,,
{8},2/5,2-6[8:1]/5,,7-3[8:1],,4-1[8:1],,
{16}8,,,,2x/7x,,,,5h[16:3],,,6h[16:3],,,7,,
{8},1/8,1/8,,4,3,5,6,
{8}3,2,5,6,7-4[8:1]/8h[16:3],,,,
{16}1h[16:3]/2-5[8:1],,,,,,,,7h[16:3],,,8,,,1/6,,
{16}2h[16:3],,,1,,,3/8,,3/8,,,,5h[4:1]/7,,,,
{8}6,6,,4/5,,3h[4:1],,4,
{4}4,2/5,1,2/4h[4:1],
{8}3,3,,2/5,2x/5x,,4x/7x,,
{8}1x/8x,,4x/5x,,2/7,,3/5,3-8[8:1]/5,
{8},7x,7x,,1/5,,4/6,4/6-1[8:1],
{8},2x,2x,,4b/7b,,,B3,
{8}E4,,,B6,E6,,,C1,
{8}E5,,,,1b/8b,,,E2,
{8}E3,,,E8,E7,,,E1,
{4}C1,,1x/8x,2h[6:1]/7h[6:1],
{12}2h[6:1]/7h[6:1],,,2/7,,,8,1,8,1,8,1,
{12}8,1,8,1,8,1,8bpp4[4:3]*qq4[4:3],,,,,,
{1},
{8}3/5,3/5,2b/6b,,4-1[8:1]/5-8[8:1],,,,
{8},,2/7,,6,6,4,4,
{4}5/6,4/7,3V15[8:3]/8,7,
{8}6,6,6,,5/7V51[8:3],,3,,
{8}2,2,2,,1/3V15[8:3],,7,,
{8}6,6,6,,5/7V51[8:3],,3,,
{8}2,2,2,,1h[16:3]/3h[16:3],,6h[16:3]/8h[16:3],,
{8}2h[16:3]/4h[16:3],,5/7,,2,3,7,6,
{8}4,5,3b/6b,,7,5,6,8,
{8}7,5,6,8,7,5,6,8,
{8}7,5,4x/6x,,2,4,3,1,
{8}2,4,3,1,2,4,3,1,
{24}2,,,4,,,3x/5x,,,,,,1xh[6:1],,,,2xh[24:5],,,,,3xh[24:5],,,
{24},,4x,,,4x,,,,,,,8xh[6:1],,,,7xh[24:5],,,,,6xh[24:5],,,
{48},,,,5x,,,,,,5x,,,,,,,,,,,,,,1,,,2,,,3,,,4,,,5,,,6,,,7,,,8,,,
{16}1,2,3,4,5,6,7,8,1bpp4[4:3],,,,,,,,
{2},5pp8[4:3],
{4},,,C1f/B2/B3/E3/B6/B7/E7,
{1},
{1},
{8},,,,,4/5,4/5,3/6,
{8}3/6,2/7,2/7,1b/8b,,,,,
{1},
{1},
{1},
E
&inote_5=
(222){1},
{1}C1f/E1/B4/E5/B8,
{1},
{8}4h[2:1],,,,5h[2:1],,,4,
{4}4,6,5,4,
{8}4/5,,6,6,2,2,8,8,
{8}1/8,,2,2,6,6,3,3,
{2}3h[4:1]/5h[4:1],5h[4:1]/7h[4:1],
{16}2,,2,,7,,7,,1,8,1,8,1,8,1,8,
{16}1b,2,3,4,5,6,7,8,1,2,3,4,5,6,7,8,
{6}1x,3x,5x,4x,6x,8x,
{16}2h[1:1]/5b,,,,,,E7,B6,B5,,,,,,E3,B3,
{6}B4,1,8,7,8,7,
{6}1/6,2,3,4/5xh[1:1],,,
{4}B3/B4,,6,7,
{16}1b/8h[1:1],,,,,,E7,B6,B5,,,,,,E3,B3,
{6}B4,8,1,2,1,2,
{6}3/8,7,6,4/5h[2:1],,,
{48}1b,,,,,,,,,,,,,,,,,,,,,,,,3x/5x,,,,,,,,3x/5x,,,,,,,,,,4x,,,5x,,,
{16}4xh[8:7],,,,,,E2,E3,E4,,,,,,E8,E7,
{6}E6,3,3,5,6,6,
{24}E5,,,,C1,,,,E1,,,,1x/8x,,,,,,,,,2/7,,,
{8}2x/7x,,3,2/4,,6,5/7,,
{16}2h[16:3],,,3h[16:3],,,4h[16:3],,,5,,,5/6,,,,
{16}7h[16:3],,,6h[16:3],,,5h[16:3],,,4,,,3/4,,,,
{48}4x/6x,,,,,,,,8x,,,,,,,,6x,,,,,,,3x/5x,,,,,,,,,1x,,,,,,,,3x,,,,,,,,
{12}6x,5,7,3x,4,2,8x,7,6,2x,3,4,
{1}5bpp2[8:7]/6bqq1[8:7],
{16},,,,,,,,1x/8x,,,2x/7x,,,4x/5x,,
{16}4xw8[8:1]/5x,,,,B4,C1f,B8,,,,,,1x/6x>2[4:1],,,,
{16}2<6[4:1],,,,6,,,,3h[16:3],,,4h[16:3],,,2,,
{8}2-5[8:1],,6,7-3[8:1],,2,1>4[8:1],,
{4}1<6[8:1],1-5[8:1],1,3/7,
{8}4,3,2/4,1,6,7,3/8<4[4:1],,
{4}4>8[4:1],8,4,3x>1[8:1]/7x<5[8:1],
{4}3/7,4x-7[8:1]/8x-3[8:1],4/8,4xh[4:1]/8x-4[8:1],
{8}8b,,2x/6x,2x/6x,,4,5,6,
{8}7<4[8:1]/8,,4,3-8[8:1],,4,5<1[4:1],,
{16}1<5[4:1],,,,4,,,,2xh[16:3],,,1,,,3/8,,
{8}3v8[8:1]/8,,5,7v4[8:1],,1,2h[4:1],,
{16}4-8[8:1],,,,3,,,,4x/7x,,,,6,5,6,5,
{8}6-2[8:1],,4,3-7[8:1],,8,8h[4:1],,
{16}1,2,3,4,8,7,6,5,2,3,4,5,7,6,5,4,
{16}2h[16:3],,,1,,,3/8,,7h[16:3],,,8,,,1/6,,
{16}3x/4x,,,5/6,,,4/7,,1x/2x,,,3/4,,,4/5,,
{4}3x/6x-2[8:1],2/6,1-5[8:1],1/8,
{4}6-1[8:1],4/6,2-6[8:1],2/7,
{4}8-4[8:1],2-5[8:1]/8,2/6-2[8:1],1w5[8:1]/6,
{4}1,3-8[8:1]/7-4[8:1],3/7,1x/5x,
{16}2h[16:3],,,3h[16:3],,,4h[16:3],,,5h[16:3],,,6,,6,,
{16}5/7h[16:3],,,6h[16:3],,,5h[16:3],,,4h[16:3],,,3,,,,
{16}2h[2:3]/8b,,,,,,E2,E3,E4,,,,,,E8,E7,
{16}E6,,,,,,E1,C1,E5,,,,2-6[8:1],,,,
{1}8b,
{48}2x,,,,4x,,,,3x,,,,7x,,,,5x,,,,6x,,,,4x,,,5x,,,4x,,,5x,,,4x,,,5x,,,4x,,,5x,,,
{1}C1f,
{1},
{1}5h[4:7],
{1}4h[4:3],
{16}5,4,5,,3b/6b,,,,1h[16:1]/7h[16:1],,1h[16:1]/7h[16:1],,2h[16:1]/6h[16:1],,2h[16:1]/6h[16:1],,
{8}3h[16:1]/5h[16:1],3h[16:1]/5h[16:1],4h[16:1]/6h[16:1],4h[16:1]/6h[16:1],3h[16:1]/7h[16:1],3h[16:1]/7h[16:1],3h[16:1]/7h[16:1],3h[16:1]/7h[16:1],
{8}4h[16:1]/6h[16:1],4h[16:1]/6h[16:1],3h[16:1]/5h[16:1],3h[16:1]/5h[16:1],2h[16:1]/4h[16:1],2h[16:1]/4h[16:1],3h[16:1]/5h[16:1],3h[16:1]/5h[16:1],
{8}4h[16:1]/6h[16:1],4h[16:1]/6h[16:1],5h[16:1]/7h[16:1],5h[16:1]/7h[16:1],4h[16:1]/6h[16:1],3h[16:1]/5h[16:1],2h[16:1]/4h[16:1],2h[16:1]/4h[16:1],
{8}3h[16:1]/5h[16:1],4h[16:1]/6h[16:1],5h[16:1]/7h[16:1],5h[16:1]/7h[16:1],4h[16:1]/8h[16:1],4h[16:1]/8h[16:1],3h[16:1]/7h[16:1],3h[16:1]/7h[16:1],
{8}2h[16:1]/6h[16:1],2h[16:1]/6h[16:1],3h[16:1]/7h[16:1],3h[16:1]/7h[16:1],2h[16:1]/6h[16:1],1h[16:1]/5h[16:1],2h[16:1]/6h[16:1],3h[16:1]/7h[16:1],
{8}4h[16:1]/8h[16:1],5h[16:1]/7h[16:1],4h[16:1]/6h[16:1],3h[16:1]/5h[16:1],2h[16:1]/6h[16:1],2h[16:1]/6h[16:1],3h[16:1]/5h[16:1],3h[16:1]/5h[16:1],
{8}4h[16:1]/6h[16:1],4h[16:1]/6h[16:1],3h[16:1]/7h[16:1],3h[16:1]/7h[16:1],2h[16:1]/8h[16:1],3h[16:1]/7h[16:1],4h[16:1]/6h[16:1],3h[16:1]/5h[16:1],
{16}2h[16:1]/6h[16:1],,2h[16:1]/6h[16:1],,1h[16:1]/7h[16:1],,1h[16:1]/7h[16:1],,3b/5b,,,2,2h[16:3],,,4,
{16}4h[16:3],,,3,3,5,6,1,2,3,4,5,8,7,6,5,
{16}1,2,3,4,7,6,5,4,2,1,2,1,2,1,2,,
{16}7,8,7,8,7,8,7,,4,5,4,5,4,5,4,,
{16}8,1,8,,2b/7b,,,,1,2,3,4,6,7,8,1,
{16}4,3,2,1,7,6,5,4,2,3,4,5,8,7,6,5,
{48}2x,,,,4x,,,,3x,,,,7x,,,,5x,,,,6x,,,,4,,,5,,,4,,,5,,,4,,,5,,,4,,,5,,,
{16}4,3,2,1,8,7,6,5,8,7,6,5,8,7,6,5,
{48}1,,,2,,,3,,,4,,,1,,,2,,,3,,,4,,,1b,,,,,,,,,,,,8x,,,,4,,,,6,,,,
{12}1x,5,3,7x,5,6,2x,4,3,6x,5,7,
{12}3x,4,2,6x,4,8,1b,1,3,8,8,6,
{12}2,2,4,7,7,5,3,3,1,6,6,8,
{12}2,2,5,7,7,4,C1f,,,,,,
{16},,,,,,,,2,7,2,7,2,7,2,7,
{48}3,,,6,,,3,,,6,,,4-1[8:1],,,5-8[16:1],,,4,,,5,,,4b,,E5,,C1f,,E1,,,,,,,,,,,,,,,,,,
{1},
{6}3x/4x,5x/7x,1xpp4[4:3]/6xpp4[4:3],,,,
{2},C1f/E1/B4/E5/B8,
{1},
{1},
{32},,,,2/7,,,,2/7,,,,,,,,1x-5[8:1]/8x-4[8:1],2x/7x,3x/6x,4x/5x,,,,,1>4[8:1]/8<5[8:1],,,,,,,,
{32}1/8,,,,,,,,2x/7x,,,,,,,,4-8[8:1]/5-1[8:1],,,,,,,,4b/5b,C1f,,,,,,,
{8},3x/4x,2/5,1/6,7/8>3[8:1],,8<5[8:1],,
{4}8,2x-4[8:1]/4x-8[8:1],2/4,5x-8[8:1]/7x-5[8:1],
{8}5/7,,1x-4[8:1]/4x-1[8:1],,1/4,,5x/8x,5x/8x,
{8},4,5,6,7<4[8:1]/8,,4,3-8[8:1],
{8},4,5V71[4:1],,1V75[4:1],,4,,
{16}3xh[16:3],,,4,,,2/5,,2h[8:1]/5h[8:1],,,3h[8:1]/6h[8:1],,,4x/7x,,
{8},6,6-8[8:1],4,6-4[8:1],,2/6,,
{16}1x/6x,,,,2,4,2,4,3h[16:3],,,4h[16:3],,,5-1[8:1],,
{16},,7,,7h[4:1],,,,1,2,3,4,8,7,6,5,
{16}3,2,1,8,5,6,7,8,2h[16:3],,,1,,,3/8,,
{16}7h[16:3],,,8,,,1/6,,2x/5x,,,4/6,,,7/8,,
{16}1x/6x,,,2/4,,,5/7,,4x/8x-4[8:1],,,,1-5[8:1]/8,,,,
{4}1/6-8[8:1],2-6[8:1]/6,1-7[8:1]/2,5-2[8:1],
{4}5/6-1[8:1],1x/6,2-6[8:1],2/5-1[8:1],
{4}4-8[8:1]/5,4/6-1[8:1],2/6,3-8[8:1]/7-4[8:1],
{16}3/7,,,,1b/5b,,,,2h[8:1]/4h[8:1],,,3h[8:1]/5h[8:1],,,4h[8:1]/6h[8:1],,
{16},5h[8:1]/7h[8:1],,,4/8,,,,5h[8:1]/7h[8:1],,,4h[8:1]/6h[8:1],,,3h[8:1]/5h[8:1],,
{16},2h[8:1]/4h[8:1],,,1/5,,,,3h[2:3]/7b,,,,,,B2,B3,
{16}B4,,,,,,B8,B7,B6,,,,,,B1,C1,
{16}B5,,,,4x/6x,,,,2b/8h[2:3],,,,,,E8,E7,
{16}E6,,,,,,E2,E3,E4,,,,,,E1,C1,
{12}E5,,,4x/5x,,,3/6,,,8,2,4,
{12}1,5,3,8,4,6,1,7,3,1,5,7,
{12}8,4,2,1,5,7,C1xh[2:1],,,,,,
{16},,,,,,,,8,1,8,1,8,1,8,1,
{32}7x,6x,5x,4x,3x,2x,1x,8x,7x,6x,5x,4x,3x,2x,1x,8x,7x,6x,5x,4x,3x,2x,1x,8x,C1f/7x,,,,,,,,
{8},7/8,1,2,3-8[8:1],3,7,7,
{16}1,2,3,4,6,7,8,1,5-1[8:1],,5,,7<4[8:1],,7,,
{16}2-6[8:1],,2,,8,,8,,5,4,3,2,7,6,5,4,
{16}1,2,3,4,8,1,2,3,4b,5,6,7,8,,4,5,
{16}6,7,8,,5,6,7,8,5b,4,3,2,1,,5,4,
{16}3,2,1,,4,3,2,1,7h[16:3],,,5,5h[16:3],,,4,
{16}4h[16:3],,,2,2h[16:3],,,,8,1,8,1,7,2,7,2,
{16}6,3,6,3,5,4,5,4,6-8[8:1],,6,,2,,3,,
{8}1-5[8:1],1,4,3,6-4[8:1],6,2-8[8:1],2,
{8}6-2[8:1],6,2,3,4-8[8:1],4,7,6,
{8}1-3[8:1],1,4,5,6-1[8:1],6,3<6[8:1],3,
{16}8-4[8:1],,8,,1b,,,,2h[8:1],,4,3h[8:1],,5,4h[8:1],,
{16}6,5,,7,8,,1/6,,7h[8:1],,5,6h[8:1],,4,5h[8:1],,
{16}3,4,,1,8,,2/7,,4,5,4,5,4,5,4,5,
{32}4,3,2,1,8,7,6,5,4,3,2,1,8,7,6,5,4x/8xh[8:15],,,,,,,,,,,,,,,,
{2},1h[8:7],
{16},,,,,,,,1-5[8:1]/8-4[8:1],,,,1b/8b,C1f,,,
{1},
{1},
{8},,,,,1/8,1/8,2/7,
{24}2/7,,,3-7[8:1]/6-2[8:1],,,4/5,,,3b/6b,B3/B6,C1f,B2/B7,,,,,,,,,,,,
{1},
{1},
{1},
E
