&title=Love's Theme of BADASS ~バッド・アス 愛のテーマ~
&wholebpm=202
&artist=Hommarju
&des=Jack
&shortid=11429
&genre=ゲームバラエティ
&cabinet=DX
&version=maimai DX UNiVERSE PLUS
&chartconverter=Neskol
&lv_2=6
&des_2=
&lv_3=8
&des_3=
&lv_4=13
&des_4=はっぴー
&lv_5=14
&des_5=Jack
&des_6=
&inote_2=
(202){1},
{16},,,,,,,,,,,,,C1hf[16:9],,,
{1},
{1},
{1}1h[1:1],
{1},
{2}1,1,
{1}1,
{1}8h[1:1],
{1},
{2}8,8,
{1}8,
{1}1h[1:1]/8h[1:1],
{1},
{2}1/8,1/8,
{1}1/8,
{1}2h[1:1]/7h[1:1],
{1},
{2}2/7,2/7,
{1}2/7,
{4}3,3,3,,
{2}4,4,
{4}5,5,5,,
{1}4/5,
{4}6,6,6,,
{2}7,7,
{4}8,8,8,,
{1}1/8,
{4}2,2,2,,
{1}1/2,
{4}7,7,7,,
{1}7/8,
{4}1,1,1,,
{2}1/8,1/8,
{4}8,8,8,,
{1}2x/7x,
{1}1-4[4:3],
{1},
{2}5,5,
{1}5,
{1}6-1[4:3],
{1},
{2}2,2,
{1}1/2,
{1}3-7[4:3],
{1},
{2}8,8,
{1}7/8,
{1}6-2[4:3],
{1},
{2}1,1,
{1}1b/8b,
{1}B1/B8,
{1}B2/B7,
{1}B3/B6,
{1}C1f,
{1}B7/B8,
{1}B5/B6,
{1}B3/B4,
{1}B1/B2,
{4}8,8,8,,
{4}7,7,7,,
{4}6,6,6,,
{1}4x/5x,
{4}3,3,3,,
{4}2,2,2,,
{4}1,1,1,,
{1}2/8,
{1}1h[1:1]/8h[1:1],
{1},
{4}1b,1,1,1,
{4}2,2,2,,
{4}3,3,3,3,
{4}4,4,4/5,,
{4}6,6,6,6,
{4}7,7,7/8,,
{4}1,1,1,1,
{4}8,8,1/8,,
{4}7,7,6,6,
{4}5,5,4/5,,
{4}3,3,2,2,
{4}1,1,1/8,,
{1}1-4[4:3]/8-5[4:3],
{1},
{4}6,6,7,7,
{4}1/8,1/8,1/8,,
{4}2,2,3,3,
{4}4/5,4/5,4/5,,
{4}6,6,5/6,,
{4}3,3,3/4,,
{4}2,2,1/2,,
{4}7,7,7/8,,
{4}1,1,8,8,
{1}1x/8x,
{1}7h[2:1],
{4}6,6,5/6,,
{1}4h[2:1],
{4}3,3,3/4,,
{1}2h[2:1],
{4}1,1,1,,
{1}8h[2:1],
{2}1x/7x,1x/7x,
{4}2,2,2,,
{2}3/4,3/4,
{4}5,5,5,,
{2}6/7,6/7,
{4}8,8,8,,
{4}1,1,1,,
{4}1/8,1/8,2/7,2/7,
{4}3/6,3/6,4/5,4/5,
{1}3b/6b,
{1},
{1},
{1},
E
&inote_3=
(202){1},
{4},,,C1f/B3/B6,
{1},
{1},
{1}2bV41[1:1]/7bV58[1:1],
{1},
{2}8,8,
{2}7,6,
{1}2bV41[1:1]/7bV58[1:1],
{1},
{2}1,1,
{2}2,3/5,
{2}6h[2:1],5,
{2}3h[2:1],4,
{2}6h[2:1],5,
{2}3h[4:1]/4h[4:1],3/4,
{4}2b,1,8,7,
{4}6,5,4,3,
{8}5,5,5,,4,4,4,,
{8}3/5,3/5,3/5,,2b/6b,,,,
{4}7,7,8,8,
{4}1,1,2/8,,
{4}3,3,4,4,
{4}5,5,4/6,,
{4}6,6,5,5,
{4}4,4,3/5,,
{4}3,3,4,4,
{4}5,4/5,3/6,,
{4}7,7,8,8,
{4}7/8,7/8,1/6,,
{4}2,2,1,1,
{4}1/2,1/2,3/8,,
{4}3,3,4,4,
{4}3/4,3/4,2/5,,
{4}6,6,5,5,
{4}4/5,4/5,3/6,,
{1}6b-1[2:1],
{4}2,2,1/2,,
{1}3b-8[2:1],
{4}7,7,7/8,,
{1}6b-1[2:1],
{4}2,2,1/2,,
{4}7,7,8,8,
{4}1,1,2/8,,
{1}7b-4[2:1],
{4}3,3,3/4,,
{1}2b-5[2:1],
{4}6,6,5/6,,
{1}7b-4[2:1],
{4}3,3,3/4,,
{4}6,6,5,5,
{4}4b/5b,3b/6b,2b/7b,,
{2}B7/B8,B1/B2,
{2}B3/B4,B5/B6,
{4}E7,B7,B8,,
{4}E3,B3,C1f,,
{2}B5/B6,B7/B8,
{2}B1/B2,B3/B4,
{4}E7,B6,B5,,
{4}E3,B2,B1,,
{2}7xh[4:1]/8xh[4:1],7b/8b,
{2}1h[4:1]/2h[4:1],1b/2b,
{2}7h[4:1]/8h[4:1],1h[4:1]/2h[4:1],
{4}8b,8b,1b/7b,,
{2}5h[4:1]/6h[4:1],5b/6b,
{2}3h[4:1]/4h[4:1],3b/4b,
{2}5h[4:1]/6h[4:1],3h[4:1]/4h[4:1],
{4}5,4/5,3/6,,
{1}4-1[2:1]/5-8[2:1],
{1},
{4}7b,7,7/8,7/8,
{4}6,6,5/6,5/6,
{4}3b,3,3/4,3/4,
{4}2,2,1/2,1/2,
{4}8,8,7,7,
{4}6,5,4,3,
{4}2b,2,1/2,1/2,
{4}3,3,3/4,3/4,
{4}6b,6,5/6,5/6,
{4}7,7,7/8,7/8,
{4}1,1,2,2,
{4}3,4,5,6,
{4}7b,7/8,7,7/8,
{4}6,5/6,6,5/6,
{4}3b,3/4,3,3/4,
{4}2,1/2,2,1/2,
{4}8,7,6,5,
{4}4,3,2,1,
{4}7b,7/8,7,7/8,
{4}6,5/6,6,5/6,
{4}3b,3/4,3,3/4,
{4}2,1/2,2,1/2,
{4}8,7,6,5,
{8}4/5,4/5,4/5,,3/6,3/6,3/6,,
{4}2b,2,1/2,,
{4}7,7,7/8,,
{4}2,2,1,1,
{4}8,8,1/7,,
{4}6,6,5/6,,
{4}3,3,3/4,,
{4}6,6,5,5,
{4}4,4,3/5,,
{4}2,2,1/2,,
{4}7,7,7/8,,
{4}2,2,1,1,
{4}8,8,1/7,,
{4}6,6,5/6,,
{4}3,3,3/4,,
{4}6,5,4,3,
{8}4/5,4/5,4/5,,3/6,3/6,3/6,,
{1}B1/C1f/B8,
{1},
{1},
{1},
E
&inote_4=
(202){1},
{16},,,,,,,,,,,,,C1f,,C1f,
{16},C1f,,C1f,,C1f,,C1f,,C1f,,,,,,,
{1},
{1}5h[1:3]/8h[1:7],
{1},
{1},
{2},5,
{4}4x,4,4,4,
{4}5,5,5,5,
{4}4,4,3,3,
{4}2,2,1,1,
{4}1xh[1:3]/5,5,5,5,
{4}4,4,4,4,
{4}5,5,5,5,
{4}6,6,7,7,
{4}4/8h[2:1],4,3,2,
{4}1h[2:1]/5,5,6,7,
{4}4/8h[2:1],4,3,2/7,
{16}1,8,1,8,1,8,1,8,1,,,,2b/7b,,,,
{4}5x/6,2/4x,1/7x,6x/7,
{4}1x/3,5x/8,3/6x,1x/2,
{4}3/4x,5x/6,7/8x,3/4x,
{4}5x/7,2x/8,2/3x,6/8x,
{4}1/5x,3/4x,5x/6,7/8x,
{4}1x/2,3/4x,5x/6,2/4x,
{4}1/7x,6x/7,1x/4,5x/6,
{4}3/7x,1x/2,3/5x,4x/6,
{4}7x/8,1x/3,5x/7,2x/8,
{4}2/3x,6/8x,1/5x,3/4x,
{4}5x/6,7/8x,1x/2,3/4x,
{4}5x/6,2/4x,1/7x,6x/7,
{4}1x/3,5x/8,3/6x,1x/2,
{4}3/4x,5x/6,7/8x,4-1[4:1]/5-8[4:1],
{8},,,,3x/6x,3x/6x,3x/6x,3x/6x,
{8},C1hf[2:1],,,,B3/B4/E4/B5/E5/B6/E6,,,
{8}1x/8x,1x/8x,,2b/7b,,8,8,,
{4}3h[2:1],4,6h[2:1],5,
{8}3,,2b/5b,2b/5b,,7,7,,
{4}3h[2:1],1,6h[2:1],8,
{8}5,,4b/7b,4b/7b,,2,2,,
{4}8h[2:1],6,1h[4:1],3,
{2}2-6[8:1]/4-8[8:1],5-1[8:1]/7-3[8:1],
{2}2-6[8:1]/4-8[8:1],5-1[8:1]/7-3[8:1],
{8}2x/4x,2x/4x,1x/5x,1x/5x,,6,6,,
{4}4/8h[2:1],6,5h[2:1],6,
{8}7,,4b/8b,4b/8b,,6,6,,
{4}1h[2:1],3,4h[2:1],3,
{8}2,,1b/5b,1b/5b,,6,6h[4:1],,
{4}8h[4:1],1h[4:1],3h[4:1],6,
{8},1x/8x,1x/8x,1x/8x,2x/7x,2x/7x,2x/7x,2x/7x,
{4}C1f/B3/B6,B1/C1f/B8,C1f/B2/B4/B5/B7,,
{4}1/8,3-8[8:1]/4-7[8:1],,,
{4}1/8,3-8[8:1]/4-7[8:1],,,
{4}1/8,5-2[8:1]/6-1[8:1],,,
{4}1/8,3/6,C1f/B4/B5,,
{4}1/8,3-8[8:1]/6-1[8:1],,,
{4}1/8,3-8[8:1]/6-1[8:1],,,
{4}7/8,5/6,1/2,3/4,
{4}4/5,3-8[8:1]/6-1[8:1],,,
{4}3/5,1v4[8:1]/7v4[8:1],,,
{4}4/5,1s5[4:1]/8,,,
{4}4/5,1v4[8:1]/8-5[8:1],,,
{4}1b/8b,4b/5b,2b/7b,,
{4}1/8,5-1[8:1]/6-8[8:1],,,
{4}1/8,3-1[8:1]/4-8[8:1],,,
{4}1/8,4/6,1/8,3/5,
{8}1/8,,2b/7b,2b/7b,,,,,
{1}3h[2:3]/6h[2:3],
{4},,,3b/6b,
{4}2b/4x-7[8:1],5x-2[8:1],3x-8[8:1],6x-1[8:1],
{4}4x-7[8:1],5x-2[8:1],3x-8[8:1],6x-1[8:1],
{4}4x-7[8:1],5x-2[8:1],3x-8[8:1],6x-1[8:1],
{4}4x-7[8:1],5x-2[8:1],3x-8[8:1],6x-1[8:1],
{4}4x-7[8:1],5x-2[8:1],3x-8[8:1],6x-1[8:1],
{4}4x-7[8:1],5x-2[8:1],3x-8[8:1],6x-1[8:1],
{4}4x-7[8:1],5x-2[8:1],3x-8[8:1],6x-1[8:1],
{4}4x-7[8:1],5x-2[8:1],3x,4x,
{4}5x-2[8:1]/7b,4x-7[8:1],6x-1[8:1],3x-8[8:1],
{4}5x-2[8:1],4x-7[8:1],6x-1[8:1],3x-8[8:1],
{4}5x-2[8:1],4x-7[8:1],6x-1[8:1],3x-8[8:1],
{4}5x-2[8:1],4x-7[8:1],6x-1[8:1],3x-8[8:1],
{4}5x-2[8:1],4x-7[8:1],6x-1[8:1],3x-8[8:1],
{4}5x-2[8:1],4x-7[8:1],6x,3xh[4:1]/5x,
{4}1x-6[8:1],5x-2[8:1],4x-7[8:1],8x-3[8:1],
{4}1x-6[8:1],5x-2[8:1],4x-7[8:1],8x-3[8:1],
{4}1x-6[8:1],5x-2[8:1],4x-7[8:1],8x-3[8:1],
{4}1x-6[8:1],5x-2[8:1],4x-7[8:1],8x-3[8:1],
{4}1x-6[8:1],5x-2[8:1],4x-7[8:1],8x-3[8:1],
{4}1x-6[8:1],5x-2[8:1],4x,5x/6h[4:1],
{4}8x-3[8:1],4x-7[8:1],5x-2[8:1],1x-6[8:1],
{4}8x-3[8:1],4x-7[8:1],5x-2[8:1],1x-6[8:1],
{4}8x-3[8:1],4x-7[8:1],5x-2[8:1],1x-6[8:1],
{2}8xh[4:3],1xh[4:1],
{1}C1f/B3/B4/B5/B6,
{4}1/8x,4x/6,2/3x,5/7x,
{4}1/8x,2x/4,5/6x,1x/7,
{4}3/4x,6x/7,2/4x,6x/8,
{4}4/5,3/6,2/7,1/8,
{8}1b/7b,1b/7b,1b/7b,1b/7b,1b/7b,1b/7b,1b/7b,,
{8}2x/8x,2x/8x,2x/8x,2x/8x,2x/8x,2x/8x,2x/8x,,
{8}7,7,4,4,5,5,2,2,
{8}6b,6b,3b,3b,5b,5b,4b,,
{2}1-4[8:1]/8-5[8:1],1-4[8:1]/8-5[8:1],
{2}1-3[8:1]/8-4[8:1],1-5[8:1]/8-6[8:1],
{8}3,3,3,3,3/4,3/4,3/4,,
{8}6,6,6,6,5/6,5/6,5/6,,
{8}7,7,5,5,8,8,4,4,
{8}5,5,2,2,4,4,1,1,
{8}6,6,2,2,8,8,1,,
{1}C1f/B2/B3/B6/B7,
{1},
{1},
{1},
E
&inote_5=
(202){1},
{32},,,,,,,,,,,,,,,,,,,,,,,,,2b,C1f,,,7b,C1f,,
{64},,1b,,C1f,,,,,,8b,,C1f,,,,,,2b,,C1f,,,,,,7b,,C1f,,,,,,1b,B1,C1f,B5,,,,,,,,,,,,,,,,,,,,,,,,,,,
{1},
{4}C1hf[8:13]/8b,8,8,8,
{4}8,8,8,8,
{4}8,8,8,8,
{4}8,8,3/8<5[8:1],2/8,
{4}C1hf[8:13]/1b,1,1,1,
{4}1,1,1,1,
{4}1,1,1,1,
{4}1,1,1>4[8:1]/5,1/6,
{8}C1hf[8:13]/7b,7x,7x,7x,7x,7x,7x,7x,
{8}7x,7x,7x,7x,7x,7x,7x,7x,
{8}7x,7x,7x,7x,7x,7x,7x,7x,
{8}7x,7x,7x,7x,5/7x,7x,4/7x,7x,
{8}C1hf[8:13]/2b,2x,2x,2x,2x,2x,2x,2x,
{8}2x,2x,2x,2x,2x,2x,2x,2x,
{8}1x,1x,1x,1x,8x,8x,8x,8x,
{16}2x,3x,4x,5x,8x,7x,6x,5x,1x,2x,3x,4x,7x,6x,5x,4x,
{8}1b,,3h[4:1]/7,,4,2/5-7[8:1],,1-5[8:1],
{8},8h[4:1],,1,8-4[8:1],8,C1f,,
{8}2/6h[4:1],,5h[4:1],,6,4-2[8:1]/7,,8-4[8:1],
{8},1h[4:1],,8,1,1,2/8,2/8,
{8}3/7h[4:1],,6h[4:1],,5,4/6-4[8:1],,2-6[8:1],
{8},8h[4:1],,1,8,8,1/7,1/7,
{8}2h[4:1]/6,,3h[4:1],,4,3-5[8:1]/5,,7-3[8:1],
{8},1h[4:1],,8,2/7,3/6,4x/5x,,
{8}1>4[8:1]/8<5[8:1],,1b/8b,,2/7,2-7[8:1]/7,,6-3[8:1],
{8},1h[4:1],,8,1/7,2,3/5,6,
{8}5/7h[4:1],,3V52[4:1],,5,7-3[8:1],,1-5[8:1],
{8},8h[4:1],,1,2/8,7,4/6,3,
{8}2h[4:1]/4,,6V47[4:1],,4b,2-6[8:1],,8-4[8:1],
{8},1h[4:1],,8,2/7,2/7,3/6,3/6,
{8}4>1[8:1]/5<8[8:1],,4/5,,2/7,2/7,,4/5,
{24}1x,2x,3x,4x,5x,6x,7x,8x,1x,2x,3x,4x,5x,6x,7x,8x,1x,2x,3x,4x,5x,6x,7x,8x,
{8}1x/5x,1s5[16:3]/5x,,1b/8b,,,C1f/B3/E3/B7/E7,,
{4}1h[8:1]/2h[8:1],7h[8:1]/8h[8:1],2h[8:1]/3h[8:1],7h[8:1]/8h[8:1],
{8}3/4<7[8:1],,1,1b-5[8:1],,8,8,8,
{4}5h[8:1]/7h[8:1],3h[8:1]/4h[8:1],5h[8:1]/7h[8:1],1h[8:1]/2h[8:1],
{8}5/7,8,1,2bq7[4:1]/4,,8,8,8,
{8}1h[4:1],,8,1,2/7,3>1[8:1]/6<8[8:1],4/5,3b/6b,
{8},B1/C1f/E1/B8,,3/6,3/6,,1-5[8:1]/8-6[8:1],,
{4}1-3[8:1]/8-4[8:1],1-5[8:1]/8-6[8:1],1-3[8:1]/8-4[8:1],1b/8b,
{8}5x/6x,5x/6x,5x/6x,4b/8b,,2/6,3,4,
{4}5h[8:1]/6h[8:1],3h[8:1]/4h[8:1],6h[8:1]/7h[8:1],3h[8:1]/4h[8:1],
{8}7/8>3[8:1],,5,5b-1[8:1],,3,3,3,
{4}2h[8:1]/4h[8:1],7h[8:1]/8h[8:1],2h[8:1]/4h[8:1],5h[8:1]/6h[8:1],
{8}2/4,1,8,5/7-3[8:1],,1,1,1,
{8}2-4[8:1],7-5[8:1],2,7,1-5[8:1],8-4[8:1],1,8,
{8},3b,2b,1b,8b,7b,6b,5b,
{32}C1f/4b-8[8:1],,,,,,,,C1f/4bw8[8:1],,,,,,,,B4,C1f,B8,,,,,,,,,,,,,,
{4}1x/7x<3[4:1],3x>7[4:1],C1f,,
{4}2x>6[4:1]/8x,6x<2[4:1],C1f,,
{8}3x/4x,2x/5x,,5x/6x,4x/7x,,1x-5[8:1]/8x,,
{32}1b/7-3[8:1],,,,,,,,1w5[8:1]/7b,,,,,,,,B1,C1f,B5,,,,,,,,,,,,,,
{4}B4/E4/B5/E6,C1hf[4:1],B1/E1/B2/E3/B7/E7/B8,,
{4}B4/E4/B5/E6,C1hf[4:1],B1/E1/B2/E3/B7/E7/B8,,
{2}3x-1[8:1]/4x-8[8:1],5x-1[8:1]/6x-8[8:1],
{4}B4/E4/B5/E6,C1hf[4:1],B1/E1/B2/E3/B7/E7/B8,,
{4}2x/6x,1v4[8:1]/7v4[8:1],1x/7x,3/5,
{4}2x/6x,1v4[8:1]/7v4[8:1],1x/7x,3/5,
{2}8-5[8:1]*q5[8:1],1-4[8:1]*>4[8:1],
{4}6b/7b,2b/3b,1b/8b-5[8:1]*z4[8:1],,
{4}2x-4[8:1]*-8[8:1],2x-6[8:1],C1f,,
{4}7x-1[8:1]*-5[8:1],7x-3[8:1],C1f,,
{2}4-2[8:1]/5-1[8:1],4-8[8:1]/5-7[8:1],
{8}4qq1[16:9]/5pp8[16:9],,,C1f,,,,,
{1}1xh[4:7]/8xh[4:7],
{1},
{4}1b-5[8:1]/8xh[8:1],1b-3[8:1]/8xh[8:1],1b-5[8:1]/8xh[8:1],1b-3[8:1]/8xh[8:1],
{4}1b-5[8:1]/8xh[8:1],1b-3[8:1]/8xh[8:1],1b-5[8:1]/6xh[8:1],1b-3[8:1]/6xh[8:1],
{4}1b-5[8:1]/8xh[8:1],1b-3[8:1]/8xh[8:1],1b-5[8:1]/8xh[8:1],1b-3[8:1]/8xh[8:1],
{4}1b-5[8:1]/8xh[8:1],1b-3[8:1]/8xh[8:1],1b-5[8:1]/8xh[8:1],1b-7[8:1]/8xh[8:1],
{4}1b-5[8:1]/6xh[8:1],1b-7[8:1]/6xh[8:1],1b-5[8:1]/6xh[8:1],1b-7[8:1]/6xh[8:1],
{4}1b-5[8:1]/6xh[8:1],1b<7[8:1]/6xh[8:1],1b>3[8:1]/6xh[8:1],1b-7[8:1]/6xh[8:1],
{4}1b-3[8:1]/5xh[8:1],1b-7[8:1]/5xh[8:1],1b-3[8:1]/5xh[8:1],1b-7[8:1]/5xh[8:1],
{4}1b-3[8:1]/5xh[8:1],1b-7[8:1]/5xh[8:1],1b-5[8:1]/6xh[8:1],1b-3[8:1]/6xh[8:1],
{4}1b-5[8:1]/8xh[8:1],1b-3[8:1]/8xh[8:1],1b-5[8:1]/8xh[8:1],1b-3[8:1]/8xh[8:1],
{4}1b-5[8:1]/8xh[8:1],1b-3[8:1]/8xh[8:1],1b-5[8:1]/8xh[8:1],1b-7[8:1]/8xh[8:1],
{4}1b-5[8:1]/6xh[8:1],1b-7[8:1]/6xh[8:1],1b-5[8:1]/6xh[8:1],1b-7[8:1]/6xh[8:1],
{4}1b-5[8:1]/6xh[8:1],1b<7[8:1]/6xh[8:1],1b>3[8:1]/6xh[8:1],1b-7[8:1]/6xh[8:1],
{4}1b-3[8:1]/5xh[8:1],1b-7[8:1]/5xh[8:1],1b-3[8:1]/5xh[8:1],1b-7[8:1]/5xh[8:1],
{4}1b-3[8:1]/5xh[8:1],1b-7[8:1]/5xh[8:1],1b-5[8:1]/6xh[8:1],1b-3[8:1]/6xh[8:1],
{4}1b-5[8:1]/8xh[8:1],1b-3[8:1]/8xh[8:1],1b-5[8:1]/8xh[8:1],1b-3[8:1]/8xh[8:1],
{4}1b-5[8:1]/8xh[8:1],1b-3[8:1]/8xh[8:1],1b-5[8:1]/8xh[8:1],1b-7[8:1]/8xh[8:1],
{4}1b-5[8:1]/6xh[8:1],1b-7[8:1]/6xh[8:1],1b-5[8:1]/6xh[8:1],1b-7[8:1]/6xh[8:1],
{4}1b-5[8:1]/6xh[8:1],1b<7[8:1]/6xh[8:1],1b>3[8:1]/6xh[8:1],1b-7[8:1]/6xh[8:1],
{4}1b-3[8:1]/5xh[8:1],1b-7[8:1]/5xh[8:1],1b-3[8:1]/5xh[8:1],1b-7[8:1]/5xh[8:1],
{4}1b-3[8:1]/5xh[8:1],1b-7[8:1]/5xh[8:1],1b-5[8:1]/6xh[8:1],1b-3[8:1]/6xh[8:1],
{4}1b-5[8:1]/8xh[8:1],1b-3[8:1]/8xh[8:1],1b-5[8:1]/8xh[8:1],1b-3[8:1]/8xh[8:1],
{4}1b-5[8:1]/8xh[8:1],1b-3[8:1]/8xh[8:1],1b-5[8:1]/8xh[8:1],1b-7[8:1]/8xh[8:1],
{4}1b-5[8:1]/6xh[8:1],1b-7[8:1]/6xh[8:1],1b-5[8:1]/6xh[8:1],1b/6xh[8:1],
{4}7b-3[8:1]/8b-4[8:1],C1f,1b-5[8:1]/2b-6[8:1],C1f,
{1}B1/C1f/B2/B3/B4/B5/B6/B7/B8,
{4},,,1b,
{12},,1,8,2,7,3,6,,4xh[6:1]/5xh[6:1],,,
{12}6,5,4,3,,,5,4,6,3,7,2,
{12}8,1xh[6:1]/8h[6:1],,,1/8,,2,3,4,7,6,5,
{12},,3,4,3,4,2,1b/2b,,,,7/8,
{12}7/8,,,6x,5x,6x,5x,7x,,3,4,2<6[3:2]*v4[3:2],
{1},
{96},,,,,,3b,,,,,,,,,,,2b,,,,,,,,,,,1b,,,,,,,,,,,8b,,,,,,,,,,,7b,,,,,,,,,,,6b,,,,,,,,,,,,,,,,,,,,,,,,,,,4,,,,,,,,
{12}5,4,5,4,,3/6,,2/7,,1,8,1,
{48}8,,,,1,,,,,2/7,,,,,,,3,,,,5,,,,,,,,5,,,,4,,,,6,,,,2,,,,5,,,,
{12}2,5,4,7,4,7,1/8,,,,4/5,4/5,
{12},2,1,2,7h[6:1],,8,7,,,3/6,,
{48}2/4,,,,,,,,5/7,,,,,,,,1/8,,,,1/8,,,,,,,,,,,,,,,,2-6[12:1],,,,,2,,,,,7-3[12:1],,
{48},,,7,,,,,1-5[12:1],,,,,1,,,,,8,,,,,8b,,,,,,,,,,,,,,,,,,,3b/6b,,2x,,1x,,
{24}8x,7x,6x,5x,4x,3x,2b,1x,8x,7b,6x,5x,4x,3x,2x,1x,8x,7x,6xw2[8:1],5x,4x,3x,2x,1x,
{48}B6,C1f,B2,,,,,,,,,,,,,,,,,,,,,,,,,,,,,,,,,,,,,,,,,,,,,,
{1},
{1},
{1},
E
