&title=Irresistible
&wholebpm=157
&artist=MK
&des=Jack
&shortid=11383
&genre=maimai
&cabinet=DX
&version=maimai DX UNiVERSE PLUS
&chartconverter=Neskol
&lv_2=3
&des_2=
&lv_3=7
&des_3=
&lv_4=11
&des_4=翠楼屋
&lv_5=13+
&des_5=Jack
&des_6=
&inote_2=
(157){1},
{1},
{1}1,
{1}1,
{1}1h[1:1],
{1},
{1}8,
{1}8,
{1}8h[1:1],
{1},
{1}8x-5[4:3],
{1},
{1}1-4[4:3],
{1},
{1}8-4[4:3],
{1},
{1}1-5[4:3],
{1},
{1}8x,
{1}7,
{1}6,
{1}5,
{1}4,
{1}3,
{1}2,
{1}1h[1:1]/8h[1:1],
{1},
{1}1x/8x,
{2}1b,1,
{1}1,
{2}2,2,
{1}2,
{2}3,3,
{1}3,
{2}4,4,
{1}4x/5x,
{2}5,5,
{2}5,5,
{2}6,6,
{1}6,
{2}7,7,
{2}7,7,
{2}8,8,
{1}1x/8x,
{1}B8,
{1}B1,
{1}B7,
{1}B2,
{1}B6,
{1}B3,
{1}B5,
{1}C1,
{2}8x,8,
{4}7,7,7,,
{2}6,6,
{2}4/5,4/5,
{2}4,4,
{4}3,3,3,,
{2}2,2,
{1}1x/8x,
{1}2h[2:1],
{4}3,3,3,,
{1}4h[2:1],
{4}5,5,5,,
{1}6h[2:1],
{4}7,7,7,,
{1}8h[2:1],
{2}8,8,
{1}8-3[4:3],
{1},
{1}2-5[4:3],
{1},
{1}6-1[4:3],
{1},
{2}8,8,
{1}1h[2:1]/8h[2:1],
{4}7b,7,7,,
{4}6,6,5/6,,
{4}4,4,4,,
{4}3,3,3/4,,
{4}2,2,2,,
{4}1/8,1/8,1/8,,
{4}7,7,8,8,
{4}1,1,1x/8x,1x/8x,
{1},
{1},
{1},
E
&inote_3=
(157){1},
{1},
{1}3h[1:1],
{1}4h[1:1],
{1}5h[1:1],
{1}6,
{1}7h[1:1],
{1}8h[1:1],
{1}1h[1:1],
{1}2,
{1}1pp4[4:5]/8qq5[4:5],
{1},
{8}4x/5x,,,,5x/6x,,,5xh[8:5]/6xh[8:5],
{1},
{8}4x/5x,,,,3x/4x,,,3xh[8:5]/4xh[8:5],
{1},
{8}4x/5x,,,,5x/6x,,,5xh[8:5]/6xh[8:5],
{1},
{2}E5,E6,
{2}E7,E8,
{2}E1,E2,
{2}E3,E4,
{2}6xh[2:1],5h[2:1],
{2}4h[2:1],3,
{4}2,1,8,7<2[4:3],
{1},
{1}C1xh[1:1],
{1},
{4}8,8,7/8,,
{4}2,2,1/2,,
{4}7,7,7/8,,
{4}1,1,2/8,,
{4}3,3,3/4,,
{4}6,6,5/6,,
{4}3,3,4,4-1[8:3]/5-8[8:3],
{1},
{4}7,7x,8,8,
{4}1,1,2/8,,
{4}3,3,4,4,
{4}5,5,4/6,,
{4}6,6,5,5,
{4}4,4,3/5,,
{2}1x/2x,7x/8x,
{4}1/8,1/8,2/7,,
{4}E7,B6,B5,,
{4}E3,B3,B4,,
{4}E7,B6,B5,,
{4}E3,B3,B4,,
{1}6x-1[8:3],
{1}2-6[8:3],
{1}7-4[8:3],
{4}3,3,4/5,,
{4}6b,6,5/6,5/6,
{4}7,8,1,2,
{4}3,3,3/4,3/4,
{4}2,1,2/8,,
{4}7,7,7/8,7/8,
{4}6,5,4,3,
{8}2,2,2,,1,1,1V35[2:1],,
{4},,,4x/6x,
{8}3,,2/4,,3,3,3,,
{8}4,,4/5,,6,6,6,,
{8}5,,4/6,,3,3,3,,
{4}2x,1x/2x,7x/8x,5x/6x,
{8}4,,3/5,,2,2,2,,
{2}1h[4:1]/2h[4:1],7h[4:1]/8h[4:1],
{8}1/8,1/8,1/8,,2/7,2/7,2/7,2b-5[8:3]/7b-4[8:3],
{1},
{2}6h[2:1],5h[2:1],
{2}4h[2:1],3,
{2}2h[2:1],1h[2:1],
{2}8h[2:1],7,
{4}6,5,4,3,
{4}2,1,8,7,
{8}1,1,1,,8,8,8,,
{1}1-4[8:3]/8-5[8:3],
{8}6,6,6,,5/7,,4/6,,
{8}3,3,3,,2/4,,3/5,,
{8}6,6,6,,5/7,,4/6,,
{8}3,3,3,,4/5,,3/6,,
{8}7,7,7,,7/8,,1/6,,
{8}2,2,2,,1/2,,3/8,,
{8}7,7,7,,1/8,1/8,1/8,1/8,
{8},2/7,,3h[8:3]/6h[8:3],,,,,
{1},
{1},
{1},
E
&inote_4=
(157){1},
{1},
{4}3b/5h[4:3],,,4qq5[4:3],
{1},
{4}6h[4:3],,,5,
{4}5,5/7p4[8:5],,,
{4},,3,3,
{1}3/4q6[2:1],
{4},5/6,4/5,3-7[2:1]/4-8[2:1],
{4},,,7x/8x,
{1}1xh[8:11]/6xh[8:11],
{4},,,5x/6x,
{8}4b/7b,,,,2x/5x,,,1xh[8:7]/4xh[8:7],
{1},
{8}1b/4b,,,,2x/5x,,,4xh[8:7]/7xh[8:7],
{1},
{8}4b/7b,,,,2x/5x,,,1h[2:1]/4h[2:1],
{8},,,,,1,1,,
{4}3x/7h[4:7],,4,4,
{4}5,5,6,8,
{4}2h[2:3]/6,,4,4,
{4}3,3,1,1/2,
{2}3h[4:1]/4h[4:1],5h[4:1]/6h[4:1],
{2}7h[4:1]/8h[4:1],1h[4:1]/2h[4:1],
{4}1/2,7/8,1V38[4:3]/6V47[4:3],,
{4},,,1x/6x,
{2}2h[4:1]/5h[4:1],3h[4:1]/4h[4:1],
{4}5h[4:1]/6h[4:1],,5/6,4x/7x,
{8}2,2,4,,3/4,,5/6,,
{4}7/8,1/2,3/8,3/8,
{8}7,7,5,,5/6,,3/4,,
{4}1/2,7/8,1/6,1/6,
{8}8,8,2,,3/4,,5/6,,
{4}7/8,1/6,1/2,3/8,
{8}6,6,5,,4V26[4:3]/7V15[4:3],,,,
{4},,,4x/7x,
{8}1,,2,2,4,4,3,,
{8}4/6,,1/8,,3/5,,2,2,
{8}7,7,5,5,6,,3/8,,
{8}1x/7x,1x/7x,1x-5[8:1]/7x,,,,4x/6x,,
{8}7,7,5,5,6,,1/7,,
{4}3/4,2/8,5/6,3/4,
{8}1/2,1/2,1/2,,1pp4[4:3]/8qq5[4:3],,,,
{4},,,2b/7b,
{1}3h[1:2]/6,
{2}B4,B2,
{2}8h[1:2],B5,
{2}B7,C1,
{4}2,2,3,3/4,
{4}6,5/6,3,2/4,
{8}1,1,8,8,1>8[4:3],,,,
{4},,,3x/6x,
{4}4/5,7/8,4/6,1/2,
{8}6/7,,3/4,,1/2,3/8,4/7,,
{4}4/7,1/2,3/4,7/8,
{8}4/6,,2/3,,7/8,1/6,2/5,,
{4}4/7,5/6,1/2,3/4,
{8}6/7,,1/2,,3/4,2/5,1/6,,
{8}7,7,8,,1/6,,3/4,3/4,
{8},4/5,,5/6,,3/7,3b/7b,,
{4}5<8[8:1],3,4x/8x,3/7,
{4}1/2h[2:1],3,1,3/5,
{4}4>1[8:1],6,1x/5x,4x/7x,
{4}7h[8:1]/8h[8:1],1h[8:1]/8h[8:1],1h[8:1]/2h[8:1],3b/8b,
{4}6<1[8:1],5,4x/8x,2x/6x,
{4}3/4,1/2,6/7,3/4,
{4}4/6,2/8,3xqq8[4:3]/7xqq4[4:3],,
{4},,,1x/5x,
{4}3b/7xh[2:3],,5,5,
{4}6,6,8,8,
{4}1xh[2:3]/6b,,4,4,
{4}3,3,4-8[8:1],,
{4}2xh[4:1],1,7h[4:1],6,
{4}3h[4:1],4,6h[4:1],5,
{16}7,,7,,2,,2,,8,1,8,1,8,1,8,1,
{4}8w4[4:1],,,2x/6x,
{4}7b-5[8:1],8-2[8:1],7-3[8:1],8-4[8:1],
{4}7-3[8:1],1>4[8:1],8<5[8:1],2>5[8:1],
{4}1-7[8:1],2-4[8:1],1-5[8:1],2-6[8:1],
{4}8-4[8:1],3-7[8:1],5,2b/8b,
{4}3-8[8:1]/7,4-7[8:1],2-5[8:1],8x,
{4}7-4[8:1],8-3[8:1],6-1[8:1],4x,
{8}2x/8x,2x/8x,3b/7b,,5pp1[4:3]*qq1[4:3]/6,,,,
{4},,,3b/7b,
{1},
{1},
{1},
E
&inote_5=
(157){1},
{1}C1hf[1:1],
{8},,1x/8x,,2,,3,3qq5[4:3],
{8},6h[8:7],,,,,,,
{8},,7,,1/8,,2,2,
{8},3/6p4[8:5],,2h[8:3],,,,2,
{8},,,,5,3,6,4q5[8:5],
{8},7h[1:1],,,,,,,
{8},6,5,4,3h[4:1],,4>5[4:3],4,
{8},,,,,,1,1,
{8}3b/7b,4/6,4/6,,5h[4:1],,4,3/5,
{8},6,5,4/7,,3/4,2/5,,
{8}1b/7b,8,8,,5/7b,6,4,3/7b,
{8},2,1,3/8,,7/8,1/6,,
{8}2b/4,3,4/5,,5/7b,,1/8,2b/7b,
{8},3,4,2/5,,5/6,4/7,,
{8}2b/8b,1,1,,2b/4,3,5,2b/6,
{8},7,8,1/6,,1/2,3/8-4[8:1],,
{8}1/8,,3,3,4h[4:1],,2,,
{8}3,3,4h[4:1],,5,,1-5[8:1],,
{8}1/8,,6,6,5h[4:1],,7,,
{8}6,6,5h[4:1],,4,,7-5[12:1],7,
{8}8,,2-4[12:1],2,1,,7-4[8:1],7,
{8}8,,2-5[8:1],2,1,,7-3[8:1],7,
{4}2-4[12:1],2/8-6[12:1],1-5[8:1]/8,1/8<1[2:1],
{8}4h[8:7]/8,,,,,,8,8,
{8},E1,C1,E5,E3,E4,E7,E6,
{8}B2,B4,B7,B5,E1,C1,E4/E5/E6,,
{8}1x/8x,6,2x/4,8,3x/5,8,4x/6,8,
{16}5/7x,,8,,4/6x,,8,,3/5x,,8,,2/4x,,8,1,
{8}8x,3,5/7x,1,4/6x,1,3/5x,1,
{16}2x/4,,1,,3x/5,,1,,4x/6,,2,1x,2x,,7,8,
{8}7x,2,4/6x,1,3x/5,8,5/7x,1,
{16}2x/4,,8,,5/6x,,1,,3x/4,,8,,4x/5x,,2/7,2/7,
{8},1/5,4/8,,1/7,2-6[8:1]/6,3/5,2/6,
{8},1/7,4/5,2/8,,2/7,2z6[16:3]/7s3[16:3],,
{16},,,,4x/5x,,,,2,4,3,,7,5,6,,
{16}1,4,3,,8,5,6,4,4,,3/5,,2/6,,1,8,
{16}1x-5[8:1],,7/8,,1,,6,,7,8,7,,2,1,2,,
{16}3/7-3[8:1],,4/6,,3/7,,,1,1,,4/6,,8,2,8,2,
{16}8x-4[8:1],,1/2,,8,,3,,2,1,2,,7,8,7,,
{16}4,5,4,,2-5[8:1]/7-4[8:1],,1x/8x,,2x/7x,,,,E1,E7,E3,E5,
{16},,1/2,,3/8,,,,7,,8,,1/6,,C1,7x,
{16}C1,8x,C1,1x,C1,2x,C1,,,,1/8,,2b/7b,,,,
{8}4/5,,E7/4,,E5/3,3,E7,2,
{8}E5,1h[8:7],E7,,E5,,E7,,
{8}E5,,E3/6,,E5/7,,E3/8,8,
{8}E5,7,E3,6,C1xh[8:1],,8h[8:1],,
{8}2b/6b,3/5,3/5,,1/8,,4/6,4/6,
{8},1,2/8,3/7,,2/6,2/6,,
{8}8,1/7,2/6,3,4/7,6,2/5<4[4:3],1,
{1},
{4}1V35[8:1]/5h[8:1],1b/7-3[8:1],5-1[8:1]/7,5/7-5[12:1],
{4}1V35[8:1]/7,1/7-1[12:1],5-1[8:1]/7,5/7-3[8:1],
{4}1V35[8:1]/7,1/7-1[12:1],5-1[8:1]/7,5/7-5[12:1],
{4}1V35[8:1]/7,1/7-3[8:1],5w1[8:1]/7,5,
{8}4/6,3/7,2/8V64[8:1],,2-6[8:1]/8,,2/4-8[8:1],,
{4}2-4[12:1]/4,2/8V64[8:1],2-8[12:1]/8,2/4-8[8:1],
{8}2V46[8:1]/4,,1/2,,8-4[8:1],2-6[8:1],8,2b,
{8},1>4[8:1]/8<5[8:1],2/7,1/8,,2/6,3-8[8:1]/7-4[8:1],,
{8},,2b/6b,,4,1/7,5,2-5[8:1]/8,
{16},,2/6-1[8:1],,7,,4/6,,,,4/5,,1/8-4[8:1],2/7,3/6,,
{8}8b,2,1,8,1/7,2-6[8:1]/6,3/5,2x-4[12:1]/6x-8[12:1],
{8},2x-8[12:1]/6x-4[12:1],,2xV48[16:3]/6xV84[16:3],,2x/6x,C1f,,
{8},2/6,2/6,,3/4,8,5<4[8:3]/6,1,
{24}C1f,,,,,,,,,,,,3/6,,,2/7,,,1/8,,1/8,,1/8,,
{8}2-5[8:1]/7-4[8:1],3/6,2/7,,1>4[8:1],8<5[8:1],1,8,
{8},3/4,1/8,5/6V47[16:3],,4,2-6[8:1],,
{4}2b/8xh[2:3],,7,6,
{8}5,5,5,,4-1[8:1],,7-3[8:1],,
{8}1xh[2:3],,2,2,2,,3,,
{8}4,4,4,,5-8[8:1],,2-6[8:1],,
{8}7xh[4:1],,5,4,6h[4:1],,5,6,
{8}3h[4:1],,4,5,2h[4:1],,4,3,
{8}6h[8:1],5,3h[8:1],4,7h[8:1],6,2h[8:1],3,
{16}E1,E8,E7,E6,E5,E4,E3,E2,E1,,,,1b/8b,,,,
{16}6,5,7,,7,8,,1/6,,2,4,,4,3,,2/6,
{16},7,5,,5,6,,3/7,,1,8,,8,7,6,5,
{16}2,1,2,,3,4,,2/5,,7,5,,5,6,,4/7,
{16},3,4,,2,1,,3/8,,5,4,,2-5[8:1]/6-1[8:1],,,,
{16}2/6,,,,7,8,7,8,,4,5,,2,1,2,1,
{48},,,5,,,4,,,,,,1,,,8,,,2,,,7,,,,,,4/5,,,4/5,,,,,,7x,,6,,5,,2x,,3,,4,,
{8}8x-4[8:1],2x/6x,8b,,2<3[16:7],8<1[16:7],6>7[16:7],4>5[16:7],
{4},,,B1/C1f/E1/B4/B5/E5/B8,
{1},
{1},
{1},
E
