&title=Good bye, Merry-Go-Round.
&wholebpm=185
&artist=Yooh
&des=あまくちジンジャー
&shortid=11398
&genre=オンゲキCHUNITHM
&cabinet=DX
&version=maimai DX UNiVERSE PLUS
&chartconverter=Neskol
&lv_2=5
&des_2=
&lv_3=7+
&des_3=
&lv_4=12
&des_4=翠楼屋
&lv_5=14
&des_5=あまくちジンジャー
&des_6=
&inote_2=
(185){1},
{1},
{1}1h[1:2],
{1},
{1},
{2}1,1,
{1}8h[1:1],
{2},8,
{1}1h[1:1]/8h[1:1],
{2},1x/8x,
{2}1,1,
{2}2,2,
{2}3,3,
{2}4,4,
{2}4/5,6,
{2}5/6,7,
{2}7/8,1,
{1}1b/8b,
{2}8,8,
{2}8,7/8,
{2}6,6,
{2}6,5/6,
{2}3,3,
{2}2,1/2,
{2}8,8,
{1}1/8,
{2}1,1,
{2}2,2,
{2}3,3,
{2}4,4/5,
{2}5,5,
{2}6,6,
{2}8,8,
{1}1b/8b,
{2}B1,B2,
{2}B3,B4,
{2}B5,B6,
{1}B7,
{1}B5/B6,
{1}B3/B4,
{1}C1xh[1:1],
{1},
{1}1h[2:1]/2h[2:1],
{2}1/2,1/2,
{4}3,3,3,,
{4}4,4,4,,
{1}4h[2:1]/5h[2:1],
{2}4/5,4/5,
{4}6,6,6,,
{4}7,7,7,,
{1}7h[2:1]/8h[2:1],
{2}7/8,7/8,
{4}6,6,6,,
{4}5,5,4/5,,
{1}3h[2:1]/4h[2:1],
{4}2,2,2,,
{1}1h[2:1]/8h[2:1],
{1}1x/8x,
{2}B1/B8,B2/B7,
{2}B3/B6,B4/B5,
{1}C1hf[1:1],
{1},
{4}1b,1,1,,
{4}2,2,2,,
{4}3,3,3,,
{4}4,4,4/5,,
{4}5,5,5,,
{4}6,6,6,,
{4}7,7,7,,
{4}8,8,1b/8b,,
{4}7,7,7,7,
{4}6,6,6,,
{4}5,5,5,5,
{4}4,4,4/5,,
{4}3,3,3,3,
{4}2,2,1/2,,
{4}8,8,8,8,
{4}1,1,1b/8b,,
{1}1-4[4:3],
{1},
{1}5-1[4:3],
{1},
{1}2-6[4:3],
{1},
{1}7-3[4:3],
{1},
{4}1b,1,2,2,
{4}3,3,3/4,3/4,
{4}5b,5,6,6,
{4}7,7,1/8,,
{4}8,8,7,7,
{4}6,6,5,5,
{4}4/5,4/5,3/6,3/6,
{4}2/7,2/7,1x/8x,1x/8x,
{1}2b/7b,
{1},
{1},
{1},
E
&inote_3=
(185){1},
{2}4/5,3/6,
{1}C1xh[1:3],
{1},
{1},
{1},
{1}8qq5[4:5],
{1},
{1}4qq1[4:5],
{1},
{2}7h[2:1],8h[2:1],
{2}1h[2:1],2,
{2}3h[2:1],4h[2:1],
{2}5h[2:1],6,
{1}7-4[8:3],
{1}3-8[8:3],
{2}7,1/2,
{4}8,1/8,2/7,,
{4}6,6,5,5,
{4}4,4,3/5,,
{4}2,2,1,1,
{4}8,8,1/7,,
{4}7,7,8,8,
{4}1,1,2/8,,
{4}3,3,4,4,
{4}4x/5x,4x/5x,4x/5x,,
{4}6,6,4,4,
{4}5/6,5/6,4/7,,
{4}3,3,5,5,
{4}3/4,3/4,2/5,,
{4}6,6,7,7,
{4}8,8,1,1,
{2}1/2,7/8,
{4}1x/8x,2x/7x,3x/6x,,
{1}4-1[8:3],
{1}8-5[8:3],
{1}4>1[8:3],
{1}8<5[8:3],
{2}3h[2:1],4h[2:1],
{2}5h[2:1],6,
{4}7,8,1,2,
{1}1b/8b,
{2}E8,E7,
{2}E6,E5,
{2}E4,E3,
{2}E2,E1,
{2}B7/B8,B5/B6,
{2}B3/B4,B1/B2,
{2}B6/B7,B2/B3,
{1}C1f/B4/B5,
{1}8-4[8:3],
{4}3,3,3/4,,
{1}2-5[8:3],
{4}6,6,5/6,,
{1}6>3[8:3],
{4}2,2,1/2,,
{4}7,7,7/8,,
{1}1x-4[8:3]/8x-5[8:3],
{4}6,5,4,3,
{4}2,1,8,7,
{8}6,6,6,,4,4,4,,
{1}3b/6b,
{4}7,7,7/8,7/8,
{4}2,2,1/2,1/2,
{4}3,3,4,4,
{4}5,5,4/6,,
{4}3,3,3/4,3/4,
{4}6,6,5/6,5/6,
{4}7,7,8,8,
{4}1,1/8,2b/7b,,
{8}6,,5/6,,7,7,7,,
{8}8,,1/8,,2,2,2,,
{8}3,3,3,,4,,5/6,,
{4}7,7/8,1/6,,
{8}2,,1/2,,3,3,3,,
{8}4,,4/5,,6,6,6,,
{8}7,7,7,,7/8,,1/6,,
{1}5b-2[8:3]*-8[8:3],
{4}7,7,8,8,
{4}1,1,2/8,,
{4}3,3,4,4,
{4}5,5,4/6,,
{4}6,6,5,5,
{4}4,4,3/5,,
{4}2,2,1,1,
{4}8,8,1/7,,
{8}6,,5/7,,6,6,6,,
{8}3,,2/4,,3,3,3,,
{8}4/5,,3/6,,7,7,7,,
{8}1,1,1,,2b/7b,,,,
{4}6,5,4,3,
{4}2,1,8,7,
{8}1/8,1/8,1/8,,2/7,2/7,2/7,,
{4}3/6,4/5,3h[4:1]/6h[4:1],,
{1}2b/7b,
{1},
{1},
{1},
E
&inote_4=
(185){1},
{8}4,4,5,5,4,4,4x/5x,,
{1}2b>5[4:5]/7h[1:2],
{1},
{2}5,5,
{2}4,4/5,
{1}3h[8:3]/4h[8:5],
{4}4,4,3/5,,
{1}4h[8:3]/6h[8:5],
{4}4/6,4/6,3/7,,
{8}3h[1:1]/6,,,4,,4,,5,
{8}5h[1:1],,,3,,3,,4,
{8}4h[1:1],,,5,,5,,6,
{8}6h[1:1],,,5,,5,,3,
{4}3xh[4:3],,4,4,
{4}2x/6xh[4:3],,5,5,
{2}4h[4:1]/7h[4:1],2h[4:1]/5h[4:1],
{4}B3,B6,C1,1b/8b,
{8}2,2,4,4,3,,5/6,5/6,
{4}5/6,4/7,3/4,2/5,
{8}7,7,5,5,6,,3/4,3/4,
{4}3/4,1/2,3/8,3/8,
{8}2,2,4,4,3,,5/6,5/6,
{4}5/6,4/7,3/4,2/5,
{8}3,3,4,4,2h[4:1],,1<3[2:1],,
{2},1b,
{8}2,1/2,,2/8,,3/4,,5/6,
{8}6,4/7,,2/5,,7/8,,1/2,
{8}2,3/8,,1/6,,5/6,,3/4,
{8}3,2/5,,1/8,,4/7,4b/7b,,
{8}3,3/4,,2/6,,4/7,,1/2,
{8}2,3/8,,1/6,,3/5,,7/8,
{2}7xh[4:1]/8xh[4:1],1xh[4:1]/2xh[4:1],
{4}3h[4:1],4h[4:1],5,3/5,
{4}4xh[4:1]/6h[4:1],,5,4/6,
{4}5h[4:1]/7h[4:1],,6,5/7,
{4}2h[4:1]/4xh[4:1],,3,2/4,
{4}3h[4:1]/6h[4:1],,4/5,3/6,
{4}2h[4:1]/7b,4,3b/6h[4:1],5,
{4}3h[4:1]/7b,4,2b/6h[4:1],5,
{8}8,,8,,1/7,1/7,1/7,1/7,
{4}2b/6b,,,4x/5x,
{8}2xh[4:1]/7xh[4:1],,,2/7,2/7,,3p6[2:1],,
{4}5h[2:1],,,4/5s1[2:1],
{4}3h[2:1],,,2z6[2:1]/8,
{4}7h[2:1],,,5x/6x,
{8}4,4,5,,2b/6b,,1>6[2:1]/7,,
{4}8h[2:1],,,5x/7x,
{8}4h[4:1]/6h[4:1],,,4/6,4/6,,3-5[8:1]/5,,
{4},7x,7x,4x/7x,
{8}3h[4:1]/8h[4:1],,,3/8,3/8,,4>7[2:1]/7,,
{4}6h[2:1],,,5/6s2[2:1],
{4}4h[2:1],,,1/8,
{24}3h[4:1]/6h[4:1],,,,,,,,,3/6,,,3x/6x,,,,5x/6x,,,,4x/5x,,,,
{4}3x/4x,1b,2x/5x,3>6[2:1],
{4}4h[2:1],,,5/6,
{8}4h[4:1]/7h[4:1],,,4/7,4/7,,5/6,,
{4}4/5,2/4,1/8,5x/7x,
{2}4h[4:1]/5h[4:1],3h[4:1]/4h[4:1],
{2}4h[4:1]/5h[4:1],3h[4:1]/6h[4:1],
{16}2,,2,,7,,7,,1,8,1,8,1,8,1,8,
{4}2xh[4:3],,,1b,
{16}3/5,,,5/6,,,7,,7,,8,,1,,2,,
{16}3/5,,,5/6,,,7,,7/8,,1/6,,2-5[8:1]/5,,,,
{4}8,4/7-4[8:1],1,2-6[8:1]/5,
{8}8,,7x/8x,1/6,2/5,,3b/7b,,
{16}4/6,,,3/4,,,2,,2,,1,,8,,7,,
{16}4/6,,,3/4,,,2,,1/2,,3/8,,4/7,,,,
{4}5h[8:1]/6h[8:1],4h[8:1]/7h[8:1],3h[8:1]/4h[8:1],2h[8:1]/5h[8:1],
{4}1-5[8:1]/6,8-4[8:1],3b,2x/6x,
{16}1/7,,,1/2,,,3,,3,,4,,5,,6,,
{16}1/7,,,1/2,,,3,,3/4,,2/5,,1/6-1[8:1],,,,
{4}4,3-8[8:1]/8,5,1-4[8:1]/6-1[8:1],
{8},,3x/8x,3x/8x,3x/8x,,1b/6b,,
{16}3/5,,,5/6,,,7,,7/8,,1,,2,,3,,
{16}3/5,,,5/6,,,7,,7/8,,1/6,,2x/5x,,,,
{16}3x,4x,3x,4x,3x,,,,2x-8[8:1]/5x,,,,6-4[8:1],,,,
{4}2bz6[8:3],,,8b,
{4}1x/7xh[2:3],,8,8,
{4}6,5,4,3/5,
{4}2h[4:5],1,1,3,
{4}1,1,3/8,3/8,
{4}2h[2:3],E2,E4,C1,
{4}E1,E3,E5,C1,
{8}1/8,,2/7,,3/6,3/6,3>6[2:1]/6,,
{4},,,1b/8b,
{16}2/4,,,4/5,,,5/6,,7-3[8:1],,7,,8,,1,,
{16}2x/4x,,,4/5,,,5/6,,7-3[8:1],,7,,8,,1,,
{16}2x/4x,,,4/5,,,5/6,,7-3[8:1],,7,,8,,1,,
{8}2-5[8:1],2,1-6[8:1],1,4,,2b/5b,,
{8}1/6,6,3,4,2/5,2,6,5,
{8}4/7,7,2,1,3/8,3,6,6,
{16}4,5,4,5,3,6,3,6,2,7,2,7,1,8,1,8,
{4}1-6[8:1],7-4[8:1],3-8[8:1],5b-1[8:1],
{1}C1f,
{1},
{1},
{1},
E
&inote_5=
(185){1},
{16}4,,5,,4/5,,6,5,6,5,6,,3,4,2,3,
{1}1b>1[1:2]*v3[2:1],
{1},
{1}1>1[1:2]*v4[4:3],
{1},
{1}1-5[1:1]*>1[1:2],
{1},
{1}1>6[4:5]*v6[4:5],
{1},
{8}4h[4:1]/5,,5,3,5,4,5,2,
{8}2h[4:1]/4,,4,3,4,2,4,3,
{8}4/5h[4:1],,4,6,4,5,4,7,
{8}5/7h[4:1],,5,6,5,7,5/7,,
{16}4x,5,4,,3,,2,,8x,1,8,,7,,6,,
{16}8x,7,8,,1,,2,,4x,3,4,,5,,6,,
{16}8x,7,8,7,1,6,1,6,2,5,2,5,3,4,3,4,
{8}3pp5[8:1],5>3[8:1],3>1[8:1],,8q4[8:1]*v5[8:1],,8x,,
{8}2,6,3/7,8,1/4,,3/7,6,
{8}2<6[4:1]/5,,6<2[4:1],,4,5,6,,
{8}7,3,2/6,1,5/8,,2/6,3,
{8}4/7>3[4:1],,3>7[4:1],,5,4,3,,
{8}3,7,2/6,5,1/4,,2/6,7,
{8}3<7[4:1]/8,,7<3[4:1],,1,8,7,,
{8}8,2,3/7,4,5/6,,4/7,3,
{8}B8/E8,B2/E3,B6/E7,B4/E4,E1,C1,E5,,
{8}2-6[8:1],7,,5,1-5[8:1],6,,4,
{8}8-4[8:1],5,,3,1,2,3/6,,
{8}7-3[8:1],2,,4,8-4[8:1],3,,5,
{8}1-5[8:1],4,,6,8,7,3/6,,
{8}3-7[8:1],6,,8,4-8[8:1],7,,1,
{8}5-1[8:1],8,,2,4,3,2/8,7,
{2}B1/C1f/B2/6b,C1f/B5/B6/2b,
{4}3/7-4[8:1],2-5[8:1],8-5[8:1],4,
{48}1-5[8:1]/2,,,,,,,,,,,,1/2,E3,B3,B4,E5,,,,,,,,5xh[8:1]/6xh[8:1],,,,,,,,,4h[8:1]/5h[8:1],,,,,,,,,3/4,,,,,,
{48}7/8-4[8:1],,,,,,,,,,,,7/8,E7,B6,B5,E5,,,,,,,,3xh[8:1]/4xh[8:1],,,,,,,,,4h[8:1]/5h[8:1],,,,,,,,,5/6,,,,,,
{48}1-5[8:1]/8,,,,,,,,,,,,1/2,E3,B3,B4,E5,,,,,,,,5xh[8:1]/6xh[8:1],,,,,,,,,4h[8:1]/5h[8:1],,,,,,,,,3/4,,,,,,
{48}1/8-4[8:1],,,,,,,,,,,,7/8,E7,B6,B5,E5,,,,,,,,3xh[8:1]/4xh[8:1],,,,,,,,,4h[8:1]/5h[8:1],,,,,,,,,5/6,,,,,,
{32}3x/7x<4[8:1],,,,,,,,,E3,E2,E1,,,,,4x/8x>3[8:1],,,,,,,,,E5,E6,E7,,,,,
{32}4x/8x<5[8:1],,,,,,,,,E4,E3,E2,,,,,1x>4[8:1]/5x,,,,,,,,,E6,E7,E8,,,,,
{32}8,,3,,8,,3,,7,,2,,7,,2,,6,,1,,6,,1,,5,4,3,2,1,8,7,6,
{12}5h[4:1],,,3,4,2,6,5,7,1bw5[16:1],,,
{64}1,B1,C1f,B4/B5/B6,,,,,,,,,,,,,,,,,,,,,,,,,,,,,2h[4:1]/7,,,,,,,,,,,,,,,,4h[8:1],,,,,,,,3h[8:1],,,,,,,,
{8}C1xh[4:1],,1h[8:1],3h[8:1],2h[8:1],4h[8:1],3h[8:1],5h[8:1],
{8}C1xh[8:1],1h[8:1],3h[8:1],2h[8:1],4h[8:1],3h[8:1],C1xh[8:1],1h[8:1],
{8}3h[8:1],2h[8:1],4h[8:1],3h[8:1],5,5,7,7,
{32}1,,,,1,,,,2-6[16:1]/8,,,,2/8,,,,2/8h[4:1],C1f,,,,,,,,,,,,,,,
{8}1/7h[4:1],,3h[8:1],4h[8:1],1h[8:1],8h[8:1],5h[8:1],6h[8:1],
{2}4h[4:1],2h[4:1]/6h[4:1],
{4}8-4[8:1],8>3[8:1],8<5[8:1],8w4[16:1],
{64}8,B8,C1f,B3/B4/B5,,,,,,,,,,,,,,,,,,,,,,,,,,,,,2/7h[4:1],,,,,,,,,,,,,,,,5h[8:1],,,,,,,,6h[8:1],,,,,,,,
{8}C1xh[4:1],,8h[8:1],6h[8:1],7h[8:1],5h[8:1],6h[8:1],4h[8:1],
{8}C1xh[8:1],8h[8:1],6h[8:1],7h[8:1],5h[8:1],6h[8:1],C1xh[8:1],8h[8:1],
{24}6h[8:1],,,7h[8:1],,,5h[8:1],,,6h[8:1],,,4,,,,7/8,,,,1/2,,,,
{8}3v6[8:1]/4v6[8:1],,,,7h[4:1]/8,,5h[8:1],6h[8:1],
{8}C1xh[4:1],,7h[8:1],6h[8:1],8h[8:1],5h[8:1],1h[8:1],4h[8:1],
{16}2h[8:1],,4,3,4,,8,1,8,,5,6,5,,4/6,,
{4}3/7<4[8:1],1>4[8:1],8p4[8:1],2-6[8:1],
{4}4x,4,3,3,
{4}2,2,1,1,
{16}2,8,2,8,3,7,3,7,4,6,4,6,5,5,5,5,
{4}5w1[4:1],,,3b/7b,
{16}1x-5[8:1]/8x,,,2,1x,,4h[4:1],,3x,2,1,8,3x/7x,6,5,4,
{16}8x-4[8:1],,,7,8x,,6h[4:1],,7x-3[8:1],,1-5[8:1],,7x,,1,,
{4}4x<8[4:1],8x>8[2:1],C1f,8x>8[2:1],
{8}C1f,,1x,1,2,2,1/3,,
{16}2x/8x-4[8:1],,,7,8x,,5h[4:1],,6x,7,8,1,2x/6x,3,4,5,
{16}1x<7[8:1],,,2,1x-6[8:1],,3,,1x-5[8:1],,4,,1x,,3,,
{16}2,4,2,4,2-6[8:1],,1,,2x/8x-3[8:1],,,,5x-1[8:1]/8x,,,,
{8}5x/6,,7,6,1b/5b,2,3/6,7,
{16}2/8x>3[8:1],,,7,8x,,4h[4:1],,5x,6,7,8,1x/5x,2/6,3/7,4/8,
{16}1x-5[8:1]/5x,,,2,1x,,3h[4:1],,2x-6[8:1],,8-4[8:1],,2x,,8,,
{4}5x>1[4:1],1x<1[2:1],C1f,1x<1[2:1],
{8}C1f,,8x,8,7,7,6/8,,
{16}4x<7[8:1]/6,,,3,4x,,8h[4:1],,1x,2,3,4,1x/5x,2/6,3/7,4/8,
{16}1x/5x>3[8:1],,,6,5x-2[8:1],,7,,5x-1[8:1],,8,,5x,,7,,
{16}6,8,6,8,6-2[8:1],,5,,4x-7[8:1]/6b,,,,1xw5[16:1]/4b,,,,
{32}1b,C1f,,,,,,,,,,,,,,,,,,,,,,,3/6,,,,,,,,
{4}8>3[4:1],3q8[4:1],8q5[4:1],5<8[4:1],
{4}8>3[4:1],3<6[4:1],6,1,
{4}3p6[4:1],6>3[4:1],3>8[4:1],8p3[4:1],
{4}3p6[4:1],6>3[4:1],3,8,
{4}6>3[4:1],3p6[4:1],6p1[4:1],1<6[4:1],
{4}6>3[4:1],3>8[4:1],8,5,
{4}3p6[4:1],6>3[4:1],3,8p5[2:1]*q3[2:1],
{4}8,,,2b/7b,
{16}2/8x>3[8:1],,,7,8x,,4h[4:1],,5x,6,7,8,1x,2/8,3/7,4/6,
{16}5x<7[8:1],,,4,5x,,8h[4:1],,1x,2,3,4,5x,4/6,3/7,2/8,
{16}1x>4[8:1],,,8,1x,,5h[4:1],,6x,7,8,1,2x/6x,3,4,5,
{8}8-6[8:1],1-3[8:1],8-4[8:1],1-5[8:1],8,1,7b,6,
{16}1-6[8:1],2,3-8[8:1],,1,,3,,5-2[8:1],6,7-4[8:1],,5,,7,,
{16}8-5[8:1],1,2-7[8:1],,8,,2,,4-1[8:1],5,6-3[8:1],,4,,6,,
{32}8,,4,,1,,5,,2,,6,,3,,7,,4b,5,6,7,8,1,2,3,4b,5,6,7,8,1,2,3,
{4}4b/8x-4[8:1],4x>5[4:1]/8x,,1xw5[16:1],
{32}1b,C1f,,,,,,,,,,,,,,,,,,,,,,,,,,,,,,,
{1},
{1},
{1},
E
