&title=Define
&wholebpm=175
&artist=Zekk
&des=じゃこレモン
&shortid=11427
&genre=ゲームバラエティ
&cabinet=DX
&version=maimai DX UNiVERSE PLUS
&chartconverter=Neskol
&lv_2=3
&des_2=
&lv_3=7+
&des_3=
&lv_4=11+
&des_4=隅田川星人
&lv_5=13
&des_5=じゃこレモン
&des_6=
&inote_2=
(175){1},
{1},
{1}1h[1:2],
{1},
{1},
{1},
{1}8h[1:2],
{1},
{1},
{1},
{1}1x,
{1}1,
{1}2,
{1}2,
{1}3,
{1}3,
{1}4,
{1}4/5,
{2}5,5,
{1}5,
{2}6,6,
{1}6,
{2}7,7,
{1}7,
{2}8,8,
{1}1/8,
{1}8-5[4:3],
{1},
{1}4-1[4:3],
{1},
{1}8-5[4:3],
{1},
{1}4,
{1}4/5,
{2}3,3,
{1}3/4,
{2}2,2,
{1}1/2,
{2}7,7,
{1}7/8,
{2}6,6,
{1}5/6,
{1}4-1[4:3]/5-8[4:3],
{1},
{1}1h[1:1]/8h[1:1],
{1},
{2}1,1,
{1}1/2,
{2}8,8,
{1}7/8,
{1}B8,
{1}B1,
{1}B7,
{1}B2,
{1}B6,
{1}B3,
{1}B5,
{1}C1,
{2}1,1,
{1}2,
{2}3,3,
{1}4/5,
{2}6,6,
{1}7,
{2}8,8,
{1}1/8,
{4}8b,8,8,,
{2}7,7,
{4}6,6,6,,
{2}5,4/5,
{4}4,4,4,,
{4}3,3,3,,
{4}2,2,2,,
{1}1x/8x,
{4}1,1,1,,
{4}2,2,2,,
{4}3,3,3,,
{2}4/5,4/5,
{4}5,5,5,,
{4}6,6,6,,
{4}7,7,7,,
{1}1b/8b,
{1}8-5[4:3],
{1},
{1}4-1[4:3],
{1},
{1}E1,
{1}E2/E8,
{1}E3/E7,
{1}C1xh[1:1],
{1},
{1},
{1},
E
&inote_3=
(175){1},
{1},
{1}4h[2:7]/5h[2:7],
{1},
{1},
{1},
{4}6,5/6,,3,
{4}3/4,,6,5/6,
{4},4/5,3/6,2/7,
{8}1/8,1/8,1/8,,2x/7x,,,,
{4}6h[4:1],5,5,,
{4}3h[4:1],4,4,,
{1}2-5[8:3],
{1}6-1[8:3],
{4}2h[4:1],1,1,,
{4}7h[4:1],8,8,,
{1}6<1[8:3],
{1}2>5[8:3],
{4}E7,B6,B5,,
{4}E3,B3,B4,,
{1}7-3[2:1],
{1}2-6[2:1],
{4}E7,B7,B8,,
{4}E3,B2,B1,,
{1}7p3[2:1],
{4}2b,,,1/8,
{4}7x,7,7/8,7/8,
{4}6,5,4/6,,
{4}3,3,3/4,3/4,
{4}2,1,1/8,,
{4}2,2,1/2,,
{4}7,7,7/8,,
{4}6,6,5,5,
{4}4/5,4/5,3/6,,
{1}7<4[2:1],
{1}3>8[2:1],
{1}7<4[2:1],
{1}3>8[2:1],
{4}7,8,1,2,
{4}3,4,5,6,
{8}7,7,7,,8,8,8,,
{1}1x>4[2:1]/8x<5[2:1],
{1}C1f,
{4},,,1x/8x,
{1}1x>4[2:1]/8x<5[2:1],
{4},,,4x/5x,
{4}6,6,5/6,,
{4}3,3,3/4,,
{4}6,5,4,3,
{1}4b/5b,
{1}6h[1:1],
{1}5h[1:1],
{1}4h[1:1],
{1}3x,
{1}2h[1:1],
{1}1h[1:1],
{1}8h[1:1],
{2}7x,1/8,
{4}E7,B6,B5,,
{4}E3,B3,B4,,
{4}E7,B6,B5,,
{4}E3,B3,B4,,
{4}B7,B6,E6,,
{4}B2,B3,E4,,
{1}4x-1[2:1]/5x-8[2:1],
{1}C1f,
{4}7,7,7/8,7/8,
{4}2,2,1/2,1/2,
{4}3,3,3/4,3/4,
{4}6,5/6,4/7,,
{4}8,8,1/8,,
{4}2,2,1/2,,
{4}3,3,4,4,
{4}4/5,4/5,3/6,,
{4}2,2,1/2,1/2,
{4}7,7,7/8,7/8,
{4}6,6,5/6,5/6,
{4}3,3/4,2/5,,
{4}1,2,3,4,
{4}5,6,7,8,
{8}1/8,1/8,1/8,,2/7,2/7,2/7,,
{1}3b-8[2:1]/6b-1[2:1],
{1}C1f,
{4},,,1x/8x,
{1}1x>4[2:1]/8x<5[2:1],
{4},,,4x/5x,
{4}6,7,8,1,
{4}2,3,4,5,
{8}4/5,4/5,4/5,,3/6,3/6,3/6,,
{8}2/7,2/7,2/7,,1/8,1/8,1/8,,
{1}C1f,
{1},
{1},
{1},
E
&inote_4=
(175){1},
{1},
{1}C1xh[2:7]/B4/B5,
{1},
{1},
{1},
{4}8,7,5/6,4,
{4}3,1/2,8,7,
{8}4/6,,5,5,5,,4,4,
{4}4,3-8[8:1]/5,7b,,
{8}1/7h[8:3],,5,5h[8:3],,3,3,,
{8}2h[8:3]/8,,4,4h[8:3],,6,6,,
{8}1/7h[8:3],,5,5h[4:1],,3,3-7[8:1],,
{1}1>8[16:7],
{8}2h[8:3]/8,,4,4h[8:3],,6,6,,
{8}1/7h[8:3],,5,5h[8:3],,3,3,,
{8}2h[8:3]/8,,4,4h[4:1],,6,6-2[8:1],,
{1}8<1[16:7],
{8}7h[4:1],,8,6h[4:1]/8,,5,4/6,,
{8}2h[4:1],,1,1/3h[4:1],,4,3/5,,
{8}7h[4:1],,8,6h[4:1]/8,,5,4V62[8:3]/6,,
{4}8,,,3/6,
{8}2h[4:1],,1,1/3h[4:1],,4,3/5,,
{8}7h[4:1],,8,6h[4:1]/8,,5,4/6,,
{8}2/5,2/5,2/5,,4/7,4/7,4/7,,
{4}C1f/B2/B3/B6/B7,,,1/8,
{4}3-8[8:1],7-4[8:1],1,2qq5[2:1],
{4}6h[2:1],,,4x/6x,
{4}7-2[8:1],3-6[8:1],1-5[8:1],4,
{8}3/6,,2,2h[8:3],,,4<2[8:3],,
{4}2b,,3,4-1[16:3]/5,
{8}6,,,7x/8x,7x/8x,,4x/5x,4x/5x,
{8},3x/6x,3xV58[16:5]/6xV41[16:5],,,,,,
{8}2/7,,4/5,,7,7,5h[4:1],,
{8}B7/E8,,B5/E6,,2,2,4h[4:1],,
{8}B2/E2,,B4/E4,,7,7,5h[4:1],,
{8}B4/E5,,B7/E8,,2,2,4h[4:1],,
{4}B5/E5,B2/E2,1/8,3/6,
{4}4xh[8:1]/5xh[8:1],5h[8:1]/6h[8:1],6h[8:1]/7h[8:1],7h[8:1]/8h[8:1],
{4}1xh[8:1]/8xh[8:1],1h[8:1]/2h[8:1],2h[8:1]/3h[8:1],3/4,
{16}5,4,5,4,5,4,5,4,5,4,5,4,5,4,5,4,
{1}5pp1[2:1]*qq1[2:1],
{1}3b>4[4:5]/7b,
{4},,,8x,
{1}8xqq3[1:1],
{4},,,4x-1[8:1]/5x,
{8}8b,,6,6,,5/7,5/7-4[8:1],,
{8}1,,3,3,,2/5,2/5,,
{16}4/7,,6,5,6,,3,4,3,,6,5,6,,3,4,
{1}3>6[2:1],
{1}C1f/B4/B5,
{8},,,,,,,6xp4[4:3],
{8},,,,,,,C1xh[8:5],
{1},
{1}7xV53[2:1],
{1}2V46[2:1],
{2}7<2[8:5],2x,
{4},,1x/8x,3x/6x,
{4}8h[4:1],7h[4:1],6h[4:1],5h[4:1],
{4}B8,B7,B6,B5,
{4}4xh[4:1],3h[4:1],2h[4:1],1h[4:1],
{4}B4,B3,B2,B1,
{4}7h[4:1],5h[4:1],4h[4:1],2h[4:1],
{4}E1/B8,B6/E7,B4/E5,B2/E3,
{1}8xp5[16:9]*q3[16:9],
{4}2b/6b,,,1x/8x,
{8}6,6,5/7,,2/4,2/4-8[8:1],,1-3[8:1],
{8},7-5[8:1],,4,4,,2/8,,
{8}3,3,2/4,,5/7,5-1[8:1]/7,,8-6[8:1],
{8},2-4[8:1],,5,5,,1/7,,
{8}2/6,,3/4,2/5,,5/6,4/7-3[8:1],,
{8}2-6[8:1],,7,,8,,7,7,
{8}6/8,,2,1/3,,6,5/7,,
{8}3,2/4,,1/5,1h[8:1]/5h[8:1],,3b/7b,,
{8}6,6,5/7,,2/4,2/4-8[8:1],,1-3[8:1],
{8},7-5[8:1],,4,4,,2/8,,
{8}3,3,2/4,,5/7,5-1[8:1]/7,,8-6[8:1],
{8},2-4[8:1],,5,5,,1/7,,
{4}7h[8:1]/8h[8:1],6h[8:1]/7h[8:1],5h[8:1]/6h[8:1],4h[8:1]/5h[8:1],
{4}3h[8:1]/4h[8:1],2h[8:1]/3h[8:1],1h[8:1]/2h[8:1],1/8,
{16}3/6,,7,8,7,,2,1,2,,7,8,7,,2,1,
{1}2b>7[2:1],
{1}C1xh[1:1],
{4},,,1x,
{1}1x>8[1:1],
{4},,,2x/7x,
{4}4h[8:1]/5h[8:1],6h[8:1]/7h[8:1],1h[8:1]/8h[8:1],2h[8:1]/3h[8:1],
{4}4h[8:1]/5h[8:1],6h[8:1]/7h[8:1],1h[8:1]/8h[8:1],2/7,
{16}4/5,,6,5,7,,3,4,2,,6,5,7,,3,4,
{4}1h[8:1],2V85[8:3]/8V25[8:3],,,
{1}C1f/B3/B4/B7/B8,
{1},
{1},
{1},
E
&inote_5=
(175){1},
{16},,,,,,,,,,,1x>8[16:57],,,,,
{1}C1hf[2:15],
{1},
{1},
{1},
{1}8<1[2:3],
{1},
{1}1V36[2:1],
{1}6p2[4:1],
{8}3/7,,5,6h[8:3],,7,8,,
{8}2/6,,4,3h[8:3],,2,1,,
{8}3/7,,5,6h[2:1],,7,8,1>8[8:5],
{8},B6,B3,,8-4[8:1],,,,
{8}3/5,,4,3h[8:3],,2,1,,
{8}3/7,,5,6h[8:3],,7,8,,
{8}2h[8:3]/5,,4,3,2,1,,7-4[4:1],
{8},4q1[4:1],,3,3,,2/8,,
{8}4/6qq7[2:1],,1,8,,1,2,,
{8}3pp2[2:1]/5,,8,1,,8,7,,
{8}1/7pp6[2:1],,4,5,,4,3,,
{8}2p4[4:1],1q7[4:1],,,,3,8,,
{8}1/7pp6[2:1],,4,5,,4,3,,
{8}2V84[8:3]/8,,6,7,,6,2/5,,
{16}3,4,,4,5,,5,6,,6,7,,6/8,,1/7,,
{16}2xh[16:3]/8x,,,4,3,,4x/7xh[16:3],,,5,6,,1b/5b,,,,
{4}2>5[8:1]/8<5[8:1],2/8,2-6[8:1]/8-4[8:1],2>1[2:1]/8<1[2:1],
{8}2x/8x,,,,,,3/5,2/6,
{4}1>4[8:1]/7<4[8:1],1/7,1-5[8:1]/7-3[8:1],1/7,
{8}7>2[4:1],,2-4[8:1],4-6[8:1],,B6,B3,,
{8}4h[4:1],,2,1-5[8:1],8,7,6,,
{8}4/5h[4:1],,7,8-4[8:1],1,2,3,,
{8}1h[4:1]/8,,3,4-8[8:1],5,6,7,,
{8}6,5,4,3,2-5[8:1],5-2[8:1],2-7[8:1],7<2[4:1],
{8}8h[4:1],,,,7-4[8:1],4-7[8:1],7-2[8:1],2>7[4:1],
{8}1h[4:1],,,,1-4[8:1],4-1[8:1],1-6[8:1],6>1[4:1],
{8}7h[4:1],,,,8-5[8:1],5-8[8:1],8-3[8:1],3<8[4:1],
{8}2h[4:1],,,,1/3,1/3,,1/7,
{4}1-5[8:1]/7,8-4[8:1],7-3[8:1],6-2[8:1],
{4}5-1[8:1],4-8[8:1],3<6[8:1],8x,
{16}7,5,7,,2,4,2,,8,6,8,,1,3,1,,
{8}7,8,1,2,3x/7x,4x/8x,3x/7x,2x/6x,
{8}3xh[4:7]/7b,,,,4,4,,2,
{8}2,,5,5,,1,1x,,
{8}5x/6x,5/6h[2:3],,7,7,,4,4,
{8},8,8,,3,3,,1/8,
{8}7-3[8:1],8,1,2-6[8:1],1,8,7,4,
{8}3-7[8:1],4,5,6-2[8:1],5,4,3,4,
{16}2x/5x,,7,4,7,,2,5,2,,7,4,7,,2/8,,
{8}1x-3[8:1],1x-7[8:1],1x-4[8:1],1x-6[8:1],1x-5[8:1],,,,
{1}7xp6[4:13],
{1},
{8},,,,,,,3>6[8:3],
{1},
{1}2xq3[4:13],
{1},
{8},,,,5,5,,6<3[8:3],
{4},,,2/5,
{16}6h[4:1],,,5,5h[4:1],,,4,4h[4:1],,,3,3,,,,
{16}3h[4:1],,,4,4h[4:1],,,5,5h[4:1],,,6,6,,,,
{16}7h[4:1],,,6,6h[4:1],,,5,5h[4:1],,,4,4,,,,
{16}2h[4:1],,,3,3h[4:1],,,4,4h[4:1],,,5,5,,,,
{16}7h[4:1],,,5,5h[4:1],,,4,4h[4:1],,,2,2,,,,
{16}2h[4:1],,,4,4h[4:1],,,5,5h[4:1],,,7,7,,,,
{16}6,5,,2,1,,3,4,,7,8,,3/6,,2/5,,
{8}1,8,7,6,3x/7x,4x/8x,3x/7x,2x/6x,
{8}3b/7b,2-6[8:1],6-2[8:1],,8,7V13[4:1],,3V57[4:1],
{8},7,,1-3[8:1],1-7[8:1],1-5[8:1],,,
{8}6,7-3[8:1],3-7[8:1],,1,2V86[4:1],,6V42[4:1],
{8},2,,8-6[8:1],8-2[8:1],8-4[8:1],,,
{8}3,2,1,8>3[8:1],7,6,5-8[8:1],,
{4}1-4[8:1],1-5[8:1]/7,1>4[8:1]/2,1/6,
{8}8>3[8:1],7,6,5<8[8:1],4,3,2>5[8:1],1,
{8}8,7,,2-7[8:1]/6-3[8:1],3<6[8:1]/7>2[8:1],,,,
{8}3x/7x,2p6[8:1],6p2[8:1],,8,7V13[4:1],,3V57[4:1],
{8},7,,1>3[8:1],1<7[8:1],1-5[8:1],,,
{8}6,7q3[8:1],3q7[8:1],,1,2V86[4:1],,6V42[4:1],
{8},2,,8<6[8:1],8>2[8:1],8-4[8:1],,,
{8}1-5[8:1],1,7-3[8:1],7,2-6[8:1],2,8-4[8:1],8,
{8}3-7[8:1],3,5-1[8:1],5,4,4,2b/8b,,
{16}3/5,,7,5,7,,2,4,2,,8,6,8,,1,3,
{8}1,2/6,,5>8[8:1]/8-5[8:1],,,,,
{8}2b/6b,,4-2[8:1]/8,,4,8-6[8:1],,8,
{8}3-1[8:1],,3,7-5[8:1],,7,2x-8[8:1],,
{8}2x,6-4[8:1],,6,1-7[8:1],,1,5-3[8:1],
{8},5,8-3[8:1],,8,4-7[8:1],,4,
{8}1x-5[8:1],1,8-4[8:1],8,7-3[8:1],7,6-2[8:1],6,
{8}5-1[8:1],5,4-8[8:1],4,3<6[8:1],3,8x,,
{16}4/7,,3,8,3,,6,1,6,,3,8,3,,4/6,,
{8}5x-7[8:1],5x-3[8:1],5x-8[8:1],5x-2[8:1],5x-1[8:1],,,,
{1}3b/7b,
{1},
{1},
{1},
E
