&title=Caterpillar Song
&wholebpm=90
&artist=Bitplane feat. 葉月ゆら
&des=チェシャ猫とハートのジャック
&shortid=11419
&genre=ゲームバラエティ
&cabinet=DX
&version=maimai DX UNiVERSE PLUS
&chartconverter=Neskol
&lv_2=3
&des_2=
&lv_3=6
&des_3=
&lv_4=12
&des_4=はっぴー
&lv_5=13+
&des_5=チェシャ猫とハートのジャック
&des_6=
&inote_2=
(90){1},
{1}1h[2:1],
{1}1h[2:1],
{1}8h[2:1],
{1}8h[2:1],
{2}1,1,
{2}2,2,
{2}3,3,
{2}4,4,
{2}5,5,
{2}6,6,
{2}7,7,
{2}1/8,1/8,
{1}7h[2:1],
{2}7,6,
{1}5h[2:1],
{2}5,4,
{1}3h[2:1],
{2}3,2,
{1}1h[2:1]/8h[2:1],
{1}2h[2:1]/7h[2:1],
{2}B1,B8,
{2}B2,B7,
{2}B3,B6,
{2}B4,C1,
{2}B7/B8,B5/B6,
{2}B3/B4,B1/B2,
{2}E1,E2/E8,
{1}C1f,
{1}1-4[2:1],
{4},,5,5,
{1}5-8[2:1],
{4},,1,1,
{1}1-6[2:1],
{4},,7,7,
{1}7-4[2:1],
{2},4/5,
{4}4b,4,3,3,
{4}2,2,1,1/8,
{4}8,8,7,7,
{4}6,6,5,4/5,
{4}4,4,3,3,
{8}2,,2,,1,,8x,8x,
{1},
{1},
{1},
E
&inote_3=
(90){1},
{1},
{1}4qq1[2:1],
{1}8qq5[2:1],
{4}3,3,4/5,,
{8}6h[4:1],,5,,6,6,5,,
{8}3h[4:1],,4,,3,3,4,,
{8}6h[4:1],,5,,6,6,5,,
{8}3h[8:1]/4h[8:1],,3/4,,4/5,4/5,3/6,,
{8}2h[4:1],,1,,2,2,1,,
{8}7h[4:1],,8,,7,7,8,,
{8}2h[4:1],,1,,2,2,1,,
{8}7h[8:1]/8h[8:1],,7/8,,1/8,1/8,2/7,,
{8}6,6,5/6,,3,3,3/4,,
{8}6,6,5,5,4,4,3/5,,
{8}2,2,1/2,,7,7,7/8,,
{8}2,2,1,1,8,8,1/8,,
{8}7,7,8,8,1,1,2/8,,
{8}3,3,4,4,5,5,4/5,,
{8}6,6,5,5,4,4,3/5,,
{8}2,2,1,1,8,8,1/8,,
{8}B7/E8,,B5/E6,,B2,B3,E4,,
{8}B5/E6,,B7/E8,,E4,B3,B2,,
{8}B7/E8,,B5/E6,,B2,B3,E4,,
{8}B5/E6,,B7/E8,,E4,B3,B2,,
{8}6-1[4:1],,,,2,2,1,,
{8}3-8[4:1],,,,7,7,8,,
{8}6<1[4:1],,,,2,2,1,,
{8}3,,4,,4/5,4/5,3/6,,
{8}7,7,7/8,7/8,2,2,1/2,1/2,
{8}3,3,4,4,5,5,4/6,,
{8}3,3,3/4,3/4,6,6,5/6,5/6,
{8}7,7,8,8,1,1,1/8,,
{8}2,2,1/2,1/2,7,7,7/8,7/8,
{8}6,6,5,5,4,4,3/5,,
{8}6,6,5/6,5/6,3,3,3/4,3/4,
{8}2,2,1,1,8,8,1/8,,
{1}2bV41[2:1]/7bV58[2:1],
{1}2V41[2:1]/7V58[2:1],
{1}8qq5[2:1],
{1}4qq1[2:1],
{1}8<2[2:1],
{1}1>7[2:1],
{1},
{1},
{1},
E
&inote_4=
(90){1},
{2}5h[4:1],5h[4:1],
{8}5h[4:1],,,,5h[4:1],,,4x,
{2}4xh[4:1],4h[4:1],
{2}4h[4:1],4h[4:1],
{8}4h[4:3]/5h[4:1],,,6,6h[4:3],,,5,
{8}5h[4:5],,,,8,7,6,,
{8}6h[4:3],,,4,4h[4:3],,,7,
{8}7h[8:7],,,,5,4,3h[8:1],,
{8}4h[4:1]/5h[4:3],,,3,3h[4:3],,,4,
{8}4h[4:5],,,,1,2,3,,
{8}3h[4:3],,,5,5h[4:3],,,2,
{8}2h[8:7],,,,4,5,6h[8:1],,
{16}4h[16:11]/5h[16:3],,,,5,,,6,6h[16:11],,,,4,,,5,
{16}5h[16:19],,,,6,,,8,,7,,6,6,,,6,
{16}6h[16:11],,,,5,,,4,4h[16:11],,,,6,,,7,
{16}7h[8:7],,,,4,,,5,,4,,3,3h[8:1],,,,
{16}4h[16:3]/5h[16:11],,,,4,,,3,3h[16:11],,,,5,,,4,
{16}4h[16:19],,,,3,,,1,,2,,3,3,,,3,
{16}3h[16:11],,,,4,,,5,5h[16:11],,,,3,,,2,
{16}2h[8:7],,,,5,,,4,,5,,6,6h[8:1],,,,
{16}1h[16:11]/8h[16:3],,,,8,,5,6,7h[16:11],,,,1,,2,1,
{16}8h[16:19],,,,7,,5,6,7,,7,6,5,,5,6,
{16}7h[16:11],,,,8,,3,2,1h[16:11],,,,7,,8,7,
{16}6h[8:7],,,,1,,8,1,2,,2,1,8,,8,1,
{16}1h[16:3]/8h[16:11],,,,1,,4,3,2h[16:11],,,,8,,7,8,
{16}1h[16:19],,,,2,,4,3,2,,2,3,4,,4,3,
{16}2h[16:11],,,,1,,6,7,8h[16:11],,,,2,,1,2,
{16}3h[8:7],,,,8,,1,8,7,,7,8,1,,1,8,
{16}1/8h[16:3],,1h[16:9],,8,,8,7,6,,6h[16:9],,1,,3,4,
{16}5,,8h[16:17],,6,5,4,,4,5,6,,6,,6,5,
{16}4,,7h[16:9],,8,,5,4,3,,1h[16:9],,7,,7,6,
{16}5,,6h[4:3],,1,2,3,,3,2,1,,3,,3,2,
{16}1h[16:3]/8,,8h[16:9],,1,,1,2,3,,3h[16:9],,8,,6,5,
{16}4,,1h[16:17],,3,4,5,,5,4,3,,3,,3,4,
{16}5,,2h[16:9],,1,,4,5,6,,8h[16:9],,2,,2,3,
{16}4,,3h[4:3],,8,7,6,,6,7,8,,6,,6,,
{16}4/5,,5h[8:1],,4,,5,5,4,4,5h[4:1],,4h[8:1],,,,
{16}3/6h[8:1],,3h[8:1],,6,,3,3,6,6,3,3,6h[8:1],,3,,
{16}2h[8:1]/7,,7,,2,,2,2h[8:1],7,7h[8:1],2,2h[16:3],7,,7,,
{16}1/8,,8h[8:1],,1h[8:1],,8,8h[8:1],1,1h[8:1],8,8h[16:1],1,,1/8,,
{16}2/7,,2h[8:1]/7,,7,7,2/7,,3,3h[16:3],6,6,6,,3/6,,
{16}4/5h[8:1],,4h[8:1],,5,5,4/5,4,4/5-1[8:1],5,4b-8[8:1]/5b,,,,,,
{16},,,,E6,,,E4,,,,,C1,,,,
{16},B8,,B1,,,,,,,,,,,,,
{1},
{1},
{1},
E
&inote_5=
(90){1},
{64},,,,,,,,,,,,,,,,,,,,,,,,,,,,,,,,,,,,,,,,,,,,,,,,,,,,,,,,,,,E1,B1/B8,B2/B7,B3/B6,B4/B5,
{64}E5,,,,,,,,,,,,,,,,,,,,,,,,,,,,,,,,,,,,,,,,,,,,,,,,,,,,,,,,,,,E1,E2/E8,E3/E7,E4/E6,E5,
{16}4x/5x,,,,,,4h[8:1],,,,,,,,B2/E2,4,
{16}4,,,,,,B6/E7,4,,4,,4,4h[8:1],,B2/E2,,
{4}4>6[4:3],5,,6qq3[1:1],
{4},2,,3>7[2:1],
{4},7<3[2:1],,3s7[2:1],
{16},,,,7>6[4:3],,,,4,4,4,,5,,5,,
{4}6qq4[4:1],4<2[4:3],6h[4:1],,
{4}2qq8[4:1],8>6[4:3],2h[4:1],,
{4}6q3[2:1],4,3>6[2:1],5,
{16}6p2[4:1],,,,2<3[4:3],,,,5,5,5,,4,,4,,
{8}3pp1[4:3],,E1/B8,,7,8,1<7[4:1],,
{8}7pp5[4:3],,B4/E5,,3,4,5>3[4:1],,
{8}3v6[4:1],,6qq3[2:1],,B1/B2,B7/B8,3>8[4:1],,
{16}8<5[4:1],,,,5<4[4:3],,,,4,4,4,,5,,5,,
{8}4qq8[4:3],5,5-7[8:1],,,,8<5[4:1],,
{8}5pp1[4:3],4,4-2[8:1],,,,1>4[4:1],,
{4}4q5[2:1],7,5p4[2:1],2,
{16}C1xh[4:1],,,,,,,,2/7,2/7,2/7,,8h[32:1],,1h[32:1],,
{8}3/7b-1[16:1],2/6,4,3/5,2/6-4[16:1],4V68[32:3],6,1h[16:3],
{16},8,1,8,2-4[16:1]/7,,5-1[16:1],,2,,5,,2,1,3/8h[16:3],,
{16},1,8,1,2/7-5[16:1],,3-1[16:1],,7-3[16:1],,3,,7,,1/5,1/5,
{16},7,8,7,1-5[16:1]/6,,8-6[16:1],,1-3[16:1],,8-4[16:1],,1,,8,,
{16}2<8[16:1]/6,,3,,5,5,,3/7,3<5[16:1]/7,,5p1[32:3]/6,,2,,8h[16:3],,
{16},1,8,1,2/7<5[16:1],,4q8[16:1]/5,,2,,4,7,7,,1h[16:3]/5,,
{16},8,1,8,2>5[16:1]/7,,3/6<1[16:1],,2pp6[16:3],,,,,,8,8,
{16},7,8,7,1q5[16:1]/6,,3/8<5[16:1],,1>4[16:1],,8p4[16:1],,,,,,
{16}3,4,5,6,5-1[16:1]/7h[16:1],,2h[16:1]/4-8[16:1],,5/7,,2/4,,1,1,2<8[16:1]/8,,
{16},4,2-5[16:1],,5,5,2<8[16:1],,6,6,2-6[16:1],7,7,,2/6,,
{16},4/8,1/5,,8v5[16:1],1,4v1[16:1],5,8,,4,,8,8,1/7-1[16:1],,
{16},5,7<4[16:1],,4h[16:1],,7-1[16:1],,3h[16:1],,7p3[16:1],2,2h[8:1],,,,
{16},1,2,3,2h[16:1]/4-6[16:1],,5-3[16:1]/7h[16:1],,2,,7,,8,8,1/7-1[16:1],,
{8}2/6,3<5[16:1]/7,2,3/7>1[16:1],6,3-7[16:1]/7,2,3/7,
{16},2h[8:1]/6h[8:1],,,8-4[16:1],7,1-5[16:1],2,B8,,B1,,4/8,3/7,2<8[16:1]/6,1/5,
{8},6>4[16:1],3/7,2-8[16:1],3/7,6-2[16:1],3/7,C1,
{16}4/8,,3/5h[8:1],,7,5,3,5,7-3[16:1],5,3-7[16:1],5,,,,,
{64}1/5,,,,,,,,4h[8:1]/6,,,,,,,,2,,,,4,,,,6,,,,4,,,,2q7[16:1],,,,4,,,,6,,,,4,,,,,,,,,,,,,,,E1,B1/B8,B2/B7,B3/B6,B4/B5,
{16}E5,,,,1/8,7,6,5,4/8-4[16:1],,3v2[16:1]/5v6[16:1],,8,,,,
{16}8,,4/8,,1/5,2,3,4,1/5-1[16:1],,2v3[16:1]/8v7[16:1],,5,,,,
{8}5,4/6,3h[16:5]/7h[16:1],4h[16:1],6h[16:3],5h[16:1],4/7,2/5,
{8}4,3/5,2h[16:1]/6h[16:1],3h[16:1]/7h[16:1],4-8[16:1]/8-4[16:1],1-5[16:1]/5-1[16:1],4>2[1:1]/8<6[1:1],,
{1},
{1},
{1}E5,
{1},
{1},
{1},
E
