&title=BLUE ZONE
&wholebpm=168
&artist=Tatsh x NAOKI
&des=隅田川星人
&shortid=11423
&genre=ゲームバラエティ
&cabinet=DX
&version=maimai DX UNiVERSE PLUS
&chartconverter=Neskol
&lv_2=4
&des_2=
&lv_3=8
&des_3=
&lv_4=11
&des_4=はっぴー
&lv_5=14
&des_5=隅田川星人
&des_6=
&inote_2=
(168){1},
{1},
{1}1h[1:1],
{1},
{1}1,
{1}1,
{1}8h[1:1],
{1},
{1}8,
{1}8,
{1}1h[1:1]/8h[1:1],
{1},
{2}2,2,
{1}1/2,
{2}3,3,
{1}3/4,
{2}6,6,
{1}5/6,
{2}7,7,
{1}7/8,
{2}8,8,
{1}7/8,
{2}6,6,
{1}5/6,
{2}3,3,
{1}3/4,
{2}2,2,
{1}1/2,
{2}3,3,
{2}4,4,
{2}5,5,
{1}5/6,
{2}7,7,
{2}8,8,
{2}1,1,
{1}1x/8x,
{1}8-5[4:3],
{1},
{1}1-4[4:3],
{1},
{1}5-8[4:3],
{1},
{2}1,1,
{2}8,8,
{1}1h[2:1]/8h[2:1],
{4}1/8,1/8,1/8,,
{4}2b,2,2,,
{2}3,3,
{4}4,4,4,,
{1}4/5,
{4}6,6,6,,
{2}7,7,
{4}8,8,8,,
{2}1/8,1/8,
{1}2b/7b,
{4}6,6,6,,
{2}5/6,5/6,
{4}4,4,4,,
{2}3/4,3/4,
{4}2,2,2,,
{2}1/2,1/2,
{4}8,8,8,,
{2}1/8,1/8,
{4}2,2,2,,
{4}3,3,3,,
{4}4,4,4,,
{4}5,5,4/5,,
{4}6,6,6,,
{4}7,7,7,,
{4}8,8,8,,
{4}1,1,1,,
{1}1h[2:1]/8h[2:1],
{2}1/8,2,
{1}1h[2:1]/2h[2:1],
{2}1/2,8,
{1}7h[2:1]/8h[2:1],
{1}1x,
{2}B8,B1,
{2}B7,B2,
{2}B6,B3,
{2}B5,C1hf[4:3],
{1},
{1},
{1},
E
&inote_3=
(168){1},
{1},
{1}3h[1:1],
{1}4h[1:1],
{1}5h[1:1],
{1}6,
{4}7,7,8,8,
{4}1,1,2,2,
{4}3,4,5,6,
{4}7,8,1,2,
{1}3<6[8:3],
{4}7x,7x,1/8,2b/7b,
{8}6,,5/7,,6,6,5/6,,
{8}3,,2/4,,3,3,3/4,,
{8}6,6x,,7x,,8x,,1x,
{8},2x,,3x/4x,3x/4x,,4/5,,
{8}3,,2/4,,3,3,3/4,,
{8}6,,5/7,,6,6,5/6,,
{8}3,3x,,2x,,1x,,8x,
{8},7x,,6x,5x/6x,,4b/7b,,
{4}3h[2:1],4,4,3/4,
{8}5,5,5,,4,4,4,,
{4}6h[2:1],5,5,5/6,
{8}4,4,4,,3,3,3,,
{4}2h[2:1],1,1,1/2,
{8}8,8,8,,1,1,1,,
{4}7h[2:1],8,8,7/8,
{8}1,1,1,,8,8,1/8,,
{1}7-3[8:3],
{8}2,2x,,1x,,8x,,7x,
{1}7-3[8:3],
{8}2,2x,,1x,,1/8,1/8,,
{1}2-6[8:3],
{8}7,7x,,8x,,1x,,2x,
{8},3x,,4x,,5x,5x,,
{4}4/5,3/6,2/7,1b/8b,
{1}7h[1:1],
{1}8h[1:1],
{1}1h[1:1],
{2}2,1/2,
{2}3,4,
{2}5,6,
{2}7,8,
{4}1,1/8,2/7,3/6,
{1}4x>1[8:3]/5x<8[8:3],
{8}1/8,1/8,1/8,,2/7,2/7,2b/7b,,
{4}E1,E2,E3,E4,
{4}E5,E6,E7,,
{1}8x<5[8:3],
{4}3,3,4b/5b,,
{4}E5,E4,E3,E2,
{4}E1,E8,E7,,
{1}5x<8[8:3],
{4}2,2,1,1,
{1}1b-5[8:3]/8b-4[8:3],
{4}6,5/6,4/7,4/7,
{8}8,8,8,,1,1,1,,
{4}2,1/2,3/8,3/8,
{8}4,4,4,,5,5,5,,
{4}6b,7/8,1/6,1/6,
{8}5,5,5,,4,4,4,,
{4}3,1/2,3/8,3/8,
{8}4,4,4,,4/5,4/5,4b/5b,,
{2}5h[4:1]/6h[4:1],7h[4:1]/8h[4:1],
{8}1/2,1x/2x,,3x/4x,,5x/6x,,7x/8x,
{2}7h[4:1]/8h[4:1],5h[4:1]/6h[4:1],
{8}3/4,3x/4x,,1x/2x,,7x/8x,7x/8x,,
{8}5/6,5x/6x,,7x/8x,,1x/2x,,3x/4x,
{8},5x/6x,,7x/8x,,1x/2x,,3x/4x,
{2}3h[4:1]/4h[4:1],5h[4:1]/6h[4:1],
{2}3h[4:1]/4h[4:1],2/5,
{1}1-4[8:3]*-6[8:3],
{1}5-2[8:3]*-8[8:3],
{1}1-4[8:3]*-6[8:3],
{4}5x,4x/5x,3/6,2/7,
{4}8b,7,6,5,
{4}4,3,2,1,
{8}1/8,1/8,,2/7,2/7,,3/6,3/6,
{8},4/5,4/5,,3/6,,7,,
{8}7/8,7/8,,1/2,1/2,,3/4,3/4,
{8},5/6,5/6,,4/5,4/5,4/5,4/5,
{4},3bqq5[2:3]/6bpp4[2:3],,,
{1},
{1},
{1},
{1},
E
&inote_4=
(168){1},
{1},
{4}6h[2:1],,5,4,
{4}3h[2:1],,4,5,
{4}6h[2:1],,5,4,
{4}3h[2:1],,4,4/5,
{8}6,6h[4:3],,5,,5,,4,
{8}3,3h[4:3],,4,,4,,5,
{8}6,6h[4:3],,5,,5,,4,
{8}3,3h[2:1],,4,,5,5,,
{2}6>3[4:1],2<7[4:1],
{4}5,1/8,4/5,2b/7b,
{8}8,8,1,1,6,6,5,7,
{8}2,2,8,8,4,4,5,3h[2:3],
{8},8x,,8x,,1x,,1x,
{8},7x,,8x,8x,,4/7,,
{8}2,2,1,1,4,4,5,3,
{8}8,8,2,2,6,6,5,7h[2:3],
{8},2x,,2x,,1x,,1x,
{8},2x,,1x,,2b/6b,2b/6b,,
{4}8-4[8:1],2-6[8:1],7-4[8:1],1,
{8}1x,2x,3x,4x,5x,6x,7x,8x,
{4}1-5[8:1],7-3[8:1],2-5[8:1],8,
{8}8x,7x,6x,5x,4x,3x,2x,1x,
{4}8-4[8:1],2-7[8:1],6-3[8:1],1,
{8}1x,2x,3x,4x,5x,6x,7x,8x,
{4}1-5[8:1],7-2[8:1],3-6[8:1],8,
{8}8x,7x,6x,5x,4x,3x,2x/6x,,
{16}7,,7h[16:3],,,5h[16:3],,,4h[16:3],,,2h[16:3],,,8h[1:1],,
{8},6x,,6x,,3x,,3x,
{16}2,,2h[16:3],,,4h[16:3],,,5h[16:3],,,7h[16:3],,,1h[4:3],,
{8},3x,,3x,,6x,6x,,
{16}7,,7h[16:3],,,5h[16:3],,,4h[16:3],,,2h[16:3],,,8h[1:1],,
{8},6x,,6x,,3x,,3x,
{8},1x/2x,,3x/4x,,6,6h[4:1],,
{4}8h[4:1],1h[4:1],3-8[8:1],6x,
{8}7h[1:2],,,,,,,5,
{8}5,,,,,4,,2,
{8}2h[1:2],,,,,,,4,
{4}4,,,5,
{4}8x,4/6,1,3/5,
{4}8,4/6,1,3/5,
{4}8,4/6,1,3/5,
{8}7,7,1,1,8w4[4:1],,,,
{1},
{8}4,3,5,6,4,,8b,,
{4}2-5[8:1],6-1[8:1],2-5[8:1],6-1[8:1],
{4}2-5[8:1],6-1[8:1],2-6[8:1],8h[4:1],
{8}1,1,,E1,,E8,,E7,
{8},E6,,E5,,4/6,4/6,,
{4}7-4[8:1],3-8[8:1],7-4[8:1],3-8[8:1],
{4}7-4[8:1],3-8[8:1],7-3[8:1],1h[4:1],
{8}8,8,,E1,,E2,,E3,
{8},6,6,4,4-1[8:1],,5<4[8:5],,
{1}C1f,
{16}5h[16:3]/6,,,4h[16:3],,,3h[16:3],,,2h[16:3],,,1,,,,
{8}5,6,4,3,8,7,1,2,
{16}3/4h[16:3],,,5h[16:3],,,6h[16:3],,,7h[16:3],,,8,,,,
{8}4,3,5,6,1,2,8,7,
{16}7/8h[16:3],,,1h[16:3],,,2h[16:3],,,3h[16:3],,,4,,,,
{8}8,7,1,2,5,6,4,3,
{16}1h[16:3]/2,,,8h[16:3],,,7h[16:3],,,6h[16:3],,,5,,,,
{8}1,2,8,7,4,3,5,6,
{16}5/7,,5h[8:1]/7h[8:1],,,4h[8:1]/5h[8:1],,,2h[8:1]/4h[8:1],,,1h[8:1]/8h[8:1],,,2/7,,
{8}2/7,8,,8,2/7,1,,1,
{16}2/4,,2h[8:1]/4h[8:1],,,4h[8:1]/5h[8:1],,,5h[8:1]/7h[8:1],,,1h[8:1]/8h[8:1],,,2/7,,
{8}2/7,1,,1,2x/8x,3x/7x,4x/6x,,
{8}3/7,8b,,8b,2/6,1b,,1b,
{8}4/6,8b,,8b,3/5,1b,,1b-5[8:1],
{8},7,8-4[8:1],,,2,1-5[8:1],,
{8},7,8-4[8:1],,,1,1,,
{8}3/6-3[8:1],3-8[8:1]/6,,,,1x/7x,1x/7x,,
{8}3-6[8:1]/6,3/6-1[8:1],,,,2x/8x,2x/8x,,
{8}3-8[8:1]/6,3/6-1[8:1],,,,2x/7x,2x/7x,,
{16}1b,8b,1b,8b,1b,,2x/7x,,,,4/5,,4/5,,,,
{4}3/7-4[8:1],2-5[8:1],8-4[8:1],1-5[8:1],
{4}6-3[8:1],2-7[8:1],8h[4:1],1b,
{8}3/4,2/5,,5/6,4/7,,3/4,2/5,
{8},5/6,4/7h[4:1],,1,1,8,8,
{8}7/8,1/6,,1/2,3/8,,7/8,1/6,
{16},,1/2,,3/8,,,,4,5,4,5,3,6,3h[8:3],,
{4},C1f,,,
{1},
{1},
{1},
E
&inote_5=
(168){1},
{48}1x/5xh[24:5],,,,,1x,,,1x,,1xs5[8:3],,,,,,,,,,,,,,,,,,,,,,,,,,,,,,,,,,,,,,
{1}6<3[4:3],
{1}6<3[4:3],
{1}6<3[4:3],
{4}6<3[8:3],,,4/5,
{8}6,6h[2:3],,E6,,E5,,E4,
{8},E3,,E2,,E1,,2/7,
{8}1/8,7,6,5,4,3,2,1/8,
{48}7,,,2,,,7,,,2,,,7,,,2,,,7,,,2,,,8,,,1,,,8,,,1,,,7,,6,,5,,1,,2,,3,,
{1}4b/8b>7[4:3],
{8}1,2,3,4,5w1[8:1],4/6,5b,,
{16}3/7,,3/7,,8,2,8,2,8,7,6,5,8,1,2,3,
{16}4/6,,4/6,,7,5,7,5,8,7,6,5,2/4,,2/4-8[8:1],,
{8}1,3-1[8:1]/4,,3/4-8[8:1],,3-1[8:1]/4,,3/4-8[8:1],
{8},3-1[8:1]/4,,3/4,4,2/5,1b/6b,,
{16}2/8,,2/8,,1,7,1,7,1,2,3,4,1,8,7,6,
{16}3/5,,3/5,,2,4,2,4,1,2,3,4,5/7,,5-1[8:1]/7,,
{8}8,5/6-8[8:1],,5-1[8:1]/6,,5/6-8[8:1],,5-1[8:1]/6,
{8},5/6,,5/6,7,1/8,2b/7b,,
{8}3/4,3,2/3,3,3/4,3,3/7,3,
{16}6,5,7,3,4,2,6,5,7,3,4,2,8,,8,,
{8}4/6,6,6/7,6,5/6,6,1/6,6,
{16}2,4,2,4,3,5,3,5,4,6,4,6,5,7,5,,
{8}3b/8b,3,3/5,3,2/3,3,3/7,3,
{16}6,5,7,3,4,2,6,5,7,3,4,2,8,,8,,
{8}4/6,6,6/7,6,5/6,6,1/6,6,
{16}2,4,2,4,3,5,3,5,4,6,4,6,1b,,,,
{16}3/7,,3/7,,2,4h[8:1],,3,5h[8:1],,4,6h[8:1],,5,7-5[8:1],,
{8}3,7b-1[8:1],4,7b-5[8:1],3,7b-1[8:1],4,7b,
{16}4,,4,,7,5h[8:1],,6,4h[8:1],,5,3h[8:1],,4,2-4[8:1],,
{8}6,2b-8[8:1],5,2b,7-3[8:1],1,3b/7b,,
{16}1/5,,1/5,,2,4h[8:1],,3,5h[8:1],,4,6h[8:1],,5,7-5[8:1],,
{8}3,7b-1[8:1],4,7b-5[8:1],3,7b-1[8:1],4,7b-5[8:1],
{8}3,7b-1[8:1],4,7bV58[4:1],3,7,4,4,
{32}3-8[8:1],,,,2,,,,7-3[8:1],,,,6,,,,1w5[8:1],,,,8,,,,1b,C1,,,,,,,
{8}3b/8b,,,,,,,2/6,
{8}2/6h[8:5],,,,,5h[8:3],,4,
{8}4h[1:1],,,,,,,3,
{4}3h[2:1],,6,4/5,
{4}4b/5h[4:11],E6,,E7,
{4},E8,,E1,
{4},E2,,4x,
{8}7,7,3,3,6,6,4<3[4:3]/5,,
{1}C1f,
{16}5,4,5,4,5,4,5,4,5,4,5,4,3b/6b,,,,
{16}6,5,4,3,6,5,4,3,E8,B8,B1,E2,E6,B5,B4,E4,
{16}7,8,1,2,7,8,1,2,E8,B7,B3,E4,5xh[8:11],,,,
{32},,,,8x,7x,6x,,,,,,8x,7x,6x,,,,,,8x,7x,6x,,,,,,8x,7x,6x,,
{16},,8b,,,,3/6,,4,5,4,5,4,5,4,5,
{16}3,4,5,6,3,4,5,6,E2,B1,B8,E8,E4,B4,B5,E6,
{16}2,1,8,7,2,1,8,7,E2,B2,B6,E6,4xh[8:9],,,,
{32},,,,1x,2x,3x,,,,,,1x,2x,3x,,,,,,1x,2x,3x,,,,,,1b,,,,
{8},1/8,2/7,3/6,4/5p4[4:1],,4>5[8:5],,
{1}C1f,
{16}1b,4,3,8,5,6,1,7,3-1[8:1],5,1-5[8:1],8,3,,,,
{16}8x,7,6,4/5,3,2,1/5,6,7,1/8,2,3,4/7,,4/7,,
{16}8b,5,6,1,4,3,8,2,6-8[8:1],4,8-4[8:1],1,6,,,,
{16}1x,2,3,4,5/6,7,8,1,5,4,3,2,1/8,7,6,5,
{16}2b,1,3,8,5,6,2,1,3-1[8:1],4,1-5[8:1],8,3,,,,
{16}8x,7,6,4/5,3,2,1/5,6,7,1/8,2,3,4/7,,4/7,,
{16}8b,5,6,1,4,3,7,8,6-8[8:1],5,8-4[8:1],1,6,,,,
{32}1x,,2,,3,,4,,5/8,,7,,6,,5,,2,3,4,5,6,7,8,1,2b/6b,,,,,,,,
{16}3/7,,3/7,,4,6h[8:1],,2,8h[8:1],,3,5h[8:1],,1,7-5[8:1],,
{8}4,7bV13[8:1],1,7b-5[8:1],5,7bV13[8:1],1,7b,
{16}5,,4x/6x,,5,3h[8:1],,7,1h[8:1],,6,4h[8:1],,8,2-4[8:1],,
{8}5,2bV86[8:1],8,2b,4w8[8:1],3x/5x,4b,,
{32}2,,,,7bV13[8:1],6,5,,1,,,,7b,,,,4,,,,7bV13[8:1],6,5,,1,,,,7b,,,,
{32}4,,,,7bV13[8:1],6,5,,1,,,,7b,,,,4,,,,7b-3[8:1],6,5,,1,,,,7b,,,,
{32}4,,,,5/6,,,,4b/7b,E8,B8,B1,E2,,,,,,,,3/4,,,,2b/5b,E2,B1,B8,E8,,,,
{32},,,,5/6,,,,4b/7b,E8,B8,B1,E2,,,,,,,,3/4,,,,1b/6b,,,,,,,,
{16}2,1,3V15[16:3],8,,,5-7[8:1],,,,8,,8,,,,
{16}7,8,6V84[16:3],1,,,4-2[8:1],,,,1,,1,,,,
{16}2,1,3V15[16:3],8,,,5-7[16:1],,,,8,,1/7x,,,,
{16}8b,8b,8b,8b,8b,,1/7,,,,2/6,,3,5,3,5,
{4}4>8[4:1],8<4[4:1],4>8[4:1],8<4[4:1],
{4}4V28[4:1],8V64[4:1],4,8,
{32}1b/7b,6,5,4,1,,,,,,,,2b/8b,3,4,5,8,,,,,,,,1b/7b,6,5,4,1,,,,
{32},,,,2b/8b,3,4,5,8,,,,,,,,7b,,8,,7b,,8,,7b,,8,,7b,,,,
{32}1b/6b,5,4,3,1,,,,,,,,3b/8b,4,5,6,8,,,,,,,,1b/6b,5,4,3,1,,,,
{32},,,,3b/8b,4,5,6,8,,,,,,,,7,,2,,7,,2,,1/8,,1/8,,1/8h[32:11],,,,
{32},,,,,,,,1bs5[4:9]/7b,2/6,3/5,4>6[32:69],,,,,,,,,,,,,,,,,,,,,
{1},
{1},
{1},
{1},
E
