&title=isophote
&wholebpm=160
&artist=パソコン音楽クラブ feat.ぷにぷに電機
&des=Jack
&shortid=11376
&genre=maimai
&cabinet=DX
&version=maimai DX UNiVERSE PLUS
&chartconverter=Neskol
&lv_2=3
&des_2=
&lv_3=7
&des_3=
&lv_4=10
&des_4=翠楼屋
&lv_5=13
&des_5=Jack
&des_6=
&inote_2=
(160){1},
{1},
{1}4x,
{1},
{1}4,
{1},
{1}5,
{1},
{1}4/5,
{1},
{1}4x,
{1}3,
{1}2,
{1}1,
{1}8,
{1}7,
{1}6,
{1}4/5,
{2}6,6,
{1}6,
{1}7,
{1}7/8,
{2}2,2,
{1}2,
{1}3,
{1}3/4,
{1}3h[1:1]/4h[1:1],
{1},
{1}1h[1:1]/2h[1:1],
{1},
{1}7h[1:1]/8h[1:1],
{1},
{1}5h[1:1]/6h[1:1],
{1},
{2}7,7,
{1}7,
{1}7h[1:1]/8h[1:1],
{1},
{2}1,1,
{1}1,
{1}1h[1:1]/2h[1:1],
{1},
{2}3,3,
{1}3,
{1}3h[1:1]/4h[1:1],
{1},
{2}6,6,
{1}6,
{1}5h[1:1]/6h[1:1],
{1},
{1}7b,
{2}8,8,
{1}7/8,
{2}6,6,
{1}5/6,
{2}3,3,
{1}3/4,
{2}2,2,
{1}1/2,
{2}1,1,
{2}2,2,
{1}3,
{1}3/4,
{2}5,5,
{2}6,6,
{1}7,
{1}7/8,
{1}8-5[4:3],
{1},
{1}1-5[4:3],
{1},
{1}7-4[4:3],
{1},
{1}3-7[4:3],
{1},
{4}8,8,8,,
{2}7/8,7/8,
{4}6,6,6,,
{2}5/6,5/6,
{4}4,4,4,,
{2}3/4,3/4,
{4}2,2,2,,
{1}1b/8b,
{4}1,1,1,,
{4}2,2,2,,
{4}3,3,3,,
{4}4/5,4/5,4/5,,
{4}6,6,6,,
{4}7,7,7,,
{4}8,8,8,,
{4}1/8,1/8,1/8,,
{1}2xh[1:2]/7xh[1:2],
{1},
{1},
{1},
{1}B1/B8,
{1}B2/B7,
{1}B3/B6,
{1}C1xh[4:3],
{1},
{1},
{1},
E
&inote_3=
(160){1},
{1},
{1}1>6[1:1],
{1},
{1}8<3[1:1],
{1},
{1}2>5[8:3],
{1}6<1[8:3],
{1}2qq5[4:5],
{1},
{1}6h[1:1],
{1}5h[1:1],
{1}4h[1:1],
{1}3,
{1}2h[1:1],
{1}1h[1:1],
{1}8h[1:1],
{2}7,1/8,
{4}7,7,7/8,,
{4}2,2,1/2,,
{4}7,7,7/8,,
{4}1,1,2/8,,
{4}3,3,3/4,,
{4}6,6,5/6,,
{4}3,3,3/4,,
{4}5,4,3/6,,
{2}7h[2:1],8,
{2}2h[2:1],1,
{2}7h[2:1],8,
{2}1h[4:1]/2h[4:1],1/2,
{2}3h[2:1],4,
{2}6h[2:1],5,
{2}3h[2:1],4,
{2}4h[4:1]/5h[4:1],4/5,
{4}3,3,4,,
{4}6,6,5,,
{4}3,3,4,,
{4}5,5,4/6,,
{4}7,7,8,,
{4}2,2,1,,
{1}1>4[8:3]/8<5[8:3],
{1}C1,
{4}E7,B6,B5,,
{4}E3,B3,B4,,
{4}E7,B6,B5,,
{1}B2/B7,
{4}B4,B3,B2,,
{4}B5,B6,B7,,
{4}E4,B3,B2,,
{4}E6,B6,B7,B8,
{1}C1,
{4}7b,7,7/8,7/8,
{4}2,2,1/2,1/2,
{4}3,3,4,4,
{4}5,5,4/6,,
{4}7h[4:1],8,7/8,,
{4}2h[4:1],1,1/2,,
{4}3,3,4,4,
{4}5,5,4/6,,
{4}3,3,3/4,3/4,
{4}6,6,5/6,5/6,
{4}7,7,8,8,
{4}1,1,2/8,,
{4}3h[4:1],4,3/4,,
{4}6h[4:1],5,5/6,,
{4}7,8,1,2,
{4}3,4,5,6,
{1}7b<4[8:3],
{1}3>8[8:3],
{1}7p3[8:3],
{1}2>5[8:3],
{1}7p3[8:3],
{1}2q6[8:3],
{1}7<4[8:3],
{1}3>8[8:3],
{4}7,7,7/8,,
{4}2,2,1/2,,
{4}7,7,8,8,
{4}1,1,2/8,,
{4}3,3,3/4,,
{4}6,6,5/6,,
{4}3,3,4,4,
{4}5,5,4/6,,
{1}7-4[8:3],
{4}3,3,5,5,
{1}4-8[8:3],
{4}7,7,1,1,
{1}8-4[8:3],
{4}3,3,5,5,
{1}4-1[8:3],
{4}8,8,1b/8b,,
{1}2h[1:1],
{1}1h[1:1],
{1}8h[1:1],
{2}7,7/8,
{1}6h[1:1],
{1}5h[1:1],
{1}4h[1:1],
{1}3-6[8:3],
{1},
{1},
{1},
E
&inote_4=
(160){1},
{1},
{4}4h[1:1],,,6>4[4:1],
{4},,,4,
{4}5h[1:1],,,3<5[4:1],
{4},,3,3<5[4:1],
{4},,3,3<5[4:1],
{4},,5,5,
{2}4h[1:1],5h[1:1],
{2},B3,
{8}2h[4:1]/4h[4:1],,,2h[4:1]/4h[4:1],,,2>4[4:1]/4,,
{4}5h[2:1],,,6,
{8}5h[4:1]/7h[4:1],,,5h[4:1]/7h[4:1],,,5/7<5[4:1],,
{4}4h[2:1],,,3<5[4:1],
{4}6h[2:1],,,7<5[4:1],
{4}4h[2:1],,,3qq4[4:3]/5pp4[4:3],
{1},
{1}4b,
{8}3,4,5,6h[8:3],,,,,
{8}3,4,5,6h[8:3],,,,,
{8}3,4,5,6h[8:3],,,,,
{8}6,5,4,3h[8:3],,,,,
{8}3,4,5,6h[8:3],,,5,,
{8}3,4,5,6h[8:3],,,5,,
{8}3,4,5,6h[8:3],,,5,,
{8}6,5,4,3-5[8:1]/5h[4:1],,,,,
{8}6,,5/6,5h[4:1]/6h[2:1],,,,,
{8},5/7,,6,6,,3/5,,
{8}2h[8:5]/4h[8:3],,,,,,,3/4,
{8},5,,4/5,,3/6,3/6,,
{8}4/7,,5/6,5h[4:1]/6h[4:1],,,,4/7h[4:1],
{8},4,,5/6,,4,4,,
{8}3h[8:5],,4,4h[4:1],,,3/4,,
{8}5,,4/6,4/6,,3/5,3p5[2:1]/5,,
{4}4,,,5p7[2:1],
{4}6,,,7p1[2:1],
{4}8,,,1/7,
{8}2h[4:1]/6h[4:1],,,3h[4:1]/5h[4:1],,,3p6[2:1]/5,,
{4}4,,,6q3[2:1],
{4}5,,,3qq8[4:3],
{1}4h[4:3],
{2}8,1x/7x,
{8}4/6,4h[4:1]/6,,7h[4:1],,5h[2:1],,8h[8:3],
{4},5,4/7,5/6,
{8}4,4h[4:1],,3h[4:1],,2q7[2:1],,,
{4},,8,2/8,
{8}3/7,3/7h[2:1],,5h[4:1],,,,4/6,
{8},3h[2:1]/5,,4h[4:1],,,3/4,,
{8}5/7,5/7h[4:1],,6h[4:1],,5h[4:1],,4,
{8},3h[2:1],,5h[4:1],,,3-7[4:1]/5,,
{8},,,,,2x/8x,2x>5[4:1]/8x,,
{4}6<1[4:1],,5,1<6[4:1]/5>2[4:1],
{4},,2/6,3>8[4:1]/5,
{4}4<7[4:1],,8,7<4[4:1]/8>3[4:1],
{4},,3x/4x,1<6[4:1]/2p5[4:1],
{4},,4x,2p5[4:1]/6<1[4:1],
{4},,1x,2/8,
{8}3/7,,6,6h[4:1],,8h[4:1],,1h[4:1],
{8},3,3,,4/5,,3/6x<1[4:1],,
{4}2>5[4:1],,1,1<6[4:1]/5>2[4:1],
{4},,2/6,5<8[4:1],
{4}2>5[4:1],,8,5>2[4:1]/8<5[4:1],
{4},,7x/8x,1>4[4:1]/6<1[4:1],
{4},,1x/4x,3>8[4:1]/8<5[4:1],
{4},,5x/8x,1,
{8}2h[4:1]/8h[4:1],,,3h[4:1]/7h[4:1],,,4h[4:1]/6h[4:1],,
{8},5h[4:1],,,5-7[8:1],,,,
{8}3,4,5,6h[4:1],,5,5,,
{8}3,4,5,6h[4:1],,5,5,,
{8}3,4,5,6h[4:1],,5,5,,
{8}6,5,4,3h[4:1],,5,5,5,
{4}2h[1:1],3,1,3,
{4}7h[1:1],8,6,8,
{4}1h[4:5],2,8,3,
{4}7,4-8[4:1],,,
{8}3,3,3-1[4:1],,5,5,5-3[4:1],,
{8}1,1,1,,2/4,,3/5,,
{8}6,6,6-8[4:1],,4,4,4-6[4:1],,
{8}8,8,8z4[8:3],,,,,,
{8}2,2,2-6[4:1],,7>2[4:1],,,,
{8}4,4,4-8[4:1],,7<4[4:1],,,,
{4}3,2>5[4:1]/4-8[4:1],,,
{4}5/8,7,4h[4:1]/6-4[8:1],,
{4}1x/2x,3>8[4:1],4<7[4:1],,
{4}8,7qq4[2:1],8,,
{4}3qq8[2:1],,4,4,
{4}4q8[4:1]/8q4[4:1],,,2>5[4:1],
{4}6<1[4:1],,5xh[4:1],1p5[4:1],
{4}4>1[4:1],,5h[4:1],8>3[4:1],
{4}4<7[4:1],,4h[4:1],1<6[4:1],
{4}5>2[4:1],,5h[4:1],2z6[1:1],
{1}C1f,
{1},
{4}E6,B7/E7,,E5,
{4}E4,B2/E3,,E5,
{4}6,6h[4:3],,B5,
{4}4,3h[4:3],,B4,
{4}5,6h[4:3],,B2,
{2}1h[4:3],C1xh[4:1]/B2,
{1},
{1},
{1},
E
&inote_5=
(160){1},
{1},
{4}3>5[4:3],4,,4,
{4}4>6[4:3],5,,5,
{4}5>7[4:3],6,,6,
{4}6<4[4:3],5,,5,
{4}5<3[4:3],4,,4,
{4}4<2[4:3],3,,3,
{4}3pp6[4:3],7,,7,
{4}7p2[8:3],8h[2:1],,1-5[8:1],
{8}1/8,,6,5/7,,3,2/4-8[8:1],,
{8}1h[8:3],,,8,7,6p4[8:3],,2,
{8},,1,8,2,3q5[8:3],6,7h[2:1],
{8},,,6,5,8z4[8:3],3,2h[2:1],
{8},,,3,4,1s5[8:3],6,7h[2:1],
{8},,,3,,,2<7[8:1]/6>3[8:1],,
{8}2/6,,,E1/E2/E8,,,B3/B6,,
{8},E5,,,4/5p4[4:1],,4>5[2:1],,
{4}C1f,,,4/5,
{16}3h[8:3],,4,,5,,6h[8:5],,E1,E8,E7,E6,E5,,,,
{16}3h[8:3],,4,,5,,6h[8:5],,E2,E1,E8,E7,E6,,,,
{8}3,4,5,6,2,3,4,5,
{16}6h[8:3],,5,,4,,3h[8:5],,E1,E2,E3,E4,E5,,,,
{16}6h[8:3],,5,,4,,3h[8:5],,E8,E1,E2,E3,E4,,,,
{16}6h[8:3],,5,,4,,3h[8:5],,E7,E8,E1,E2,E3,,,,
{8}6h[8:3],5,4,3-5[8:1],,,C1,,
{8}4/6-4[8:1],,3,2-6[8:1],,6,7h[4:1],,
{8}5,4,3,2/4-8[8:1],,1,1>4[8:1],,
{8}6h[4:1],,5,4/7-2[8:1],,3,3-8[8:1],,
{8}4,5,6,5/7,,1/8,2/7,,
{8}4-2[8:1]/5,,8,7-4[8:1],,3,2h[4:1],,
{8}4,5,6,5-1[8:1]/7,,8,8<5[8:1],,
{8}3h[4:1],,4,2/5h[4:1],,4,3<6[8:1]/6,,
{8}7,8,1,2/7,,2/7,4-1[8:1]/5-8[8:1],,
{8}4/5,,2/7,2>6[4:1]/7,,6<2[4:1],,2,
{8},4,4h[4:1],,5-1[8:1],,6<4[8:3],,
{8}5,,,1,,3pp6[8:5]/7pp2[8:5],,,
{8},,,,,,1/5,4/8,
{4}3<6[8:1]/7,6>3[8:1],8,1-4[8:1],
{8}8-5[8:1],,4,4h[4:1],,3>5[8:7],,,
{1}C1xh[1:1],
{2}4-8[8:1],2h[4:1]/6h[4:1],
{8}3V52[4:1],5,6,7h[4:1],,8,1/6,,
{8}2-5[8:1],5-3[8:1],6,7h[4:1],,1,2/8,,
{8}6V47[4:1],4,3,2h[4:1],,1,3/8,,
{8}7-4[8:1],4-6[8:1],3,2h[4:1],,8,1/7,,
{8}2V48[4:1],4,5,6h[4:1],,1,2/8,,
{8}2-5[8:1],5-3[8:1],6,7h[4:1],,1,2/8,,
{8}7V51[4:1],5,4,3h[4:1],,8,1/7,,
{8}7-4[8:1],4-6[8:1],3,2h[4:1],,8,1/7,,
{8}C1,,,5h[4:1],,4,2/7,,
{8}1/2,1>4[8:1]/8,7/8,6h[4:1],,5,8,7,
{8}5/6,4/5<8[8:1],3/4,2h[4:1],,1,2,3,
{8}3/4,4>1[8:1]/5,5/6,7h[4:1],,8,5,6,
{8}7/8,1/8<5[8:1],1/2,3h[4:1],,4,3,2,
{8}1/2,3-8[8:1]/8,4/7,6h[4:1],,5,6,7,
{8}7/8,1/6-1[8:1],2/5,3h[4:1],,4,4/5,,
{8}2-5[8:1],1,2,7-4[8:1],8,7,3,2,
{8}1>7[4:1],4<4[64:21],1,,,,8b,,
{8}2/6,,2/4-8[8:1],4,2,,2/7<4[8:1],7,
{8}3,,3,4,3,5<3[8:3],3,5,
{8}4,,4,8,4,6,4-1[8:1],2,
{8}5,,5,4,5,1>5[4:1],5,1,
{8}6,,6,5,6,1>6[16:5],6,1,
{4}7,7,5-1[8:1]/7,7,
{8}8<5[8:1],1,2,3>8[8:1],4,5,6>3[8:1],7,
{8}8,1<6[8:1],2,3,4q5[4:1],,5<4[2:1],,
{4}C1f,,,4/5,
{8}6h[8:1],5h[8:1],4h[8:1],3h[8:5],,,E5,,
{8}6h[8:1],5h[8:1],4h[8:1],3h[8:5],,,E5,,
{8}6h[8:1],5h[8:1],4h[8:1],3h[8:5],6,6,6,6,
{16}5,,3,,4,,6,6,5,,7,,5,,4/6,,
{16}3,,6,,5,,3,3,4,,2,,4,,3/5,,
{16}6,,3,,4,,6,6,5,,7,,5,,4/6,,
{8}3,6,5,4q5[4:1],3,,,,
{16}8,,7,,6,,5,,,2,1,2,,6,5,6,
{16}4,,3,,2,,1,,7,8,7,8,,3,4,3,
{16}5,,6,,7,,8,,2,2,,4/5,,7,7,,
{16}1,,2,,3,,4,,7,7,4,4,5,5,2,2,
{16}8,,7,,6,,5/7,,4,5,,5,,3,,1,
{16}1,,2,,3,,2/4,,5,4,5,4,,5/6,,7,
{16}7,,1,,8,,3/4,,5,5,4,,2/6,,3/7,,
{16}6,5,7,,3,4,2,,5,4,5,,2/7,,,,
{8}3/4,2,1,2>5[8:1]/8,,1,8,7,
{8}5/6,7,8,1/7<4[8:1],,8,1,2,
{8}3/5,4,5,6,3/7,3/7-3[8:1],,2-5[8:1]/7,
{8},2/6-1[8:1],,4-8[8:1]/6,,7,6,5,
{8}3/4,2,1,2/8<5[8:1],,3,3,4,
{8}5/6,7,8,1>4[8:1]/7,,6,6,5,
{8}4/6,5,4,3/5,,4,4,5,
{4}4/6-3[8:1],2-7[8:1],5>2[8:1]*<8[8:1],,
{4}1h[1:2],3<5[8:1],,6,
{4},7<5[8:1],,4,
{4}7h[1:1],6>4[8:1],,3,
{4}2h[1:1],3<5[8:1],,6,
{4}6h[1:1],5>3[8:1],,2,
{4}3h[1:1],4<6[8:1],,7,
{4}5h[4:5],2>4[8:1],,6,
{8},,4-1[8:1],,,5,4/6,,
{1},
{1},
{1},
E
