&title=星空パーティーチューン
&wholebpm=230
&artist=OSTER project feat. そらこ
&des=はっぴー
&shortid=11387
&genre=maimai
&cabinet=DX
&version=maimai DX UNiVERSE PLUS
&chartconverter=Neskol
&lv_2=4
&des_2=
&lv_3=8+
&des_3=
&lv_4=11
&des_4=翠楼屋
&lv_5=13+
&des_5=はっぴー
&des_6=
&inote_2=
(230){1},
{1},
{1}1h[8:7],
{1},
{1}1h[8:7],
{1},
{1}8h[1:1],
{1},
{1}8h[1:1],
{1},
{1}1-4[1:1],
{1},
{1},
{1}5,
{1}5-8[1:1],
{1},
{1},
{1}1/8,
{1}1,
{1}1,
{1}2,
{1}2,
{1}3,
{1}3,
{1}3/4,
{1},
{1}5,
{1}5,
{1}6,
{1}6,
{1}7,
{1}7,
{1}1/8,
{1},
{1}B8,
{1}B1,
{1}B7,
{1}B2,
{1}B6,
{1}C1xh[4:3],
{1},
{4},,,7h[1:1]/8h[1:1],
{1},
{4},,,1h[1:1]/2h[1:1],
{1},
{4},,,1h[4:9]/8h[4:9],
{1},
{1},
{1},
{4},,,C1f,
{1},
{1},
{2}8,8,
{1}8,
{2}7,7,
{1}7,
{2}6,6,
{1}6,
{2}5,5,
{1}4/5,
{2}4,4,
{1}4,
{2}3,3,
{1}3,
{2}2,2,
{1}2,
{2}1,1,
{1}1/8,
{2}2,2,
{1}2,
{2}3,3,
{1}3,
{2}4,4,
{1}4,
{2}5,5,
{1}4/5,
{2}6,6,
{1}6,
{2}7,7,
{1}7,
{2}8,8,
{1}1h[4:3]/8h[4:3],
{1},
{1},
{1}1-5[1:1],
{1},
{1}6-2[1:1],
{1},
{1}1-6[1:1],
{4},,,7x,
{4},,,1x/8x,
{4},,,2x/7x,
{1},
{1},
{2},B1,
{2},B2,
{2},B3,
{2},B4,
{2},B5,
{2},B6,
{2},B7,
{2},C1,
{2},8,
{2}8,8,
{2}1,1,
{1}1/8,
{2}7,7,
{1}7,
{2}6,6,
{1}5/6,
{2}4,4,
{1}4,
{2}3,3,
{1}3,
{2}2,2,
{1}2,
{2}1,1,
{1}1/8,
{2}2,2,
{2}3,3,
{1}4,
{1}4/5,
{2}5,5,
{2}6,6,
{1}7,
{1}7/8,
{2}2,2,
{1}1/2,
{2}7,7,
{1}7/8,
{2}1,1,
{2}8,8,
{2}1/8,1/8,
{1}2b/7b,
{8},,,,,,,C1f/B2/B7,
{1},
{1},
{1},
E
&inote_3=
(230){1},
{1},
{1}1>6[1:1],
{1},
{4}7,7,7,,
{2}7x/8x,1x/8x,
{2}1h[4:1]/2h[4:1],1/2,
{2}7h[4:1]/8h[4:1],7/8,
{12}1x/8x,,,,,1x/8x,,,,2x/7x,,,
{1}2x/7x,
{4}6,6,5/6,,
{4}3,3,3/4,,
{4}6,6,5/6,,
{4}4,4,3/5,,
{4}2,2,1/2,,
{1}8<5[2:1],
{4}3,3,3/4,,
{1}4x/5x,
{2}6h[4:1],6,
{2}5h[4:1],5,
{2}4h[4:1],4,
{2}4h[4:1]/5h[4:1],4/5,
{1}6<1[2:1],
{1}2>5[2:1],
{4}6,6,5,,
{4}4,4,3/5,,
{2}2h[4:1],2,
{2}1h[4:1],1,
{2}8h[4:1],8,
{2}1h[4:1]/8h[4:1],1/8,
{1}2>5[2:1],
{1}6<1[2:1],
{4}2,2,1,,
{4}1/8,1/8,2/7,,
{1}7p3[2:1],
{1}2q6[2:1],
{1}7<4[2:1],
{2}3,3/4,
{1}2q6[2:1],
{4}7h[2:1],,8,8x,
{4},7x/8x,,5x/6x,
{4},3x/4x,,1x/2x-5[2:1],
{4},,,6,
{4}6,5/6,,3,
{4}3,3/4,,5,
{4}5,4,4,4bqq1[4:5]/5bpp8[4:5],
{1},
{1},
{2}8h[2:1],1,
{4}1/8,1/8,2/7,2bV41[1:1]/7bV58[1:1],
{1},
{1},
{4}2,2,1/2,8,
{4}7,7/8,6,5,
{4}4,4,3,3,
{4}2,2,1/8,,
{4}7,7,7/8,1,
{4}2,1/2,3,4,
{4}5,5,6,6,
{4}7,7,1/8,,
{2}7h[2:1],8,
{4}7/8,7/8,1/6,,
{2}2h[2:1],1,
{4}1/8,1/8,2/7,,
{4}6,6,5/7,,
{4}3,3,2/4,,
{2}3h[4:1]/5h[4:1],4h[4:1]/6h[4:1],
{4}3/5,3/5,2b/6b,,
{4}7,7,7/8,1,
{4}2,1/2,3,4,
{4}5,5,6,6,
{4}7,7,1/8,,
{4}2,2,1/2,8,
{4}7,7/8,6,5,
{4}4,4,3,3,
{4}2,2,1/8,,
{2}2h[2:1],1,
{4}1/2,1/2,3/8,,
{2}7h[2:1],8,
{4}1/8,1/8,2/7,,
{2}3h[4:1]/5h[4:1],3/5,
{4}4h[4:1]/6h[4:1],,4/6,4b-1[2:1]/6b-1[2:1],
{1},
{4}2/8,2/8,3/7,3/7,
{12},,,,,,5x/6x,,,,,5xh[12:13]/6xh[12:13],
{1},
{12},,,,,,4/5,,,,,4xh[12:13]/5xh[12:13],
{1},
{12},,,,,,3/4,,,,,3x/4x,
{4},,4x/5x,4x-1[2:1]/5x-8[2:1],
{1},
{4}1/8,,2/7,2x/7x,
{4},1/8,1/8,2/7,
{4}2/7,3/6,3/6,,
{1}E5,
{1}E4,
{1}E3,
{1}E2,
{1}E1,
{1}E8,
{1}E7,
{1}E6,
{2}4h[4:1]/5h[4:1],4b/5b,
{4}3,3,2,2,
{4}1,1,8,8,
{4}7,6,4/5,,
{4}3,3,2/4,,
{4}6,6,5/7,,
{2}4h[4:1]/6h[4:1],3h[4:1]/5h[4:1],
{4}4/6,4/6,3b/7b,,
{4}2,2,1/2,8,
{4}7,7/8,6,5,
{4}4,4,3,3,
{4}2,2,1/8,,
{4}7,7,7/8,1,
{4}2,1/2,3,4,
{4}5,5,6,6,
{4}7,7,1/8,,
{2}7h[2:1],8,
{4}7/8,7/8,1/6,,
{2}2h[2:1],1,
{4}1/8,1/8,2/7,,
{2}4h[4:1]/6h[4:1],4/6,
{4}3h[4:1]/5h[4:1],,3/5,3b-8[2:1]/5b-8[2:1],
{1},
{4}1/7,1/7,2/6,,
{4}3/5,3/5,,4/6,
{4}4/6,,3/5,3b-8[2:1]/5b-8[2:1],
{1},
{4}1,1,2,2,
{4}3,3,4,4,
{4}5,5,6,6,
{4}7,8,1,2,
{12}1b/8b,,,,,,,,1x/8x,,,1x/8x,
{12},,2x/7x,,,2x/7x,,,1x/8x,,,1x>4[24:11]/8x<5[24:11],
{1},
{1},
{1},
E
&inote_4=
(230){1},
{1},
{8}3h[2:1],,,,4h[1:1],,,2h[8:5],
{4},,,3x/5x,
{24}4,,,,,,4,,,,,,5h[8:3]/6,,,,6,,,,,7h[8:5],,,
{4},5,5,4/6,
{4}3,3/4,6,5/6,
{4}3,2/4,6,5/7,
{12}4xh[4:1]/6xh[4:1],,,,,3xh[4:1]/5xh[4:1],,,,2x/4x,,,
{12}1,,,2h[4:1]/6h[4:1],,,,,2x/6x,,,,
{12}3/4,,,4/5,,,6x,,6xh[4:1],,,5xh[3:1],
{4},6,5/6,4/7,
{12}5/6,,,4/5,,,3x,,3xh[4:1],,,4xh[3:1],
{4},3,2x/5x,2/5,
{4}7h[4:1],5,3h[4:1],4,
{4}7h[4:1],8,2h[4:1],1,
{12}1/2,,,3/8,,,7x,,7xp2[3:1],,,,
{3},,1x/8x,
{4}6,8,5/7,6,
{4}3,1,2/4,3,
{4}4/6,4/6,3/5,3/5,
{4}4/6,4/6,3/7,3/7,
{4}2,3,5,4/6,
{4}7,6,4,3/5,
{2}2h[4:1]/6h[4:1],3h[4:1]/7h[4:1],
{4}2h[4:1]/6h[4:1],,3/5,3/5,
{4}5,7,4/8,6,
{4}4,2,1/5,3,
{4}5,4/6,3,2h[4:3]/5,
{4}4,4,5,4/6,
{4}7,8,1/7,6,
{4}2,1,2/8,3,
{4}6h[2:1],5,3h[2:1],4,
{4}5,4/5,3/6,3/6,
{1}2q6[2:1]/7h[4:3],
{4}8,8,7,6,
{1}4h[4:3]/5q1[2:1],
{4}1,1,8,8,
{1}1h[4:3]/7<4[2:1],
{4}1,1,2,1/2h[2:1],
{4},4h[2:1],,6h[2:1],
{4},8,,4/7,
{4}4/7,3/6,2<5[4:3]/5,,
{4},,,8xh[2:1],
{4},2,2/8,3,
{4}3/7,4,4q5[4:5]/6,,
{1},
{4},,,E6,
{4}E7,E8,E1,E2,
{4}E3,E4,E5,C1xh[4:3]/B2/B7,
{1},
{4}1/8,1/8,2/7,,
{4}4b/6b,2,4/6,8,
{4}3/5,1,3/5,8,
{4}5/6,2,4/5,8,
{4}5/7,5/7,2/4,2/4,
{4}4/5,8,3/5,1,
{4}4/6,8,4/6,1,
{4}3/5,8,4/6,1,
{4}3/7,3/7,2/6,2/6,
{4}5h[4:1],6h[4:1],7h[4:1],8h[4:1],
{4}1h[4:1],2h[4:1],3h[4:1],4h[4:1],
{4}3h[4:1],2h[4:1],1h[4:1],8h[4:1],
{4}7h[4:1],6h[4:1],5h[4:1],4,
{4}3,2/4,6,5/7,
{4}3,1/5,6,4/8,
{4}3/7,2/6,1<3[4:3]/5h[1:1],,
{1},
{4}3/4,1,4/5,8,
{4}5/6,2,4/5,8,
{4}5/6,1,3/4,8,
{4}5/7,5/7,2/4,2/4,
{4}3/5,8,5/6,2,
{4}4/5,8,3/4,1,
{4}4/6,8,3/5,1,
{4}3/7,3/7,2/6,2/6,
{2}1>4[4:1],8<5[4:1],
{2}1>4[4:1],8<5[4:1],
{4}3,2,1>4[4:1]/5<8[4:1],,
{2},3x/7x,
{8}4xh[4:1]/6xh[4:1],,,4xh[4:1]/6xh[4:1],,,3xh[4:1]/5xh[4:1],,
{8},2xh[4:1]/4xh[4:1],,,1x/5x,,1b/5b,,
{4},,,E3,
{4}E4,E5,E6,E7,
{12}C1hf[2:1],,,,,,,,,,,1x/8x,
{4},,,2/5,
{12}2h[2:1]/5,,,,,,4h[12:5],,,,,3,
{6},C1f,,,,,
{12}5/6,,,5/6,,,4/7h[12:5],,,,,C1f,
{4},,,1h[2:1]/8h[2:1],
{6},,,2x,2x>7[6:5],,
{4},,,8b,
{4},1,1,1,
{1}1-5[8:3]/8,
{2}5/6,E3/E8,
{2},E2/E7,
{2},E3/E8,
{2},E2/E7,
{2},B3/E8,
{2},E2/B6,
{2},B3/E8,
{4}4/5,4/5,4>1[8:3]/5<8[8:3],,
{12},,,,,,2b/7b,,,,,1xh[3:1]/8xh[3:1],
{4},,2/7,3/6,
{4}4/5,7,6<3[2:1],5,
{4},,,3/6h[4:1],
{4}5,2h[4:1],4,6h[4:1],
{4}5,3h[4:1],4,3/4,
{4}1/2,7/8,5/6,4>1[4:1]/8<5[4:1],
{4},,,1x/5x,
{4}3/4,8,5/6,1,
{4}3/5,8,4/6,1,
{4}3/4,8,5/6,1,
{4}7/8,5/6,3/4,1/2,
{4}3/4,1,4/6,8,
{4}5/6,1,3/5,8,
{4}4/6,1,3/5,8<2[2:1],
{1}C1f,
{4}2h[4:1]/8,4h[4:1],5h[4:1],7h[4:1],
{4}5h[4:1],4h[4:1],2h[4:1],1,
{4}1,2/8,3xV52[2:1]/7xV58[2:1],,
{2},1x,
{4}7x/8x,1/6,2/5,3/4,
{4}5/6,4/7,3/8,1/2qq5[12:7],
{4},,,7,
{4}5/6,3-8[4:1]/4,,,
{2}7>2[4:1],3<6[4:1],
{2}7>2[4:1],3qq5[4:3],
{4},,,7,
{12}6,,,4/5,,,2x/6x,,2xpp5[12:19]/6xpp1[12:19],,,,
{1},
{1},
{4}4x/8x,4/8,3/7,3/7,
{6}4/6,4xh[4:1]/6xh[4:1],,,3xh[4:1]/5xh[4:1],,
{12},,2/6,,,3/4,,,5/6,,,3b/7bq4[12:5],
{1},
{1},
{1},
E
&inote_5=
(230){1},
{1},
{12}1/7,,,,,,3/5,,,,,2/6,
{12},,3,5,,2/6,,,1,8,,8,
{12}1,,,2/6,,,3/7,,4/6,,,4/6,
{4},7,1/8,2pp5[4:3],
{4}6,6,8,7qq4[4:3],
{4}3,3,1,2>5[12:1],
{12}6h[12:5],,,,,8h[3:1],,,,1h[4:1],,,
{12}3,,,4h[4:1]/8h[4:1],,,,,2xh[3:1],,,,
{12}4,,,3/5,,,4/6,,4/6,,,3/7h[3:1],
{4},5h[4:1],4h[4:1],2pp4[6:1],
{12},,,,,,3/5,,3/5,,,2h[3:1]/6,
{4},4h[4:1],5h[4:1],7,
{4}4/8,3,2/6,7,
{12}3/8,,,7,,,2/6,,3,4,,6,
{12}5,,,4/5,,,3/6,,3/6,,,1h[2:1]/8h[2:1],
{3},,3b/6b,
{4}1/7<5[12:1],8,1>3[12:1],8,
{4}7<5[12:1],8,1,1/8,
{4}2>4[12:1],1,8<6[12:1],1,
{4}2>4[12:1],1,8,1/8,
{4}7<5[12:1],8,1>3[12:1],8,
{4}7<5[12:1],8,1,2/4,
{4}3/5,4/6,5/7,5/7,
{4}4/6,3/5,2/4,2/4,
{4}3>1[12:1]/5,4,5<7[12:1],4,
{4}3>1[12:1],4,5,3/5,
{4}6<8[12:1],5,4>2[12:1],5,
{4}6<8[12:1],5,4,4/6,
{4}3>1[12:1],4,5<7[12:1],4,
{4}3>1[12:1],4,5,6h[4:1],
{4}7h[4:1],8h[4:1],1h[4:1],2h[4:1],
{4}3h[4:1],4,4/5,4q1[4:1]/5p8[4:1],
{4},,1/8,3/6,
{12}4,,4,5,,5,3,,3,6,,6,
{12}2,,2,4,,4,3,,3,7,,7,
{12}5,,5,6,,6,4,,4,5,,5,
{12}6,,6,7,,7,8,,8,1,,1,
{12}2,,2,3,,3,4>1[12:1],,,6,,,
{4}7<4[12:1],3,2<7[12:1],6,
{4}5>2[12:1],7,8<1[2:1],1b,
{12},,,,,,,,3x,5x,,2x/6x,
{4},5/7,2/4,5/7h[4:1],
{4}6,4/5,2/3,1/8,
{16}6/7,,,,4/5,,,,2/3,,,,1x,2x,3x,4x,
{16}5x,6x,7x,8x,1x,2x,3x,4x,5x,6x,7x,8x,1x,2x,3x,4x,
{16}5x,6x,7x,8x,1x,2x,3x,4x,5x,6x,7x,8x,1x,,,,
{4}2/4,4/5,5/7,1/8,
{4}5/7,4/5,2/4<3[4:3],C1f,
{1},
{12}4/5,3,2,1/8,7,6,4/5,,2b/7b,,,,
{4}2>5[4:1],5p1[4:1],1p5[4:1],5<8[4:1],
{4}8>3[4:1],3qq5[2:1],6,6,
{12}7,,,7,,,2/7,,8,1,,,
{4}C1/B3/B4/7x,C1/B4/B5/1x,C1/B3/B4/7x,C1/B4/B5/1x,
{4}7<5[12:1],2>4[12:1]/7,2/8p4[12:1],1q5[12:1]/8,
{4}1/6pp4[2:1],2,2,2,
{12}1/5,,,2/7,,,2/7,,1,8,,,
{4}C1/B5/B6/2x,C1/B4/B5/8x,C1/B5/B6/2x,C1/B4/B5/8x,
{4}2h[2:1],1,7h[2:1],8,
{4}2h[2:1],4,7h[4:1],5,
{4}2h[4:1],1h[4:1],8h[4:1],7h[4:1],
{12}5,,5/7,,,,4x/8x,,,5>3[12:1]/6,,,
{4}7,5q1[12:1]/6,7,5>2[12:1]/6,
{4}7,5p1[12:1]/6,7,5/6,
{12}1/8,,,2/6,,2/6,,,1,8,,2/7,
{12},,7,5,,2,4,,,3b/6b,,,
{4}7<4[4:1],4q8[4:1],8q4[4:1],4>1[4:1],
{4}1<6[4:1],6pp4[2:1],3,3,
{12}2,,,3/5,,,2/7,,1,8,,,
{4}C1/B5/B6/2x,C1/B4/B5/8x,C1/B5/B6/2x,C1/B4/B5/8x,
{12}2>4[12:1],,,2/7<5[12:1],,,2/7,,,1,8,1,
{12}8,,,4xh[4:1]/6xh[4:1],,,,,3xh[4:1]/5xh[4:1],,,,
{12}2x/6x,,,3/7,,,2/7,,8,1,,,
{4}C1/B3/B4/7x,C1/B4/B5/1x,C1/B3/B4/7x,C1/B4/B5/1x,
{4}7h[4:1],8,5,4/6,
{12}2h[4:1],,,1,,,4/5,,4x/5x,,,,
{4}7xh[4:1],8h[4:1],1h[4:1],2h[4:1],
{12}3h[4:1],,,4h[4:1],,,5,,3x/6x,,,,
{12}6,,6,1,,1,8,,8,5,,5,
{12}7,,7,1,,1,4>5[4:3],,,C1f,,,
{4},,,1x/8x,
{4}1x/8x,2x/7x,3x/6x,3x/6x,
{12}4/5,6,7,1/8,2,3,4/5,,,,,3x/6xh[6:5],
{4},5,7,8<3[2:1],
{12},,,,,,8x,,,,,3x/6x,
{12},,3x/6x,,,4,5,,5,3,,3,
{12}7,,7,1,,,2/4,,,,,5/7,
{4},1/8,1>6[2:1]/8,5b,
{12},,,8,,,8,,1,,,2/7,
{12},,6,4,,3/7,,,3,5h[1:1],,,
{4},E6,E5,E4,
{12}2x,3,4,7x,6,5,1x,2,3,8x,7,6,
{1}1b,
{12},,,,,,,,3/5,,,2/6,
{6},,,4/6,4/6,,
{12}3/7,,,1,8,1,8,,3x/6x,,,,
{1}2b/7b,
{24},,,,,,,,,,4,5,4,,,,2/7,,,,,,3/6,,
{6},,,4/5,3/6,,
{12}3,4,3,6,5,6,3,4,3,6,5,6,
{24}4,3,2,1,8,7,6,5,4,3,2,1,C1f/8,,,,,,,,,,,,
{12}1x/8x,,,4x/6x,,,3x/5x,,3x/5x,,,2h[4:1],
{12},,4,1,,1,8<2[2:1],,,C1f,,,
{12},,1x,,,,1x/8x,,,1h[4:1],,,
{4}8h[4:1],7h[4:1],6h[4:1],5h[4:1],
{4}4h[4:1],3h[4:1],2h[4:1],1h[4:1],
{12}8,,,2/7,,2/7,,,4>1[4:1]*<8[4:1],5,,,
{4},,1x/8x,2x/7x,
{4}3>8[4:1],8q4[4:1],4q8[4:1],8<5[4:1],
{4}5>2[4:1],2pp8[2:1],6,6,
{12}6,,,4/6,,,2/7,,8,1,,,
{4}C1f/B3/B4/7x,C1f/B4/B5/1x,C1f/B3/B4/7x,C1f/B4/B5/1x,
{12}8h[4:1],,,1,,2/7,2/7,,,3,4,5,
{12}6,,,1bq5[12:1]/8b,,,,,6>3[12:1],,,,
{12}1h[4:1],,,7,,,7,,1,8,,,
{4}C1f/B5/B6/2b,C1f/B4/B5/8b,C1f/B5/B6/2b,C1f/B4/B5/8b,
{4}2h[4:1],1,4,3/5,
{4}7h[4:1],8,5,4/6,
{4}2h[4:1],1h[4:1],8h[4:1],7h[4:1],
{12}6h[4:1],,,5h[4:1],,,4,,3x/6x,,,,
{12}1/8,,3,4,,4,3,,3,5,,5,
{12}1,,1,4,,4,2,,,E3/E4/E5,,,
{12}1/8,,6,5,,5,6,,6,4,,4,
{12}8,,8,5,,5,7,,,E5/E6/E7,,,
{12}1/8,,2,4,,4,5,,5,7,,7,
{12}2,,2,8,,8,1q5[12:1],,,1<2[4:3],,,
{4},,,1xh[4:1],
{12}8x,,,2x/7x,,,3x/6x,,3x/6x,,,,
{4}5<8[12:1],3,2>5[12:1],8,
{4}7>2[12:1],5,4<7[12:1],8,
{4}1>4[12:1],8,8,4/7,
{12}6,,5,7,,1/8,,,4,2,,1/8,
{24},,,,7,,5,,,,2,,4,,,,5,,4,,,,3/6,2/7,
{24}1/8,,,,,,,,,,E2/E8,B2/B7,B3/B6,E4/E6,,,,,,,,,,,
{1},
{1},
{1},
E
