&title=大輪の魂 (feat. AO, 司芭扶)
&wholebpm=137
&artist=魂音泉
&des=Jack
&shortid=11435
&genre=東方Project
&cabinet=DX
&version=maimai DX UNiVERSE PLUS
&chartconverter=Neskol
&lv_2=3
&des_2=
&lv_3=6
&des_3=
&lv_4=9+
&des_4=はっぴー
&lv_5=13
&des_5=Jack
&des_6=
&inote_2=
(137){1},
{1}1,
{1},
{1}8,
{1},
{1}1x/8x,
{2}1,1,
{1}1,
{1}2,
{1}2,
{2}3,3,
{1}3,
{1}4/5,
{2}5,5,
{1}5,
{1}6,
{1}6,
{2}7,7,
{1}7,
{1}8,
{1}1/8,
{1}8-5[4:3],
{1},
{1}1-4[4:3],
{1},
{1}5-8[4:3],
{1},
{2}1,1,
{1}1/8,
{2}1b,1,
{2}2,2,
{2}3,3,
{1}4/5,
{2}5,5,
{2}6,6,
{2}7,7,
{1}1/8,
{2}1,1,
{1}1/8,
{2}7,7,
{1}7/8,
{2}2,2,
{1}1/2,
{2}3,3,
{1}4x/5x,
{1}B5,
{1}B4,
{1}B6,
{1}B3,
{1}B7,
{1}B2,
{1}C1hf[1:1],
{1},
{1}1h[2:1]/8h[2:1],
{1}1/8,
{1}1h[2:1]/2h[2:1],
{1}1/2,
{1}7h[2:1]/8h[2:1],
{1}7/8,
{1}1-4[4:3]/8-5[4:3],
{1},
{2}5b,5,
{2}6,6,
{2}7,7,
{2}7/8,7/8,
{2}1,1,
{2}2,2,
{2}3,3,
{1}3x/4x,
{1}2-6[4:3],
{2},7,
{1}7-3[4:3],
{2},2,
{1}1-5[4:3],
{2},6,
{2}7,7,
{2}1/8,1b/8b,
{1},
{1},
{1},
E
&inote_3=
(137){1},
{1}4xqq1[4:5]/5xpp8[4:5],
{1},
{2}1x/8x,2x/7x,
{4}3/6,3/6,4/5,,
{2}6h[2:1],5,
{2}3h[2:1],4,
{2}6h[2:1],5,
{4}3/4,3/4,3/4,,
{2}2h[2:1],1,
{2}7h[2:1],8,
{2}2h[2:1],1,
{4}7/8,7/8,7/8,,
{4}6,6,5/6,,
{2}3x/4x,3x/4x,
{4}6,6,5/6,,
{2}3x/4x,3x/4x,
{4}2,2,1/2,,
{4}7,7,7/8,,
{4}2,2,1,1,
{1}1b-4[8:3]/8b-5[8:3],
{1}6<1[8:3],
{1}2>5[8:3],
{1}6<1[8:3],
{1}2q6[8:3],
{4}E7,B6,B5,,
{4}E3,B3,B4,,
{2}B6/E6,B3/E4,
{1}4x-1[8:3]/5x-8[8:3],
{4}2b,2,1/2,1/2,
{4}7,7,7/8,7/8,
{4}6,6,5,5,
{4}4,4,3/5,,
{4}2h[4:1],1,1/2,,
{4}7h[4:1],8,7/8,,
{4}6,5/6,3,3/4,
{4}4x/5x,4x/5x,3x/6x,,
{1}7-4[8:3],
{4}3,3,3/4,,
{1}2-5[8:3],
{4}6,6,5/6,,
{1}7<4[8:3],
{1}3>8[8:3],
{4}7,7/8,2,1/2,
{4}8x,1x/8x,2x/7x,,
{2}E1,E2,
{2}E3,E4,
{2}E5,E6,
{2}E7,E8,
{2}B1/B8,B2/B7,
{2}B3/B6,E4/E6,
{2}4x/5x,3x/6x,
{4}2x/7x,2x/7x,1x/8x,,
{4}7,7,8,8,
{4}1,1,2/8,,
{4}3,3,4,4,
{4}5,5,4/5,,
{4}6,6,5,5,
{4}4,4,3/5,,
{4}2,2,1,1,
{4}8x,1x/8x,2x/7x,,
{4}7b,7/8,7,7/8,
{4}2,1/2,2,1/2,
{4}3,3,4,4,
{4}5,4/5,3/6,,
{4}7h[4:1],8,1/6,,
{4}2h[4:1],1,3/8,,
{4}7,7,6,6,
{4}4x/5x,4x/5x,3x/6x,,
{1}7-4[8:3],
{4}3,3,3/4,,
{1}2-5[8:3],
{4}6,6,5/6,,
{1}7-4[8:3],
{4}3,3,4/5,,
{4}6,5/6,3,3/4,
{4}5x,4x/5x,3x/6x,3b/6b,
{1},
{1},
{1},
E
&inote_4=
(137){1},
{8}2x/7x,,,4/6,,4/6,,3/5,
{8},3/5,,4/6,,3/7,3/7,,
{4}7/8,5/6,3/4,1/2,
{4}7/8,5/6,4x/7x,8-4[8:1],
{4}3h[4:15],,4,4,
{4}6,2,7,8,
{8}4b,,6,6,6,,1,,
{4}8,4-8[8:1],,,
{8}2h[4:15]/8b,,5,5,5,,4,,
{4}6,3,1,4-8[8:1],
{8},,,8x,8x,,,,
{4}6,3,5,4,
{4}3h[4:15]/6,6,4,4,
{4}1x,4x,1x,4x,
{8}5,5,5,,4,,6,,
{4}1x,4x,1x,4x,
{8}2h[1:3]/6,,4,,5,5,5,,
{4}8b,6,3,5,
{8}4,,6,6,6,,5-1[8:1],,
{4},,,2x/7x,
{1}3>8[2:1]/8<5[2:1],
{1}1>4[2:1]/6<1[2:1],
{1}3>8[2:1]/8<5[2:1],
{1}1>4[2:1]/6<1[2:1],
{4}3h[4:1],1h[4:1],8h[4:1],6,
{4}6h[4:1],8h[4:1],1h[4:1],3,
{2}4h[4:1]/5h[4:1],3h[4:1]/6h[4:1],
{4}2h[4:1]/7h[4:1],,1h[4:1],8b,
{4}7/8,5q2[4:1]/6<1[4:1],,,
{4}1/2,3>8[4:1]/4p7[4:1],,,
{4}7/8,5/6,3/4,1/2,
{8}7,7,8,,2,2,1,,
{4}3/4,3/4,5/6,5/6,
{4}7h[4:1],8,2h[4:1],1,
{8}3/4,,5,5,4/6,,3b/7b,,
{16}1x,,,3x,,,4x,,,5x,,,6x,,6x,,
{4}5/7,4/8,2/4,1h[4:1]/5,
{8}7,7x,,2x/8x,,1x/7x,,2x/8x,
{4}2/8,5/6,1/7,3/4,
{4}2h[4:1],4h[4:1],5h[4:1],7,
{2}8-5[4:1],4-1[4:1],
{4}8x,2b/7b,C1hf[4:1],,
{8}1x/8x,,1x/8x,,3x/6x,3x/6x,3x/6x,,
{4}2-5[8:1]/7-4[8:1],,1b/8b,4/5,
{4}3/6h[1:2],,E6,E7,
{4}E8,E1,E2,,
{4}3h[2:3],,E4,E3,
{4}E2,E1,E8,,
{4}6h[2:1],5,3h[2:1],4,
{4}6h[2:1],5,3h[2:1],4,
{4}7h[2:1],5,2h[2:1],4,
{16}8x,,,8x,,,1x,,,1x,,,3b/6b,,,,
{4}5/7,1,2/4,8,
{8}6,6,5,,3,3,4,,
{4}2/4,8,5/7,1,
{8}3,3,4,,6,6,5,,
{4}4/7,1/8,2/5,1/8,
{8}7,7,5,,2,2,4,,
{4}2/5,1/8,4/7,1/8,
{4}4-1[8:1]/5-8[8:1],,1x/8x,3/6,
{4}1/2,3>8[4:1]/4p7[4:1],,,
{4}7/8,5q2[4:1]/6<1[4:1],,,
{4}1/2,3/4,5/6,7/8,
{8}2,2,1,,7,7,8,,
{4}5/6,4/7,3/4,2/5,
{4}3h[4:1],1,6h[4:1],8,
{8}5/6,,4,4,3/5,,2b/6b,,
{16}8x,,,6x,,,5x,,,4x,,,3x,,3x,,
{4}2/4,1/5,5/7,4/8h[4:1],
{8}2,2x,,1x/7x,,2x/8x,,1x/7x,
{4}1/7,3/4,2/8,5/6,
{4}7h[4:1],5h[4:1],4h[4:1],2,
{2}1-4[4:1],5-8[4:1],
{4}1x,2b/7b,C1hf[4:1],,
{8}1x/8x,,1x/8x,,4x/5x,3x/6x,2x/7x,,
{4}3-8[8:1]/6-1[8:1],,4/5,2b/7b,
{1},
{1},
{1},
E
&inote_5=
(137){1},
{8}C1f/B2/B3/E3/B6/B7/E7,,,1x-5[8:1],,1/8x<5[8:1],,1x>4[8:1]/8,
{8},1/8x-4[8:1],,2x-6[8:1]/8,,2/7x,8,1,
{8}2xh[4:1]/7xh[4:1],,,4x/5x,,1x>8[8:3]/8x,,,
{2},4-1[8:1]/5-8[8:1],
{16}2b/7b,,,,4/5,,3,4,2,,5,4,6,,3,4,
{16}1,,5,4,7,,6/8,,2,,1/3,,4>1[8:1]/8,,5/7,,
{24}6xh[4:1],,,,,,8,,8,,8,,1/7,,,2/6,,,3/5,,,4h[8:3],,,
{32},,,,,,,,6,7,8,1,2,3,4,5,1b,,,,7,,8,,7-3[8:1],,,,8,,,,
{16}1/7,,,,2/4,,6,5,7,,4,5,3,,6,5,
{16}8,,1/7,,2-6[8:1]/6,,,,7h[16:3],,,5,,8,1,,
{8}3h[4:1]/7<4[8:1],,,2,2>5[8:1],,7,8,
{8}1/2,4,7/8,5,1>4[8:1]/8<5[8:1],,,,
{48}2/7,,,,,,8,,,1,,,8,,,,,,2,,,4,,,3,,,,3,,,,5,,,,4,,,,4,,,,6,,,,
{2}5x>2[8:1]/6xV41[8:1],5x>2[8:1]/6xV41[8:1],
{16}4/5,,7,8,7,2,1,2,5,4,5,4,5,,2/7,,
{2}3xV58[8:1]/4x<7[8:1],3xV58[8:1]/4x<7[8:1],
{16}4/5,,2,4,3,5,4,6,5,7,4,8h[16:5],3<6[8:1],,,,
{8}3,,5/7,1,2/4,8,5/6,1,
{8}3x/4-8[8:1],3x/4,1-3[12:1],1,7-5[12:1],7,2qq6[2:1],2,
{16}4h[4:3],,,,,,,,,,,,7,8,1,2,
{8}3/7xh[1:1],,,5,,5,5,,
{8}2h[1:1],,,4,,4,4,,
{4}6xh[8:1],5h[8:1],4h[8:1],3h[8:1],
{8}2,3,6,5,3,4,5x,5x,
{8}3xh[8:1],,4h[8:1],,5h[8:1],,6h[8:1],4x,
{4}4x/7h[8:1],8h[8:1],1h[8:1],3/7,
{16}1x/2h[16:3],,,3h[16:3],,,4,,7h[16:3]/8x,,,6h[16:3],,,5xp4[4:1],,
{8}4x/5x,,,1,1>4[8:1]/5<8[8:1],,1b/5b,,
{8}3/7-3[8:1],,1h[4:1]/7,,8,4/5,2-4[12:1]/7,,
{8}2/8-4[8:1],7,1-5[8:1]/8,2,1/7-4[8:1],8,2-6[8:1]/7,1,
{8}2/7-5[12:1],8,1-5[8:1]/7,2,1/8-4[8:1],7,2-6[8:1]/8,1,
{8}2/7-4[8:1],8,2-5[8:1]/7,1,2/7-3[8:1],8,2>8[16:5]/7,1,
{8}2/6,,,5,4/6,3/7,2/8,1,
{4}4>1[8:1]/6<1[8:1],4/6>4[12:1],1w5[8:1],1,
{16}3/7-3[8:1],,,,1/7,,,4-1[8:1],,,8,,8,,,,
{16}3xh[8:1]/5h[8:1],,,4h[8:1]/7xh[8:1],,,2xh[8:1]/6h[8:1],,,3h[8:1]/8xh[8:1],,,2/4x<3[2:1],,3/6x,,
{4}4/8b,,4-8[8:1],2,
{8}5/7,8,5/7,1,5/7,8,5/7,1,
{16}2-6[8:1]/4,,,,2/8,,,5-8[8:1],,,1,,1,,,,
{8}4/6,5,2/4,3,4/7,6,1/5,3,
{32}5-1[8:1]/6,,,,8,,,,8,,,,,,,,E1,E8,E7,E6,E5,E4,E3,E2,E1,,,,2x/7x,,,,
{2}2b>4[12:1]/7b<5[12:1],C1hf[16:3]/B2/E3/B7/E7,
{16}1>4[8:1]/8,,,,1/7,,,5<8[8:1],,,1,,1,,,,
{16}2x/3,,,6/7x-3[8:1],,,5x,,1x,,,,4b/5b,,,,
{8}1h[1:2],,,6,,,6,,
{8}5,,,4,,,C1f,,
{8}8h[1:2],,,3,,,3,,
{8}4,,,5,,,C1f,,
{8}1xh[4:1],,8,1/7h[4:1],,1,2/6,,
{8}3xh[4:1]/7x,,7,4/6h[4:1],,4,C1f/5x,,
{8}2xh[4:1]/8,7,6,3/5,1/7xh[4:1],2,3,4/6,
{16}3h[8:1]/5xh[8:1],,,4xh[8:1]/7h[8:1],,,2h[8:1]/6xh[8:1],,,4xh[8:1]/8h[8:1],,,5x/7,,1/8x,,
{16}2b-6[8:1]/4,,,,2/8,,,5>2[8:1]/7,,,8,,8,,,,
{8}3/5,1,2/4,8,3/5,1,2/4,8,
{16}5/7-3[8:1],,,,1/7,,,2/4<7[8:1],,,1,,1,,,,
{8}4/6,8,5/7,1,4/6,8,5/7,1,
{16}2/4-8[8:1],,,,3/4,,,5-1[8:1]/7,,,8,,8,,,,
{8}2/4,1,3/5,8,4/6,1,5/7,8,
{16}5-1[8:1]/6,,,,5/7,,,2/4-8[8:1],,,1,,1,,,,
{16}5/7,,,2/4,,,B6/E7/1x,,B3/E3/8x,,,,4b/5b,,,,
{8}2-6[8:1]/6,,2/8h[4:1],,1,4/5,2/7-1[8:1],,
{8}3-5[8:1]/7,2,3/7-3[8:1],8,2-8[8:1]/7,1,2/6-2[8:1],7,
{8}4-1[8:1]/6,3,4/7-4[8:1],8,2-5[8:1]/7,1,2/7-1[8:1],8,
{8}3-7[8:1]/7,2,3/5-8[8:1],6,2-6[8:1]/5,1,2/7<1[16:5],8,
{8}3/7,,,4,3/5,2/6,1/7,8,
{4}3>8[8:1]/5<8[8:1],3<5[12:1]/5,8w4[8:1],8,
{16}2-4[12:1]/6-8[12:1],,,,2/6,,,1w5[8:1]/5,,,2/8,,C1f,,,,
{16}4h[8:1]/6xh[8:1],,,2xh[8:1]/5h[8:1],,,3h[8:1]/7xh[8:1],,,1xh[8:1]/6h[8:1],,,5x>6[2:1]/7,,3x/6,,
{4}1b/5,,5-1[8:1],7,
{8}2/4,1,2/4,8,2/4,1,2/4,8,
{16}5/7-3[8:1],,,,7/8,,,2-6[8:1]/4,,,1,,1,,,,
{8}5/7,6,2/5,3,4/8,7,2/6,3,
{32}4/5<4[4:1],,,,1,,,,1h[8:5],,,,,,,,E5,E6,E7,E8,E1,E2,E3,E4,E5,,,,8x,,,,
{2}1b>4[12:1]/8b<5[12:1],C1hf[16:3]/B2/E3/B7/E7,
{16}1/8-4[8:1],,,,4/8,,,2-6[8:1],,,4,,8b,,,,
{16}2-4[12:1]/6-8[12:1],,,2/6,,,1x/5x,,3xp7[8:1]/7xp3[8:1],,,,C1f/3b/7b,,,,
{1},
{1},
{1},
E
