&title=初音天地開闢神話
&wholebpm=240
&artist=cosMo@暴走P
&des=はっぴー
&shortid=11412
&genre=niconicoボーカロイド
&cabinet=DX
&version=maimai DX UNiVERSE PLUS
&chartconverter=Neskol
&lv_2=5
&des_2=
&lv_3=8
&des_3=
&lv_4=11
&des_4=隅田川星人
&lv_5=13+
&des_5=はっぴー
&des_6=
&inote_2=
(240){1},
{1},
{1}1x,
{1},
{1}1,
{1},
{1}8,
{1},
{1}1/8,
{1}1b/8b,
{1}1,
{1}1,
{1}2,
{1},
{1}3,
{1}3,
{1}4,
{1},
{1}4h[1:1]/5h[1:1],
{1},
{1}5,
{1}5,
{1}5,
{1},
{1}6,
{1}6,
{1}6,
{1},
{1}7,
{1}7,
{1}7,
{1},
{1}8,
{1}8,
{1}1/8,
{1},
{1}8-5[4:5],
{1},
{1},
{1}1,
{1}1-4[4:5],
{1},
{1},
{1}4/5,
{1}B5,
{1}B4,
{1}B6,
{1}B3,
{1}C1hf[1:2],
{1},
{1},
{1},
{2}8,8,
{1}8,
{2}7,7,
{1}7,
{2}6,6,
{1}6,
{2}5,5,
{1}4/5,
{2}4,4,
{1}4,
{2}3,3,
{1}3,
{2}2,2,
{1}2,
{2}1,1,
{1}1b/8b,
{1}B1,
{1}B2,
{1}B3,
{1}B4,
{1}B5,
{1}B6,
{1}B7,
{1}C1,
{1}1xh[1:1]/8xh[1:1],
{1},
{1}1xh[1:1]/2xh[1:1],
{1},
{1}7xh[1:1]/8xh[1:1],
{1},
{1}1x/8x,
{1}1b/8b,
{2}1,1,
{2}2,2,
{2}3,3,
{2}3/4,3/4,
{2}5,5,
{2}6,6,
{2}7,7,
{1}7/8,
{2}8,7,
{2}6,5,
{2}4,3,
{2}1/2,1/2,
{2}1,2,
{2}3,4,
{2}5,6,
{2}7,1/8,
{1}1b/8b,
{1},
{1}B1/B8,
{1}B2/B7,
{1}B3/B6,
{1}B4/B5,
{1}B3/B6,
{1}C1hf[1:3],
{1},
{1},
{1},
{1},
{1}1h[1:1],
{1},
{1},
{2}1x/8x,1x/8x,
{2}2,2,
{2}3,3,
{2}4,4,
{1}4/5,
{2}5,5,
{2}6,6,
{2}7,7,
{1}1/8,
{2}8,8,
{2}7,7,
{2}6,6,
{2}4/5,4/5,
{2}3,3,
{2}2,2,
{2}1,1,
{2}1/8,1/8,
{2}1,2,
{2}3/4,3/4,
{2}5,6,
{2}7/8,7/8,
{4}6,6,6,,
{2}5/6,5/6,
{4}4,4,4,,
{2}3/4,3/4,
{4}2,2,2,,
{2}1/2,1/2,
{4}8,8,8,,
{2}1/8,1/8,
{4}2,2,2,,
{4}3,3,3,,
{4}4/5,4/5,4/5,,
{1}3x/6x,
{1}C1f/B2/B7,
{1},
{1},
{1},
E
&inote_3=
(240){1},
{1},
{1}3h[1:1],
{1}4h[1:1],
{1}5h[1:1],
{1}6,
{1}7h[2:1]/8h[2:1],
{1}1h[2:1]/2h[2:1],
{4}7,7,8,8,
{4}1,1,2/8,,
{4}7,7,7/8,,
{4}2,2,1/2,,
{4}7,7,8,8,
{4}1,1,2/8,,
{4}3,3,3/4,,
{4}6,6,5/6,,
{4}3,3,4,4,
{4}5,5,4/6,,
{1}B3,
{1}B6,
{1}3h[4:1]/4h[4:1],
{1}5h[4:1]/6h[4:1],
{1}3h[4:1]/4h[4:1],
{2}5h[4:1]/6h[4:1],5/6,
{4}3h[4:1],4,4,,
{4}6h[4:1],5,5,,
{4}3h[4:1],4,4,,
{4}5,5,4/6,,
{1}7h[4:1]/8h[4:1],
{1}1h[4:1]/2h[4:1],
{1}7h[4:1]/8h[4:1],
{2}1h[4:1]/2h[4:1],1/2,
{4}7h[4:1],8,8,,
{4}2h[4:1],1,1,,
{4}7h[4:1],8,8,,
{4}1,1/8,2/7,,
{1}6-1[2:1],
{2}2,2,
{1}3-8[2:1],
{2}7,1/8,
{1}2-5[2:1],
{2}6,6,
{1}7-4[2:1],
{2}3,4/5,
{1}6-3[2:1],
{1}2-6[2:1],
{1}7-3[2:1],
{2}2,3/4,
{1}E5,
{1}E6,
{4}6,6,5,5,
{1}4b/6b,
{4}3,3,3/4,3/4,
{4}2,1,2/8,,
{4}7,7,7/8,7/8,
{4}6,5,4/6,,
{4}3h[4:1],4,3/4,,
{4}6h[4:1],5,5/6,,
{4}7,7,8,8,
{4}1,1,2/7,,
{4}6,6,5/6,5/6,
{4}7,8,1/7,,
{4}2,2,1/2,1/2,
{4}3,4,3/5,,
{4}6h[4:1],5,5/6,,
{4}3h[4:1],4,3/4,,
{4}5,5,4,4,
{2}4h[4:1]/5h[4:1],3x/6x,
{1}3h[1:1],
{1}4h[1:1],
{1}5h[1:1],
{2}6,5/6,
{4}7,7,7/8,,
{4}2,2,1/2,,
{4}7,7,8,8,
{4}1x,2x,3x,4x,
{1}5-8[2:1],
{1}1-5[2:1],
{1}6-1[2:1],
{2}2,1/8,
{2}2,3,
{2}4,5,
{1}4h[2:1]/5h[2:1],
{2}3/6,2/7,
{4}6,6,5,5,
{4}4,4,3,3,
{4}2,2,1,1,
{4}8,8,1/7,,
{4}7,7,8,8,
{4}1,1,2,2,
{4}3,3,4,4,
{4}5,5,4/6,,
{4}7,7,7/8,7/8,
{4}6,6,5/6,5/6,
{4}3,3,3/4,3/4,
{4}2,1/8,2/7,,
{4}6,6,5/6,5/6,
{4}3,3,3/4,3/4,
{4}2,2,1/2,1/2,
{4}8,7,6,5,
{1}4b>5[4:11],
{1},
{1},
{1},
{1}E4,
{1}E5,
{1}E6,
{1}C1xh[1:2],
{1},
{1},
{1}8<3[4:5],
{1},
{1}2s6[4:5],
{1},
{1},
{4}7,7,7/8,,
{4}2,2,1/2,,
{4}7,7,7/8,,
{4}2,2,1,1,
{4}8,8,1/7,,
{4}6,6,5/6,,
{4}3,3,3/4,,
{4}6,6,5,5,
{4}4,4,3/5,,
{4}2,2,1/2,,
{4}7,7,7/8,,
{4}2,2,1,1,
{2}7/8,5/6,
{4}3,3,3/4,,
{4}6,6,5/6,,
{4}7,7,8,8,
{4}1,1,2/8,,
{2}3x/4x,5x/6x,
{2}7x/8x,1x/2x,
{4}3,3,4,4,
{4}5,4/5,3/6,,
{1}7-4[2:1],
{1}3-8[2:1],
{4}7,7,7/8,,
{4}2,2,1/2,,
{1}2-5[2:1],
{1}6-1[2:1],
{4}2,2,1/2,,
{4}7,1/8,2/7,,
{4}6,5,4,3,
{4}2,1,8,7,
{4}5/6,5/6,3/4,3/4,
{2}1/2,7/8,
{1}1bpp4[2:3]/8bqq5[2:3],
{1},
{1},
{1},
E
&inote_4=
(240){1},
{1},
{2}3h[2:1],4h[2:1],
{4}5h[2:1],,6,5/6,
{2}6h[2:1],5h[2:1],
{4}4h[2:1],,3,3/4,
{2}3h[2:1],6h[2:1],
{4}5,5/6,4/7,,
{4}5h[6:1]/6h[6:1],4h[6:1]/5h[6:1],3h[6:1]/4h[6:1],2h[6:1]/3h[6:1],
{4}1h[6:1]/2h[6:1],1h[6:1]/8h[6:1],2b/7b,,
{4}5/6,7,1/8,2,
{4}3/4,2,1/8,7,
{4}5/6,7,1/8,2,
{4}3/4,3/4,2/5,,
{4}7/8,6,4/5,3,
{4}1/2,3,4/5,6,
{4}7/8,6,4/5,3,
{4}1/2,1/8,2b/7b,,
{4}4/5,4/5,,E6,
{4},E5,,E4,
{4}3x/4x,3<5[4:1]/4,,,
{4}5x/6x,5/6>4[4:1],,,
{4}3x/4x,3<5[4:1]/4,,,
{2}5xh[4:1]/7xh[4:1],4h[4:1]/6h[4:1],
{4}3,2/4,3,3,
{4}6,5/7,6,6,
{2}3-6[4:1],7-3[4:1],
{4}4,4>1[4:1],,,
{4}7x/8x,7>1[4:1]/8,,,
{4}1x/2x,1/2<8[4:1],,,
{4}7x/8x,7>1[4:1]/8,,,
{2}3h[4:1]/5h[4:1],4h[4:1]/6h[4:1],
{4}7,7,4/6,3,
{4}2,2,3/5,6,
{2}7<4[4:1],3>8[4:1],
{4}7,7,1/8,,
{4}7h[4:1],6h[4:1],5h[4:1],4h[4:1],
{4}6h[4:1],5h[4:1],4h[4:1],3h[4:1],
{4}5h[4:1],4h[4:1],3h[4:1],2h[4:1],
{4}E2,E1/E3,E4/E8,,
{4}2h[4:1],3h[4:1],4h[4:1],5h[4:1],
{4}3h[4:1],4h[4:1],5h[4:1],6h[4:1],
{4}4h[4:1],5h[4:1],6h[4:1],7h[4:1],
{4}E8,E1/E7,E2/E6,,
{1}3xV15[2:1],
{1}7V51[2:1],
{4}2h[4:1],1h[4:1],8h[4:1],7h[4:1],
{4}6h[4:1],5h[4:1],4,,
{2}E6,E5,
{2}E4,E3,
{4}1x/2x,1x/2x,1x/8x,1x/8x,
{4}2b/7b,,,4/5,
{12}6h[6:1],,5,7,,,3h[6:1],,4,2,,,
{4}5/7,1/8,2/4,3/5,
{8}4/6,,5/7,,1/8,1x-5[4:1]/8x-4[4:1],,,
{4},,3/6,2/7,
{4}8,7h[2:1],6,5h[2:1],
{4}4,3h[2:1],2,1h[4:1],
{4}8,2/7,3pp4[8:5]*V14[8:5]/6,,
{1},
{8}4h[4:1]/6h[4:1],,,,3x/5x,3x/5x,,2h[8:3]/4,
{4},1,1/2,7/8,
{2}5/6<1[4:1],2>5[4:1],
{4}8,8h[2:1],,5,
{2}4h[4:1]/7h[4:1],2h[4:1]/5h[4:1],
{4}4/6,4-1[4:1]/6-1[4:1],,,
{4}2/8,2/8,3/7,4/6,
{2}3h[8:1]/5h[8:1],1/8,
{4}4/5,3/6h[1:2],,E4,
{4},E5,,E6,
{4},E7,,C1,
{4}B4/E4,B5/E6,B1/B8,,
{4}6,5/7,6,4/5,
{4}3,2/4,3,4/5,
{4}6,5/7,6,4/5,
{4}3x/6x,3x/6x,2x/7x,2x/7x,
{8}1b/8bqq4[4:3],,,,,,3x,3x,
{4},,2/4,3,
{4}6,5/6,3,3/4,
{4}2,1,8,7,
{4}6h[2:1],5,3h[2:1],4,
{4}7h[2:1],6,2h[4:1],3,
{4}1/8,1/8,2/7,3/6,
{1}4-1[4:1]/5-8[4:1],
{4}5/7,5/7,E7,E3,
{4}4/5,4/5,E6,E4,
{4}2/4,2/4,E2,E8,
{4}1/8,1/8,2/7,,
{4}5/7,4/6,E7,E5,
{4}3/5,2/4,E3,E1,
{4}2/8,1/7,E7,E5,
{4}4/6,3/5,2b/7b,,
{8}6,6,4,,B7/E8,,B4/E5,,
{8}3,3,5,,B2/E2,,B5/E5,,
{8}6,6,4,,B7/E8,,B4/E5,,
{8}3,3,5,,B2/E2,,B5/E5,,
{8}7,7,1,,B6/E6,,B1/E1,,
{8}2,2,8,,B3/E4,,E1/B8,,
{8}7,7,1,1,8,8,2,2,
{8}7,7,1,1,2/8,,3/7,,
{1}4b>5[4:13]/6b,
{1},
{1},
{1},
{1}4>5[4:13],
{1},
{1},
{1}C1xh[1:2],
{1},
{1},
{1}4-1[4:7],
{1},
{1}4q5[2:3],
{1},
{1},
{4}1b/8b,2/7,3/6,4/5,
{4}6h[2:1],8,3h[2:1],1,
{4}7h[2:1],5,2h[4:1],4,
{4}3/5,4/6,3pp4[8:5]*V14[8:5]/5,,
{1},
{8}3h[4:1]/5h[4:1],,,,4x/6x,4x/6x,,5/7h[8:3],
{4},8,7/8,1/2,
{2}3>8[4:1]/4,7<4[4:1],
{4}1,1h[2:1],,4,
{2}2h[4:1]/5h[4:1],4h[4:1]/7h[4:1],
{4}3/5,3-8[4:1]/5-8[4:1],,,
{4}1/7,1/7,2/6,3/5,
{1}4>1[4:1]/6<1[4:1],
{4}2,1/3,4,3/5,
{4}4/6,3h[4:1]/7h[4:1],,1/8,
{4}7,6/8,5,4/6,
{4}3/5,2/6,1h[4:1]/7h[4:1],,
{2}8<5[4:1],4>1[4:1],
{2}8p4[4:1],3p7[4:1],
{4}6,6,5/6,3/4,
{4}2/5,,1,1,
{8}2h[4:1]/8h[4:1],,,,3x/7x,3x/7x,,2/6h[8:3],
{4},5,5/6,4/7,
{2}3>8[4:1]/8,7<4[4:1],
{4}2,2h[2:1],,4,
{2}3-8[4:1]/5h[4:1],4,
{2}4h[4:1]/6-1[4:1],5,
{4}2h[4:1],1h[4:1],8h[4:1],7h[4:1],
{4}6h[4:1],5h[4:1],4b,,
{12}3h[6:1],,4,2,,,6h[6:1],,5,7,,,
{4}1/8,1-5[4:1]/8-4[4:1],,,
{12}3h[6:1],,4,2,,,6h[6:1],,5,7,,,
{2}E5,C1,
{1}1bpp4[4:7]/8bqq5[4:7],
{1},
{1},
{1},
{1},
E
&inote_5=
(240){1},
{1},
{4}6h[1:2],E6,,E5,
{4},E6,,E5,
{4}3h[1:2],E4,,E5,
{4},E4,,E5,
{4}6h[4:7],E6,,E5,
{4},E6,,E5,
{12}1,8,1,8,1,8,2,7,2,7,2,7,
{12}3,6,3,6,3,6,4-1[8:1]*-7[8:1],,,4b,,,
{12}8,,8,1,,1,2,,2,3,,3,
{12}4,,4,5,,5,6,,,4/7,,,
{12}1,,1,8,,8,7,,7,6-4[8:1],,,
{4}2-5[8:1],7-4[8:1],1-5[8:1],8h[4:1],
{12}1b,,1,8,,8,7,,7,6,,6,
{12}5,,5,4,,4,3,,,2/5,,,
{12}1,,1,8,,8,2/7,,,3/6,,,
{12}4,5,4,5,4,5,4,7,4,7h[1:1],,,
{4},5,,4,
{4},3h[6:1]/6h[6:1],,2-8[8:1],
{12}2-4[8:1],,,5h[12:5],,,,,3,2-8[8:1]/4,,,
{12}2-4[8:1],,,5h[12:5],,,,,3,2-8[8:1]/4,,,
{12}2-4[8:1],,,5h[12:5],,,,,3,2-8[8:1]/4,,,
{4}2-4[8:1],7-1[8:1],7-5[8:1],3,
{12}2,,2,4,,4,3,,3,6,,6,
{12}5,,5,7,,7,3,,,4-1[8:1]*-8[8:1],,,
{4},5-1[8:1]*-8[8:1],,4pp1[2:1]/5qq8[2:1],
{4},,,3/7-1[8:1],
{12}7-5[8:1],,,4h[12:5],,,,,6,5/7-1[8:1],,,
{12}7-5[8:1],,,4h[12:5],,,,,6,5/7-1[8:1],,,
{12}7-5[8:1],,,4h[12:5],,,,,6,5/7-1[8:1],,,
{4}7-5[8:1],2-8[8:1],2-4[8:1],6,
{12}7,,7,5,,5,6,,6,3,,3,
{12}5,,5,2,,2,4,,,3bpp4[8:3]*V14[8:3],,,
{4},,,3/5,
{4}4/6,5w1[4:1],,,
{4}1/8,1/8,7/8,6/7,
{4}5/6-1[8:1],5>2[8:1],8,8-3[8:1]*-5[8:1],
{4},1<6[8:1]*>4[8:1],,8h[4:3],
{4}6b,4b,2b,3/5,
{4}1/8,1/8,1/2,2/3,
{4}3-8[8:1]/4,4<7[8:1],1,1pp3[8:1]*qq7[8:1],
{4},8v3[8:1]*v5[8:1],,1h[4:3],
{4}3,5,7,2<4[2:1],
{12},,,,,,,,,2/5,,2h[3:1]/5,
{12},,,6,,,7,,7,5,,,
{4}7/8,1v6[4:1]/2>5[4:1],,,
{4}7xh[4:1],5h[4:1],4h[4:1],2h[4:7],
{4}4x,E5,6x,E6,
{4}4x,E5,6x,E6,
{12}3x,4x,3x,6x,5x,6x,3x,4x,3x,5xh[4:1],,,
{4}C1f,,,3/6,
{4}2-6[8:1],1-5[8:1],8-4[8:1],7-3[8:1],
{4}2h[4:1],4,1-4[8:1]/5,6<1[8:1],
{12}3<6[8:1],,,8h[4:1],,,1,,1<6[4:1]/2>5[4:1],,,,
{4},,4/7,2/5,
{12}1,,7,5,7,5,8,,2,4,2,4,
{12}1,,7,5,7,5,8,,2,4,2,4,
{4}1,6xqq1[8:5],4xh[4:3],,
{4},,3,2/8<4[4:1],
{4}4>8[4:1],8<4[4:1],4>8[4:1],8<4[4:1],
{4}4>8[4:1],8,4,2/8,
{4}3<6[8:1],6,7>2[8:1],2,
{4}3<6[8:1],6,7>2[8:1],2,
{12}3,,6,5,,7,8,,3,4,,2,
{12}1,,4,5<8[8:1],,,1>4[8:1],,,7x-3[8:1],,,
{4}2x-6[8:1]/7x,2x/5x-8[8:1],4x-1[8:1]/5x,4x/5x,
{6}2x/7x,2x/7x,,C1,,,
{2}1x/8xh[1:3],3,
{4}5,,5,4,
{4}3,,5,6x,
{4}6x,4x,2x,1-3[8:1],
{4}1-5[8:1],1-4[8:1],1-6[8:1],1-3[8:1],
{4}1-5[8:1],1-4[8:1],1,8-6[8:1],
{4}8-4[8:1],8-5[8:1],8-3[8:1],8-6[8:1],
{4}8x-4[8:1],8x-5[8:1],8x-3[8:1],8x<1[2:1],
{12}C1f,,,,,,,,,1x/8x,,1x/8x,
{4},,4/5,3/6,
{12}7,,7,5,,5,4,,4,2,,2,
{12}1,,1,8,,8,7,,7,5,,,
{4}1xw5[8:1],1x,8xw4[8:1],8x,
{4}1xw5[8:1],1x,8xw4[8:1],8x<1[2:1],
{4},,,8h[2:1],
{2}1h[4:1],2b/7b,
{12}1b,2,3,8x,7,6,2,3,4,7x,6,5,
{12}2,3,4,7x,6,5,1x,8,7,6x,5,4,
{12}8,7,6,1x,2,3,7,6,5,2x,3,4,
{12}7,6,5,2x,3,4,8x,1,2,3x,4,5,
{12}2,3,4,1x,2,3,7,6,5,8x,7,6,
{12}1,2,3,8x,7,6,1x,8,7,6x,5,4,
{12}7,6,5,8x,7,6,2,3,4,1x,2,3,
{12}8x,7,6,1x,2,3,8x,,,4x/6x,,,
{12}3x,4,3,6x,5,6,3x,4,3,6x,5,6,
{12}2x,1,2,7x,8,7,1x,8,1,2x,3,4,
{12}6x,5,6,3x,4,3,6x,5,6,3x,4,3,
{12}7x,8,7,2x,1,2,8x,1,8,7x,6,5,
{12}2x,1,2,7x,8,7,2x,1,2,7x,8,7,
{12}2x,1,2,7x,8,7,1x,8,1,2x,3,4,
{12}7x,8,7,2x,1,2,7x,8,7,2x,1,2,
{12}7x,8,7,2x,1,2,8-4[4:1],,,4>5[2:3],,,
{1},
{1},
{1},
{1},
{4}5,6h[4:3],,,
{4}4,3h[4:3],,,
{4}5,6h[4:3],,,
{1}C1xh[4:9],
{1},
{1},
{1}1x-4[4:5]/8x-5[4:5],
{4},,,4>1[8:1]/5<8[8:1],
{1},
{1},
{1},
{12}C1f/B4/B5,,,,,,1,8,1,2b/7b,,,
{12}4/5,,2,4,3,4,1b,,7,5,6,5,
{12}8b,,2,4,3,4,1b,,7,5,6,5,
{12}7x-3[8:1],,7x,8x-4[8:1],,8x,1x-5[8:1],,1x,2x-6[8:1],,2x,
{12}3x-7[8:1],,3x,4x-8[8:1],,4x,5x,,,1>5[4:1],,,
{4}5<1[4:1],1>5[4:1],5<1[4:1],1>5[4:1],
{4}5<1[4:1],1,5,1/7,
{4}6>3[8:1],3,2<7[8:1],7,
{4}6>3[8:1],3,2<7[8:1],6,
{12}5,,3,4,,2,1,,6,5,,7,
{12}8,,3,4,,2,1,,,2-5[8:1]/5,,,
{4}2/7-4[8:1],3-8[8:1]/7,3/6-1[8:1],2h[4:1]/6,
{4}4,1-4[8:1]/5-8[8:1],,,
{12}3,5,3,5,3,5,2,6,2,6,2,6,
{12}3,7,3,7,3,7,2,8,2,8,2,8,
{12}4,6,4,6,4,6,3,5,3,5,3,5,
{12}1,7,1,7,1,7,1,,,2h[4:1]/6h[4:1],,,
{12},,1,5,1,5,1,4,1,4,1,5,
{12}1,4,1,5,1,4,1,5,1,4,1,5,
{4}1-5[8:1],7-2[8:1],3pp3[8:3],8,
{4},,4/5,2x/7x,
{12}3b,8,3,8,3,8,3,8,3,8,2,7,
{12}1b,6,1,6,1,6,1,6,1,6,2,7,
{12}3b,8,3,8,2,7,1b,6,1,6,2,7,
{12}3b,8,3,8,2,7,1b,6,1,6,2,7,
{4}3b,5>2[4:1]/6v1[4:1],,,
{4}3,3v8[4:1]/4<7[4:1],,,
{4}1/8,1>4[4:1]/8<5[4:1],,,
{4}4b/5b,3b/6b,2b/7b,1b/8b,
{12}4b,5,4,5,4,5,4b,7,4,7,4,7,
{12}4b,1,4,1,4,1,4b,3,4,3,4,3,
{12}4b,2,4,1b,4,8,4b,7,4,6b,4,5,
{1}C1f,
{1}2b/7b,
{1},
{1},
{1},
E
