&title=ミルキースター・シューティングスター
&wholebpm=184
&artist=烏屋茶房 feat. 利香
&des=シチミヘルツ
&shortid=11375
&genre=maimai
&cabinet=DX
&version=maimai DX UNiVERSE PLUS
&chartconverter=Neskol
&lv_2=3
&des_2=
&lv_3=7+
&des_3=
&lv_4=10+
&des_4=翠楼屋
&lv_5=12+
&des_5=シチミヘルツ
&des_6=
&inote_2=
(184){1},
{1},
{1},
{1},
{1},
{1},
{8},,,,,,,1x,
{8},,,,,,,1x,
{8},,,,,,,8x,
{8},,,,,,,8x,
{8},,,,,,,1xh[1:1]/8xh[1:1],
{1},
{8},,,,,,,1xh[1:1]/8xh[1:1],
{1},
{1},
{1}1,
{1}1,
{1}2,
{1}2,
{1}3,
{1}3,
{1}4h[8:7]/5h[8:7],
{1},
{1}5,
{1}5,
{1}6,
{1}6,
{1}7,
{1}7,
{1}1h[8:7]/8h[8:7],
{1},
{1}8x,
{1}7,
{1}6,
{1}4/5,
{1}4,
{1}3,
{1}1xh[8:7]/2xh[8:7],
{1},
{1}B1,
{1}B8,
{1}B2,
{1}B7,
{1}B3,
{1}B6,
{1}B4,
{1}B5,
{1}B3/B4,
{1}B1/B2,
{1}B7/B8,
{1}B5/B6,
{1}C1f,
{1}1x/8x,
{2}1,1,
{1}1,
{2}2,2,
{1}2,
{2}3,3,
{1}3,
{2}4,4,
{1}4/5,
{2}5,5,
{2}5,5,
{2}6,6,
{1}5/6,
{2}7,7,
{2}7,7,
{1}1h[4:3]/8h[4:3],
{1},
{1}8-5[4:3],
{1},
{1}4-1[4:3],
{1},
{1}8-4[4:3],
{1},
{1}3-8[4:3],
{1},
{1}7h[1:1],
{1},
{1}8h[1:1],
{1},
{1}1h[1:1],
{1},
{1}2h[1:1],
{1},
{1}B1/B8,
{1}B2/B7,
{1}B3/B6,
{1}C1xh[4:5],
{1},
{1},
{1},
{1},
{2}1,1,
{2}8,8,
{1}1h[8:7]/8h[8:7],
{1},
{2}1,1,
{4}2,2,2,,
{2}3,3,
{4}4,4,4/5,,
{2}5,5,
{4}6,6,6,,
{1}7h[4:3]/8h[4:3],
{1},
{1}1h[4:3]/2h[4:3],
{1},
{1}1b/8b,
{1}8h[2:1],
{2}8,7,
{1}6h[2:1],
{2}6,5,
{1}4h[2:1],
{2}4,3,
{1}2h[2:1],
{2}2,1/8,
{1}1-4[4:3]/8-5[4:3],
{1},
{1}C1xh[1:2],
{1},
{1},
{1},
{1},
E
&inote_3=
(184){1},
{1}3qq5[4:5],
{1},
{1}6qq8[4:5],
{1},
{1}1pp5[4:5],
{8},,,,,,,6x-1[8:3],
{8},,,,,,,2x-5[8:3],
{8},,,,,,,6x-1[8:3],
{8},,,,,,,2x-5[8:3],
{8},,,,,,,6x,
{8},,,3x/4x,,,,1x/2x,
{8},,,7x/8x,,,,,
{8},1x/8x,,,1x/8x,,,1x-4[8:3]/8x-5[8:3],
{1},
{4},5x/6x,5/6,,
{4}3,3,3/4,,
{4}6,6,5,5,
{4}4,4,3/5,,
{4}2,2,1/2,,
{4}7,7,7/8,,
{4}2,2,1,1,
{2}1xh[4:1]/8xh[4:1],2b/7b,
{2}6h[2:1],5,
{2}3h[2:1],4,
{2}6h[2:1],5,
{2}3h[4:1]/4h[4:1],3/4,
{1}2>5[8:3],
{1}6<1[8:3],
{2}1x/2x,7x/8x,
{4}1x,1x,2x/8x,,
{4}7,7,8,,
{4}2,2,1,,
{4}7,7,8,,
{4}2,2,1/7,,
{1}8<5[8:3],
{1}4>1[8:3],
{2}7x/8x,1x/2x,
{4}1/8,1/8,2/7,,
{1}6h[1:1],
{1}5h[1:1],
{1}4h[1:1],
{1}3,
{1}1h[2:1]/2h[2:1],
{1}7h[2:1]/8h[2:1],
{4}E7,B6,B5,,
{4}E3,B3,B4,,
{4}B7,B6,E6,,
{4}B2,B3,E4,,
{4}B7,B6,B5,B4,
{4}B3,B2,B1,B8,
{1}C1f,
{4}1x,2x,3x,4,
{4}4/5,3b/6b,3/6,,
{4}3/4,3/4,2/5,,
{4}2,2,1,1,
{4}8,8,1/7,,
{4}1/2,1/2,3/8,,
{4}7/8,7/8,1/6,,
{4}6,6,5,5,
{4}4x,4x,3x/5x,,
{4}3/4,2b/5b,2/5,,
{4}5/6,5/6,4/7,,
{4}7,7,8,8,
{4}1,1,2/8,,
{4}7/8,7/8,1/6,,
{4}2,2,1/8,,
{8}7xh[8:3],,,8xh[8:3],,,1xh[8:3],,
{8},2x,,,1/8,,1pp4[4:5]/8qq5[4:5],,
{1},
{1},
{1}6pp1[4:5],
{1},
{1}2pp5[4:5],
{1},
{1}6pp3[4:5],
{1},
{2}E3,E4,
{2}E5,E6,
{2}E7,E8,
{2}E1,E2,
{1}3x-8[8:3],
{4}7,7,7/8,,
{1}6-1[8:3],
{4}2,2,1/2,,
{4}3,4,5,6,
{4}7,8,1,2,
{8}3,3,3,,4,4,4,,
{8}5,5,5,,6,6,6,,
{4}4x/5x,3b/6b,,,
{1}5/6,
{2}3/4,4/5,
{2}3/6,2/7,
{4}7,7,8,,
{4}2,2,1,,
{2}7/8,1/2,
{1}1x-4[8:3]/8x-5[8:3],
{4}6,5b/6b,6,5/6,
{4}3,3/4,3,3/4,
{4}2,2,1,1,
{4}8,8,1/7,,
{4}2,1/2,2,1/2,
{4}7,7/8,7/8,,
{8}6h[8:3],,,5h[8:3],,,4h[8:3],,
{8},3,,,3/4,,3/4,,
{8}2h[8:3],,,1h[8:3],,,8h[8:3],,
{8},7,,,1/8,,1>4[8:3]/8<5[8:3],,
{1},
{4},5x/6x,5/6,,
{4}3,3,3/4,,
{4}6,6,5,5,
{4}4,4,3/5,,
{4}2,2,1/2,,
{4}7,7,7/8,,
{4}2,2,1,1,
{4}1/8,1/8,2/7,,
{1}C1xh[1:4],
{1},
{1},
{1},
{1},
{1},
{1},
E
&inote_4=
(184){1},
{1}1-6[4:5]/2-5[4:5],
{1},
{1}7-4[4:5]/8-3[4:5],
{1},
{1}4h[8:11]/5h[8:11],
{8},,,,,3/6,,C1f,
{8},,,,1x,1x,,2xh[8:3]/8xh[8:3],
{8},,,,3,3,,2xh[8:3]/4xh[8:3],
{8},,,,6,6,,5xh[8:3]/7xh[8:3],
{8},,,,4/6,4/6,,3xh[4:1],
{8},4,,7xh[4:1],,5,,2xh[4:1],
{8},1,,7x,,7/8,,5/6,
{8},4x,4,,3x/5x,,5,5x,
{8},4/6,,3/5,,2/6,2/6,,
{8}1x,,2b/8b,,,4x,4x/5x,,
{8}6,,1/7,,2,2,1,,
{8}3,,2/8,,7,7,8,,
{8}6xh[4:1],,5x,5x,,4x/7x,,,
{8}3,,2/8,,7,7,8,,
{8}6,,1/7,,2,2,1,,
{8}8,,8,,1/7,,2x/6x,2x/6xh[8:5],
{4},,5b,4b/5b,
{4}3x/6xh[2:3],,5,5,
{4}4,4,5,4/5,
{4}3h[4:5]/6,6,4,4,
{4}5,4,2/5,2/5,
{4}6h[2:1],5,5,4,
{4}3/4,3/4,2/5,,
{8}3,3,,5,5,,4/6,4h[8:3]/6h[8:3],
{4},,3b/7b,3b/7b,
{8}8,,7,,6,6,,4/5,
{8},3/4,,1,1,,2/8,,
{8}1,,2,,3,3,,4/5,
{8},5/6,,8,8,,1/7,,
{4}2/6>3[4:1],,1,1,
{4}2>5[4:1]/6,,7,7,
{8}5x/6x,,4x,4x,,3p6[8:5]/5,,,
{2},8x,
{2}7h[2:1],5h[2:1],
{4}E6,E7,C1/E8,,
{2}2h[2:1],4h[2:1],
{4}E4,E3,C1/E2,,
{2}7h[2:1],5h[2:1],
{2}4h[2:1],3h[2:1],
{4}4x,3/4,4/5,4/5,
{4}5/6,5/6,4h[4:1]/7h[4:1],,
{4}3/6,3/6,2/5,2/5,
{4}1/6,1/6,7h[4:1]/8h[4:1],,
{4}6,5/6,3,3/4,
{4}2/5,2/5,4/7,4/7,
{1}C1f/B3/E3/B6/E7,
{4}1b,2b,3b,3b/4b,
{8}2x/5x,,5b/6b,,2b/8b,,,3x,
{8}3x,4x,,5/6,,4/7,,1/2,
{8},3,3/4,,5/6,,7x,7x/8x,
{8},1x/2x,,3/4,,5,5,,
{8}5/6,,3b/4b,,1b/7b,,,2h[4:1],
{8},4h[4:1],,5h[4:1],,7,,7b/8b,
{8},1b/6b,1b/6b,,2/7,,3/8,,
{8}4x/7x,4x/7x,,6>3[4:1],,,,,
{8}2x,,3b/4b,,1b/7b,,,6x,
{8}6x,5x,,3/4,,2/5,,7/8,
{8},6,5/6,,3/4,,2x,1x/2x,
{8},7x/8x,,5/6,,4/7,4/7-4[4:1],,
{4},3-8[4:1],,6-1[4:1],
{4},3,2/8,1/7,
{8}6,5/6,,3,3/4,,7,5/7,
{8},2,2/4,,1/8,,3bqq5[1:1]/6bpp4[1:1],,
{1},
{4},,,3x/7x,
{1}4bqq5[1:1]/6bpp5[1:1],
{6},,,,4x,4x,
{1}3bqq4[1:1]/5bpp4[1:1],
{6},,,5x,5x,4x,
{1}3bqq5[1:1]/6bpp4[1:1],
{2},3x/6x,
{16}4/5,,,,3/4,,,,2h[16:3],,,4h[16:3],,,3,,
{16}3,,,,4/6,,,,7h[16:3],,,5h[16:3],,,6,,
{16}6,,,,3/5,,,,2h[16:3],,,4h[16:3],,,3,,
{4}3,3/4,2/5,,
{4}3h[4:1]/5,4,4/6h[4:1],5,
{4}2h[4:1]/5,4,4/7h[4:1],5,
{4}4h[4:1]/5,3,4/5h[4:1],6,
{4}3h[4:1]/4,2,5/6h[4:1],7,
{2}1-5[4:1],8-4[4:1],
{2}1-5[4:1],8-4[4:1],
{8}2,2,2,2,7,7,7,7,
{16}1,8,1,8,1,8,1,8,1,8,1,8,1x,,,,
{4}2/7,C1f/B3/B4/B5/B6,,,
{1},
{1},
{4},,4x/5x,4x/5x,
{4}6h[4:1],5,4/7,4/7,
{4}3h[4:1],4,2/5,1w5[2:1],
{1},
{8}3/6,3/6,,4/5,,2x/7x,2x/7x,,
{8}5x/6x,,3b/4b,,1b/7b,,,6h[4:1],
{8},8h[4:1],,1h[4:1],,3,,3/4,
{8},1/6,1/6,,5/6,,3/8,3b/8b,
{8},1/2,,3x/4x,,5x/6x,,3b/8b,
{8},1x/2x,1x-5[8:1]/2x-4[8:1],,,,1x/8x,,
{8}7/8,7-4[8:1]/8-3[8:1],,,,2x/5x,2x/5x,,
{8}6,5/7,,3,2/4,,6,5/7,
{8},3,2/4,,1/8,,2/7,,
{8}3,2/4,,6,5/7,,3,2/4,
{8},1/8,1/8,,2/7,,4/5-1[4:3],,
{1},
{4}2x/8x,3b/7b,,4,
{4}3/5,1,4/6,8,
{4}3/7h[4:1],5,2h[4:1]/6,4,
{8}1/8,,5/6,5-1[8:1]/6-1[8:1],,,,,
{8}2/8,,3/7,,6,6,5,,
{8}1/7,,2/6,,3,3,4,,
{2}2-6[8:1]/5h[4:1],4h[4:1]/7-3[8:1],
{4}2/4,1/8,5/7,4/5<4[4:17],
{1}C1f,
{1},
{1},
{1},
{1},
{1},
{1},
E
&inote_5=
(184){1},
{1}1-6[8:33]/2-5[4:11],
{1},
{1},
{1},
{8},,,,,,,1/8,
{8},2/7,,3,4,5,6,C1f/7,
{8},,,,1/8,1/8<3[2:1],,C1f,
{8},,,,1,1>6[2:1],,C1f,
{8},,,,8,8<3[2:1],,C1f,
{8},,,,1,1,,C1f/B3/8b,
{8},,,C1f/B6/1b,,,,C1f/B3/8b,
{8},,,C1f/B6/1b,,,1/8,1/8,
{8},5/7b,5/7,,2b/4,2/4,,5/7b,
{16}5/7,,,,2/6,,,,4,5,4,5,3,6,3,6,
{4}1-5[8:1],1b/8,3-6[8:1]/7,1,
{4}5-2[8:1]/8,6,3-6[8:1]/7,1,
{4}5-2[8:1]/8,6,3-6[8:1]/7,1,
{8}4/8,4/8,3/7,3-8[8:1]/7-4[8:1],,,,,
{4}1/4-7[8:1],3,2/6-3[8:1],8,
{4}1/4-7[8:1],3,2/6-3[8:1],8,
{8}1/4-7[8:1],,3,,2/6,,1/7,1>4[8:1]/7<4[8:1],
{4},,1b/8b,2b/7b,
{8}4/6,4/6h[8:13],,,,5,,5,
{8},4,4,,B7/E7,,B5/E6,,
{8}3,3h[8:13],,,,4,,4,
{8},5,5,,B2/E3,,B4/E4,,
{4}6h[2:1],5,4h[2:1],3,
{4}2h[2:1],1,1,2/8,
{8}5/7,5/7,,2/4,2/4,,4/6,4/6h[8:7],
{4},,1b,1b,
{8}3/5,,3/7,,3,4,3/4,,
{8}B6/E6/3,,B4/E5/3,,3,7,3/7,,
{8}B5/E5/3,,B7/E7/3,,3,1,1/3,,
{8}B6/E6/3,,B4/E5/3,,3,7,3/7,,
{4}5<7[16:3],4,3pp5[4:1],8,
{4}1<6[4:1],4,3,2/6,
{8}1/7,,3,3,5,2q5[8:5],,8b,
{4},,8x,8x,
{2}3>6[4:5],C1,
{2},C1,
{2}3>6[4:5],C1,
{2},C1,
{1}3pp4[1:1]*V14[1:1],
{2},3x/5x,
{4}4/6-1[4:5],4,4,4,
{4}4,4,4,4,
{4}4/8<5[4:5],4,3,3,
{4}2,2,1,1-5[8:1],
{4}8,7-4[8:1],1,2-5[8:1],
{8}8,8,8,8,1/8,1/8,2/7,,
{1}C1f/E1/B2/B4/B5/B7,
{4}1b,2b,3b,4/8,
{8}1x-6[8:1]/6-1[8:1],,1V73[4:1]/6V83[4:1],,,,,2x-6[8:1],
{8},8>4[4:1],,4<8[4:1],,8,,1-4[8:1],
{8},7,6-1[8:1],5,4,3q6[8:3],,C1f,
{8},,,8h[4:1],,3,2/7,1/6,
{8}1-6[8:1]/6-1[8:1],,1V73[4:1]/6V83[4:1],,,,,2x-6[8:1],
{8},8>4[4:1],,4<8[4:1],,8,,2h[4:1],
{8},B7/E8,1b,B3/E3,1b,B6/E6,1b,B4/E5,
{8}1x/8x,1x/8x-3[8:1]*-5[8:1],,,,2b/6b,,,
{8}3-8[8:1]/8-3[8:1],,3V16[4:1]/8V26[4:1],,,,,7x-3[8:1],
{8},1<5[4:1],,5>1[4:1],,1,,8-5[8:1],
{8},2,3-8[8:1],4,5,6p3[8:3],,C1f,
{8},,,1h[4:1],,6,2/7,3/8,
{8}3-8[8:1]/8-3[8:1],,3V16[4:1]/8V26[4:1],,,,,7x-4[8:1],
{8},8,,2xh[4:1],,8,3/7,,
{8}5/6,4/7,,3/4,2/5,,5/7,4/8,
{8},2/4,1/5,,1/8,2/7,3qq5[1:1]/6pp4[1:1],,
{1}3b/6b,
{16},,,,,,,,1h[8:1]/2h[8:1],,,3h[8:1]/8h[8:1],,,4/7,,
{1}4bqq6[1:1]/7bpp5[1:1],
{16},,,,,,,,7h[8:1]/8h[8:1],,,1h[8:1]/6h[8:1],,,2/5,,
{1}2bqq4[1:1]/5bpp3[1:1],
{16},,,,,,,,1h[8:1]/8h[8:1],,,2h[8:1]/7h[8:1],,,3/6,,
{1}3bqq5[1:1]/6bpp4[1:1],
{4},,1,8,
{16}5/7,,,,4/5,,,,2h[8:1]/4h[8:1],,,2h[8:1]/4h[8:1],,,3/5,,
{16}3/5,,,,4/6,,,,5h[8:1]/7h[8:1],,,5h[8:1]/7h[8:1],,,4/6,,
{16}4/6,,,,3/5,,,,2h[8:1]/4h[8:1],,,2h[8:1]/4h[8:1],,,3/5,,
{4}3/5,4/5,1/8,2/7,
{4}4/5x-7[8:1],4,4/7x-5[8:1],4,
{4}4x-2[8:1]/5,5,2x-4[8:1]/5,5,
{4}4/5x-8[8:1],4,4/8x-5[8:1],4,
{4}4x-1[8:1]/5,5,1x-4[8:1]/5,5,
{4}5<8[8:1],2,4>1[8:1],7,
{4}5<8[8:1],2,4>1[8:1],7,
{4}5-8[8:1],4-1[8:1],5-7[8:1],4-2[8:1],
{4}5-8[8:1],4-1[8:1],5h[4:1],1x,
{4}2/7,C1f/E1/B2/B4/B5/B7,,,
{1},
{1},
{4},,1x/8x,1x/8x,
{4}5h[4:1],6h[4:1],7h[4:1],8h[4:1],
{4}1h[4:1],2,1/2-5[1:1],1-6[4:3]/2,
{1},
{8}2/7,2/7,,4/5-8[8:1],,1b,,,
{8}1-5[8:1]/2-5[8:1],,1V37[4:1]/2-7[4:1],,,,,6x>3[8:1],
{8},1-5[8:1]/6,,1/8-4[8:1],,2/8,,1-4[8:1],
{8},7,6-1[8:1],5,4,3>6[4:1],8,8b,
{8},,,5x-8[8:1],,1>7[8:3],,C1f,
{8},8x,8x-3[8:1],,1V75[4:1],,5V31[4:1],,
{4}1V75[4:1],5V31[4:1],1,5,
{8}3/4,2/5,,5/6,4/7,,2/4,1/5,
{8},5/7,4/8,,7/8,1/6,2/5,,
{8}1/2,B5/E5/B6,,7/8,B3/B4/E5,,1/2,B5/E5/B6,
{8},1/8,1>4[4:1]/8,,4-8[4:1],,8<5[4:1],,
{1}5-1[4:3],
{4}8x,2b-7[8:1]/5b,6-3[8:1],1-4[8:1],
{4}5-8[8:1],3-6[8:1],7-2[8:1],4-1[8:1],
{4}8-5[8:1],2-7[8:1],6-3[8:1],1h[4:1],
{8}8,1/7,2/6,3/5-1[8:1],,1b,,3/8,
{4}3/8-3[8:1],4-7[8:1],1-6[8:1],5-2[8:1],
{4}7-4[8:1],3-8[8:1],6-1[8:1],2-5[8:1],
{4}8-3[8:1],4-7[8:1],8-3[8:1]*-5[8:1],,
{8}2/6,3,4/8,7,1/6,2/7,3-8[8:1]/8-3[8:1],,
{1}3bV16[8:27]/8bV26[8:27],
{1},
{1},
{4},,,7-3[8:1],
{1},
{1},
{1},
E
