&title=エゴロック
&artist=すりぃ
&wholebpm=225
&first=1.06
&lv_2=5
&lv_3=7+
&lv_4=10
&lv_5=13+
&des_4=畳返し
&des_5=はっぴー
&inote_2=
(225.0){1},,
{1}1x,,
{1}1,,
{1}8,,
{1}8,,
{1}7,
{1}7,
{1}6,
{1}6,
{1}5,
{1}5,
{1}4x/5x,,
{1}4,
{1}4,
{1}3,
{1}3,
{1}2,
{1}2,
{1}1/8,,
{2}1,1,
{1}1,
{1}1,
{1}1,
{2}8,8,
{1}8,
{1}1/8,
{1}1/8,
{4}1x,1,1,,
{2}2,2,
{4}3,3,3,,
{1}4/5,
{4}5,5,5,,
{2}6,6,
{4}7,7,7,,
{1}7x/8x,
{4}8,8,8,,
{2}7,7,
{4}6,6,6,,
{2}5,5,
{4}4,4,4,,
{2}3,3,
{4}2,2,2,,
{1}1/2,
{4}1,1,1,,
{1}1/8,
{4}8,8,8,,
{1}1/8,
{2}1x/8x,1x/8x,
{1}1x/8x,
{1}8-5[4:5],,,
{1}1,
{1}1-4[4:5],,,
{1}5,
{1}4h[1:1]/5h[1:1],,
{1}3h[1:1]/4h[1:1],,
{1}5h[1:1]/6h[1:1],,
{1}4h[1:1]/5h[1:1],,
{1}B4,
{1}B5,
{1}B3,
{1}B6,
{1}B2,
{1}B7,
{1}C1,,
{4}1b,1,1,,
{2}2,2,
{4}3,3,3,,
{1}3/4,
{4}5,5,5,,
{2}6,6,
{1}7x/8x,
{1}7x/8x,
{4}8,8,8,,
{2}7,7,
{4}6,6,6,,
{2}5,5,
{4}4,4,4,,
{2}3,3,
{4}2,2,2,,
{1}1/2,
{4}8,8,8,,
{1}7/8,
{4}1,1,1,,
{1}1/2,
{2}8,8,
{2}1,1,
{4}1/8,1/8,1/8,,
{1}2b/7b,
E
&inote_3=
(225.0){1},,
{2}3,3,
{1}3,
{2}4,4,
{1}4,
{2}5,5,
{1}5,
{2}6h[2:1],5,
{1}5/6,
{2}6,6,
{1}6,
{2}5,5,
{1}5,
{2}4,4,
{1}4,
{2}3h[2:1],4,
{1}3/4,
{2}2h[2:1],1,
{2}1/2,1/2,
{2}3h[2:1],4,
{2}3/4,3/4,
{2}6h[2:1],5,
{2}5/6,5/6,
{2}4h[2:1],5,
{2}4/5,3/6,
{2}7h[2:1],8,
{2}7/8,7/8,
{2}6h[2:1],5,
{2}5/6,5/6,
{2}3h[2:1],4,
{2}3/4,3/4,
{2}5h[2:1],4,
{2}4x/5x,3x/6x,
{4}3,3,3,,
{4}2,2,2,,
{4}1,1,1,,
{4}7/8,7/8,7/8,,
{4}6,6,6,,
{4}7,7,7,,
{4}8,8,8,,
{4}1/2,1/2,1/2,,
{2}3h[2:1],4,
{4}5,5,5,,
{4}6,6,6,,
{4}7,7,7,,
{2}1/8,1/8,
{2}2/7,2/7,
{2}3/6,3/6,
{4}4/5,4/5,4/5,,
{2}6h[2:1],5,
{4}4,4,4,,
{4}3,3,3,,
{4}2,2,2,,
{1}1h[2:1]/8h[2:1],
{1}1x/8x,
{2}B2,B3,
{1}B4,
{2}B7,B6,
{1}B5,
{2}B2,B3,
{2}B4,B5,
{2}B6,B7,
{1}B8,
{2}2h[2:1],3h[2:1],
{1}4,
{2}7h[2:1],6h[2:1],
{1}5,
{2}2h[2:1],3h[2:1],
{2}4h[2:1],5h[2:1],
{2}6h[2:1],7h[2:1],
{1}8b,
{1}1-5[4:3],,
{1}7-4[4:3],,
{1}2-5[4:3],,
{1}7b,,
{4}8,8,7,7,
{4}6,6,6,,
{4}5,5,4,4,
{4}3,3,3/4,,
{4}1,1,2,2,
{4}3,3,3,,
{4}4,4,5,5,
{4}6,6,5/6,,
{2}6h[2:1],5,
{4}4,4,3,3,
{4}2,2,1,1,
{4}8,8,1/8,,
{2}1/8,1/8,
{2}2/7,2/7,
{2}3/6,3/6,
{4}4/5,4/5,4/5,,
{2}3h[2:1],4,
{4}5,5,6,6,
{4}7,7,8,8,
{4}1,1,1/8,,
{1}1h[2:1]/8h[2:1],
{1}1x/8x,
{4}1/8,1/8,2/7,2/7,
{1}3b/6b,
E
&inote_4=
(225.0){1},
{2}4/5,2/8,
{4}4,4,3,,
{4}5,5,6,,
{4}4,4,3,,
{4}5,5,6,,
{4}4,4,3,,
{4}3,3,2hx[4:1]/4hx[4:1],,
{1}1>5[2:1],
{4}6x,6x,6h[4:1],,
{4}5,5,4/6,,
{4}4,4,3/5,,
{4}5,5,4/6,,
{4}4,4,3/5,,
{4}5,5,4/6,,
{4}6,6,5h[4:1]/7h[4:1],,
{1}8<4[2:1],
{4}3x,2x/4x,2x/4x,,
{4}5,5,4,4,
{4}3,2,1/8,,
{4}3,3,3/4,,
{4}6,6,5/6,,
{4}4,4,5,5,
{4}6,7,1/8,,
{4}6,6,5/6,,
{4}3,3x/4x,3x/4x,,
{4}1,1,8,8,
{4}7,6,4/5,,
{4}7,7,7/8,,
{4}2,2,1/2,,
{4}8,8,1,1,
{4}2,3,4/5,,
{4}3/4,3/4,5/6,5/6,
{4}2x/3x,2x/3x,4h[4:1]/8h[4:1],,
{4}6h[4:1],5,3h[4:1],4,
{4}5/6,5/6,1b/2b,3hx[4:1],
{4}4x,6hx[4:1],5x,3/4,
{4}5/6,5/6-1[4:1],,,
{4}7/8,7/8,6/7,6/7,
{4}7,6,4x/5x,3/4,
{8}3/4,,,1x/2x,,1x/2x,,1x/2x,
{4},B8,B7,B6,
{4}4,4,3/5,3/5,
{4}3,2/4,2/4,,
{4}5,5,4/6,4/6,
{4}6,5/7,5/7,,
{4}8,8,1/7,1/7,
{4}7,6/8,6/8,1x,
{8}1x/2x,,1x/2x,,3/8,,,7hx[4:1]/8hx[4:1],
{4},7x/8x,1/6,,
{4}1,1,2/8,2/8,
{4}2,1/3,1hx[4:1]/3hx[4:1],,
{4}4,4,5x/6x,5x/6x,
{4}4/5,3x,2x,1x/8x,
{1}1b^4[4:1]/8b^5[4:1],
{4}2b/7b,1-5[4:1]/8-4[4:1],,,
{1}3h[2:1]/6h[2:1],
{4}B7,B6,B5,,
{2}B3/B4,B5/B6,
{4}B2,B3,B4,,
{2}B6/B7,B2/B3,
{4}E8,E1,E2,,
{2}B4/B5,B3/B6,
{4}1x/7x,1x/7x,1x/7x,,
{4}3,3,2,2,
{2}1^4[4:1],5,
{4}6,6,7,7,
{2}8^5[4:1],4,
{4}5x,3/4,3/4,,
{4}1,1,2,3/4,
{4}5,4,
{2}3xq6[4:3],{1},
{4}6h[1:1],,,5,
{4}5h[1:1],,,4,
{4}4h[4:3],,,3,
{2}3/4,3/4,
{4}3/4h[1:1],,,5,
{4}5h[4:3],,,6,
{8}6,,,5x/6x,,5x/6x^1[2:1],,,{1},
{4}5/6h[4:1],5x,4/3h[4:1],4x,
{4}5/6,5/6,1b/2b,3h[4:1],
{4}4,6h[4:1],5,3/4,
{4}5b/6b,5-2[4:1]/6-1[4:1],,,
{4}7/8,7/8,6/7,6/7,
{4}7,6,4x/5x,3/4,
{8}3/4,,,1b/2b,,1b/2b,,1b/2b,
{4},B8,B7,B6,
{4}4,4,3/5,3/5,
{4}2,1/3,1/3,,
{4}5,5,4/6,4/6,
{4}7,6/8,6/8,,
{4}8,8,1/7,1/7,
{4}6,5/7,5/7,4x,
{8}3/4,,3/4,,1b/2b,,,5h[4:1]/6h[4:1],
{4},5/6,7b/8b,,
{4}1,1,2/8,2/8,
{4}3,2/4,2hx[4:1]/4hx[4:1],,
{4}4,4,5x/6x,5x/6x,
{4}4/5,3,2,1/8,
{1}1b^4[4:1]/8b^5[4:1],
{4}2b/7b,1-5[4:1]/8-4[4:1],,,
{4}5,4,3,2-6[4:1],,,
E
&inote_5=(225){4},,,,
3^5[8:1],3x/7x,2b/8b,,
7-4[8:1],3,{8}1,1,5,26,
,37,,26,2/6^3[8:1],,1,,
2-5[8:1],,6,,8,8,4,37,
,26,,37,3b-1[8:1]/7b,,3b/5b,,
7-4[8:1],,2,,1,1,5,26,
,37,,26,2/6^3[8:1],,1-5[8:1],,
8,,8,,17,26,35,,
7-5[8:1],,1b-3[8:1]/7b,,1b/8b-4[8:1],,1b/8b,,
2-5[8:1],,6,,8,8,4,37,
,26,,37,3^6[8:1]/7,,8,,
7-4[8:1],,3,,1,1,5,26,
,37,,26,2b/6b-8[8:1],,4b/6b,,
2-5[8:1],,7,,8,8,4,37,
,26,,37,3^1[8:1]/7,,8,8h[4:1],
,1,1,,{16}4,5,4,5,3,6,3,6,
4,5,4,5,{8}4,,3b/6b,3b/6b,,,
2,2,4,4,3,3,{4}5-7[8:1],
4,2v5[8:1]/8v5[8:1],,4x/6x,
5>1[8:1]/7,6,4<8[8:1],3,
5>1[8:1],6,4,6,
57,4-2[8:1],4-6[8:1],4-1[8:1],
4-7[8:1],4-8[8:1],4,1-5[8:1],
1,7-5[8:1]/8-4[8:1],78,1>8[2:1],
1b/7h[4:3],,,E2,
{8}8,8,5,5,6,6,{4}4V28[4:1],
8V64[4:1],4,8,3-7[8:1],
5,6-2[8:1],4,3h[4:1],
E6,E5,E4,,
3x/4x,5x/6x,1x/2x,7x/8x,
2b/8b,1b/7b,2b/8b,4x/5x,
5/B2/E2/E3,4/B7/E7/E8,35,2^4[8:1]/6^8[8:1],
2v4[8:1]/6v8[8:1],,B4/B8/Cf,,
2b^8[8:1],{8}5pp5[4:1]*qq5[4:1],5,,,,,
4V28[4:1],4,{4}6-4[8:1],6x,2h[4:1]/5,
6,4/7h[4:1],8h[4:1],1,
5/7h[4:1],6-1[8:1],,,
3h[4:1],5h[4:1],8b,1pp4[2:1]/7b,
5,5,6,6,
{8}2x/5x,2x^8[8:1]/5xh[4:3],,2x^4[8:1],,2xpp5[8:5],,2b,
,6,{4}6,7-3[8:1],7b,
2-4[8:1]/8-6[8:1],28,2-4[8:1]/8-6[8:1],28,
1-3[8:1]/7-5[8:1],17,1-3[8:1]/7-5[8:1],17,
2-4[8:1]/8-6[8:1],28,2-4[8:1]/8-6[8:1],28,
1b/7b,{8}3,3,5,5,1,1,
7b-3[8:1],,2b-6[8:1]/7b,,2b/5b,,4,4>6[2:1],
,,5x,,4x,,3x,,
2xh[8:1]/8xh[8:1],,2xh[8:1]/8xh[8:1],,3h[4:1]/7h[4:1],,,2xh[4:1]/8xh[4:1],
{4},2xh[8:1]/8xh[8:1],3-6[8:1]/7h[4:1],3b,
8x,57,1,24,
6h[4:1],8h[4:1],1h[4:1],3,
8,8-4[8:1],1-3[8:1],7-5[8:1],
1,1^4[4:1]/8^5[4:1],,,
B3/B6/Cfh[1:1],,,,
B2/B7,,1x/8x,1x/8x,
5-1[8:1]/7,6,2/4-8[8:1],3,
5-1[8:1]/7,6,24,3/8<4[4:1],
4>8[4:1],8<4[4:1],4>8[4:1],8,
{8}4,4,{4}6,2b/8b,,
2/4-8[8:1],3,5-1[8:1]/7,6,
24,18,57,18,
{12}1x/6x,5,4,6x,5,4,6x,5,4,6x,5,4,
{4}6x,1b/7b,1b/7b,,
3^6[4:1],,8,8,
7^2[4:1],,4,4,
3^6[4:1],,8,8w4[4:1],
,,35,3-6[2:5]/5,
,7,7,8,
8,1,1,2,
2,3,3b>6[4:3]*p6[4:3],,
,,,,
7h[4:3],,,5^8[2:1],
3h[4:3],,,4^1[2:1],
6h[4:3],,,5,
3h[2:1],,4,,
2h[4:3],,,4,
35,,6^1[4:1],1b<5[4:1],
2b,,,,
{8}6,6,5,4,4,5,3b/6b,,
2b^8[8:1]/4b,,5qq5[4:1],5,5pp5[4:1],,,,
4V28[4:1],4,6-4[8:1],,6b,,25,25,
{4}25,4/7h[4:1],8h[4:1],1,
5/7h[4:1],6-1[8:1],6xh[4:1],,
{8}3,3,5h[4:1],,8b,,1pp4[2:1]/7b,,
5,,7,7,7,,6,,
25,2^8[8:1]/5h[4:3],,2^4[8:1],,2pp5[8:5],,2b,
,6,{4}6,7-3[8:1],7b,
2/8-6[8:1],2-4[8:1]/8,2/8-6[8:1],1-3[8:1]/8,
1/7-5[8:1],1-3[8:1]/7,1/7-5[8:1],2-4[8:1]/7,
2/8-6[8:1],2-4[8:1]/8,2/8-6[8:1],28,
1b,{8}3,3,5,5,1,1,
7b-3[8:1],,2b-6[8:1]/7b,,2b/5b,,4,4>5[2:1],
,,5x,,4x,,3x,,
2h[8:1]/8h[8:1],,2h[8:1]/8h[8:1],,3h[4:1]/7h[4:1],,,2h[4:1]/8h[4:1],
{4},2h[8:1]/8h[8:1],3^6[8:1]/7h[4:1],3b,
8-4[8:1],4,1-5[8:1],5,
6,78,12,34,
6pp1[4:3],4,4,5,
6,1^4[4:1]/8^5[4:1],,,
B3/B6/Ch[1:1],,,,
B2/B7,,1x/8x,,
1b-5[8:1],2b-6[8:1],3b-7[8:1],4w8[8:1],
{1}4b,,
