&title=くらべられっ子
&wholebpm=194
&artist=ツユ
&des=緑風 犬三郎
&shortid=11407
&genre=POPSアニメ
&cabinet=DX
&version=maimai DX UNiVERSE PLUS
&chartconverter=Neskol
&lv_2=2
&des_2=
&lv_3=7
&des_3=
&lv_4=9+
&des_4=翠楼屋
&lv_5=11
&des_5=緑風 犬三郎
&lv_6=13
&des_6=はっぴー
&inote_2=
(194){1},
{1},
{1}1,
{1},
{1}1,
{1},
{1}8,
{1},
{1}8,
{1},
{1}1h[1:2],
{1},
{1},
{1},
{1}8h[1:2],
{1},
{1},
{1},
{1}1,
{1}1,
{1}2,
{1}2,
{1}3,
{1}3,
{1}4/5,
{1}4/5,
{1}6,
{1}6,
{1}7,
{1}7,
{1}8,
{1}8,
{1}1,
{1}1,
{1}1h[1:1]/8h[1:1],
{1},
{1}1/8,
{1}1x/8x,
{1}8-5[4:5],
{1},
{1},
{1}1,
{1}1-4[4:5],
{1},
{1},
{1}8,
{1}8-4[4:5],
{1},
{1},
{1}1h[1:1],
{1},
{2}8b,8,
{1}8,
{1}7,
{1}7,
{2}6,6,
{1}6,
{1}4/5,
{1}4/5,
{2}4,4,
{1}4,
{1}3,
{1}3,
{2}2,2,
{1}2,
{1}1xh[1:1]/8xh[1:1],
{1},
{1}1x/8x,
{1},
{1}B1,
{1}B8,
{1}B2,
{1}B7,
{1}B3,
{1}B6,
{1}C1xh[1:2],
{1},
{1},
{1},
{1}1h[1:1]/8h[1:1],
{1},
{1}1/8,
{1}1x/8x,
{2}1b,1,
{1}1,
{2}2,2,
{1}2,
{2}3,3,
{1}3,
{1}4/5,
{1}4/5,
{2}5,5,
{1}5,
{2}6,6,
{1}6,
{2}7,7,
{1}7,
{1}1/8,
{1}1/8,
{1}7h[1:1]/8h[1:1],
{1},
{1}5h[1:1]/6h[1:1],
{1},
{1}3h[1:1]/4h[1:1],
{1},
{1}1h[1:2]/2h[1:2],
{1},
{1},
{1},
{1},
E
&inote_3=
(194){1},
{1},
{1}6h[1:1],
{1}5h[1:1],
{1}4h[1:1],
{1}3,
{1}2h[1:1],
{1}1h[1:1],
{1}8h[1:1],
{1}7,
{1}4h[2:1]/6h[2:1],
{1}3h[2:1]/5h[2:1],
{1}4h[2:1]/6h[2:1],
{1}3/7,
{1}8<1[4:5],
{1},
{1}1x/8x,
{2}2/7,3/6,
{2}6h[2:1],5,
{2}3h[2:1],4,
{2}6h[2:1],5,
{1}3-8[2:1]/4,
{2}7h[2:1],8,
{2}2h[2:1],1,
{2}7h[2:1],8,
{2}1/8,2/7,
{1}B2/E2,
{1}B4/E4,
{1}B6/E6,
{1}B8/E8,
{4}6,6,5,,
{4}3,3,4,,
{4}6,6,5,5,
{4}4,4,3/5,,
{4}2,2,1,,
{4}7,7,8,,
{4}2,2,1,1,
{1}2h[2:1]/7h[2:1],
{1}6<1[2:1],
{1}2q6[2:1],
{1}7p3[2:1],
{2}2,1/8,
{1}2>5[2:1],
{1}6<1[2:1],
{2}2,1,
{2}8,1/8,
{4}7,7,7,,
{4}2,2,2,,
{4}3,3,4,4,
{4}4x/5x,4x/5x,3x/6x,,
{4}E4,E5,E6,,
{4}7b,7,7/8,7/8,
{4}2,2,1/2,1/2,
{4}3,3,4,4,
{4}5,5,4/6,,
{4}3,3,3/4,3/4,
{4}6,6,5/6,5/6,
{4}7,7,8,8,
{4}1/8,1/8,2/7,,
{4}3h[4:1],4,3/4,,
{4}6h[4:1],5,5/6,,
{4}7,7,8,8,
{4}1/8,1/8,2/7,,
{1}7<4[2:1],
{1}3>8[2:1],
{1}7p3[2:1],
{4}2,2,1,8,
{1}7bqq4[4:5],
{1},
{1}3qq8[4:5],
{1},
{1}7-4[2:1],
{1}3-8[2:1],
{1}7z3[1:1],
{1},
{1}C1xh[1:1],
{1},
{1}B6/E7,
{1}B3/E3,
{2}7h[2:1],8,
{2}2h[2:1],1,
{4}7,7,1/8,,
{1}C1,
{4}2b,1/2,2,1/2,
{4}7,7/8,7,7/8,
{4}6,6,5,5,
{4}4,4,3/5,,
{4}6,5/6,6,5/6,
{4}3,3/4,3,3/4,
{4}2,2,1,1,
{4}1/8,1/8,2/7,,
{4}6h[4:1],5,5/6,,
{4}3h[4:1],4,3/4,,
{4}2,2,1,1,
{4}1/8,1/8,2/7,,
{4}7,7,8,8,
{4}1,2,3,4,
{1}4x>1[2:1]/5x<8[2:1],
{4}7,7,8,8<1[4:5],
{1},
{1},
{1}1pp4[4:5]/8qq5[4:5],
{1},
{4}6,6,5/6,,
{4}3,3,3/4,,
{4}6,6,5,5,
{4}4,4,3,2,
{1}1x/8x,
{1},
{1},
{1},
E
&inote_4=
(194){1},
{1},
{1}3h[1:1],
{1}4h[1:1],
{1}5h[1:1],
{1}6,
{1}6h[1:1],
{1}5h[1:1],
{1}4h[1:1],
{1},
{1}3h[2:1]/4h[2:1],
{1}5h[2:1]/6h[2:1],
{1}4h[2:1]/5h[2:1],
{1}3/6h[2:5],
{2}5,5,
{2}5,5>2[4:3],
{1},
{4}B1,C1,B5,,
{4}6,6,4,,
{2}3/5,2/6,
{4}3,3,5,,
{2}4/6,3/7,
{2}6h[2:1],5,
{2}3h[2:1],4,
{4}5,5,4h[2:1],,
{1}C1f,
{1}3h[1:2]/6>4[8:3],
{2}4,4,
{1}2<8[8:3],
{2}2h[2:1],8x,
{4}1,2,3,4,
{4}5,6,7h[2:1],,
{4}8,8,1/7,,
{4}1,1,2/8,,
{4}3,5,6,6,
{4}3,5,6,6,
{4}5/6,5/6,4/7,4/7<4[2:1],
{1},
{2}2h[2:1],4h[2:1],
{4}E4,E3,E2,,
{2}7h[2:1],5h[2:1],
{4}E6,E7,E8,,
{2}2h[2:1],1h[2:1],
{4}E2,E3,E4,,
{1}8qq8[4:3],
{2}1,2/7,
{4}3,3/4,6,5/6,
{4}3,2/4,6,5/7,
{4}4,3/5,2/6,2/6,
{4}3b/4b,5b/6b,4b/7b,,
{4}E6,E5,E4,,
{4}1/2,1/2,3/4,5/6,
{4}7/8,7/8,5/6,3/4,
{4}1/2,3/8,7/8,1/6,
{4}3b/8b,,5,5,
{4}3h[4:1],1,6h[4:1],8,
{4}2h[4:1],4,7h[4:1],5,
{4}4/8,5/7,4/5,2q7[8:3]/4,
{4},,8x,8x,
{4}7,4/6,3/5,1/8,
{4}2,3/5,4/6,1/8,
{4}7,7/8,2,1/2,
{4}3b/8b,,1/2,8,
{2}7h[2:1],5h[2:1],
{2}4h[2:1],2h[2:1],
{4}8h[2:1],,1,1,
{4}1,2,3/7,,
{4}4/6h[4:3],,5,5>7[4:3],
{1},
{4}6h[4:3],,5,5>7[4:3],
{1},
{4}6,6,5/7,,
{4}3,3,2/4,,
{1}5/6z2[4:3],
{4}1,1,1/8,,
{1}7-4[4:5],
{1},
{1}4-7[4:5],
{4},,,8,
{4}1h[2:3]/7,7,6,6,
{4}5,5,4h[2:1],,
{4}3b,4b/5b,5b/6b,7b-3[8:1],
{2},1b,
{4}3/4,3/4,1/2,7/8,
{4}5/6,5/6,7/8,1/2,
{4}3/4,1/8,5/6,1/8,
{4}2b/6b,,3/5,4/6,
{4}7h[4:1],5,2h[4:1],1,
{4}6h[4:1],8,3h[4:1],4,
{4}1/2,1/2,7/8,5q2[4:1]/6<1[4:1],
{4},,3,3/4,
{4}2/5,3/4,5/6,4/7,
{4}3/8,1/2,7/8,1/6,
{4}2/7,3/4,5/6,2b-5[8:1]/7b-4[8:1],
{4},,3/6,3/6,
{2}2h[2:1]/7,1h[2:1],
{2}8h[2:1],7h[2:1],
{1}8p4[8:3]*q4[8:3],
{4}5,5,4,3-6[1:1]/7-2[1:1],
{1},
{4},,4/5,3,
{4}2h[2:1],,5,6,
{4}7h[2:1],,4,3,
{4}2h[2:1],,1,8,
{4}7h[2:1],,8,1,
{4}2h[2:1],,4,4,
{2}3/4h[8:7],5h[8:3],
{1},
{1},
{1},
E
&inote_5=
(194){1},
{1},
{2}6h[1:1],E5,
{2}3h[1:1],E5,
{4}6h[2:1],,5,5p4[4:3],
{1},
{2}3h[1:1],E5,
{2}6h[1:1],E5,
{4}3h[2:1],,4,5,
{2}4/6,4/6,
{4}3/5,3/5,2,3,
{4}4/6,4/6,3/7,,
{4}6,5,4,3<6[4:1],
{2}7h[2:5],6,
{2}6,6,
{2}6,6p4[4:3],
{1},
{4}E3,E4,E5,E6,
{8}6h[4:1],,4,,3,3,4,2h[4:1],
{8},8,8,,7,,4/6,,
{4}3h[4:1]/5,1h[4:1],8h[4:1],6h[4:1],
{4}4,4/6,5,4,
{8}3h[4:1],,5,,6,6,5,7h[4:1],
{8},1,1,,2,,3/5,,
{4}4/6h[4:1],8h[4:1],1h[4:1],3<6[4:1],
{1}C1f,
{4}6,6,4,4,
{4}2,2h[4:1],4,4,
{4}3,3,5,5,
{4}6,6h[4:1],8x,,
{4}1,2,3,4,
{4}5,6,7,7,
{4}8-5[8:1],2,1-4[8:1],7,
{4}8-4[8:1],2,1x,1,
{4}2V46[4:1],7,8,8,
{4}1,2-5[8:1]/7-4[8:1],,,
{4}3/6h[2:1],5,3h[4:1],4qq5[8:5],
{1},
{4}7>2[4:1],4,5,5,
{4}7>2[4:1],4,5,5,
{4}7>2[4:1],4,5,5,
{4}8<5[4:1],3,2,2-6[4:1],
{2}7h[2:1],5h[2:1],
{4}4h[2:1],,2,2,
{2}1-4[4:1],8-5[4:1],
{4}4h[2:1],,5,6,
{8}3,3,5,5,2,2,4,4,
{8}3,3,6,6,4,4,7,7,
{4}5,4/6,4/6,3/5,
{4}2b/4b,1b/8b,5b/7b,,
{4}E6,E5,E4,,
{4}1/2,4/5,1-5[8:1]/2-4[8:1],1x/2x,
{4}7/8,4/5,7-5[8:1]/8-4[8:1],7x/8x,
{4}1-5[8:1]/2-4[8:1],1x/2x,7-5[8:1]/8-4[8:1],7x/8x,
{4}1/2,3/4,5/6,7/8,
{4}1>5[4:1],5<1[4:1],1,5,
{4}8<4[4:1],4>8[4:1],8,4,
{4}1/2,3/4,5/6,7<4[4:1]/8p3[4:1],
{4},,3/4,2-6[8:1],
{4}6,7-3[8:1],3,2-6[8:1],
{4}6,8-4[8:1],3,,
{4}2-5[8:1]/7-4[8:1],2x/7x,1-3[8:1]/8-6[8:1],1x-5[8:1]/8x-4[8:1],
{4}1x/8x,,4/5,4/5,
{2}3/6h[2:1],8h[2:1],
{2}1h[2:1],3h[2:1],
{2}5<8[4:1],4>1[4:1],
{4}8,7,1,2,
{4}3h[2:3]/5,5,6,4<8[4:1],
{1},
{4}4/6h[2:3],4,3,5>1[4:1],
{1},
{8}3,,4,,6,6,5,,
{8}3,3,4,,4/5,,3/6,,
{12}2/7,,,1x,2x,3x,4x,5x,6x,7x,8x,1x,
{12}2x,3x,4x,5x,6x,7x,8x,,,,,,
{1}1-4[2:1]/8-5[2:1],
{1}4-8[2:1]/5-1[2:1],
{1}1p5[4:1]/8<6[4:1],
{4}1>3[4:1]/8q4[4:1],,,1/8,
{4}1h[1:2]/8,7,7,6,
{4}6,5,5,4,
{4}4b,6b,8b,2b-6[8:1],
{2}7h[2:1],1b,
{4}7/8,3/4,7-4[8:1]/8-3[8:1],7x/8x,
{4}1/2,5/6,1-6[8:1]/2-5[8:1],1x/2x,
{4}7-4[8:1]/8-3[8:1],7x/8x,1-6[8:1]/2-5[8:1],1x/2x,
{4}7/8,5/6,3/4,1/2,
{4}8V64[4:1],4V28[4:1],8,4,
{4}1V35[4:1],5V71[4:1],1,5,
{4}7/8,7/8,5/6,3>8[4:1]/4p7[4:1],
{4},,5/6,7-3[8:1],
{4}3,2-6[8:1],6,7-3[8:1],
{4}3,1-5[8:1],6,6,
{4}2-5[8:1]/7-4[8:1],2x/7x,1-5[8:1]/8-4[8:1],1x>4[8:1]/8x<5[8:1],
{4}1x/8x,,4/5,4/5,
{2}3h[2:1]/6,1h[2:1],
{2}8h[2:1],6h[2:1],
{2}4>1[4:1],5<8[4:1],
{4}1,2,8,3-6[1:1]/7-2[1:1],
{1},
{4},,4/5,3,
{4}2h[2:1],,5,6,
{4}7h[2:1],,4,3,
{4}2h[2:1],,1,8,
{4}7h[2:1],,8,1,
{4}2h[2:1],,5,6,
{8}1/7,,1>4[8:1]/7<4[8:1],,,,3x/5x,3x/5x,
{1},
{1},
{1},
E
&inote_6=
(194){1},
{2},E5,
{4}3h[4:1]/5,4<6[4:1],,,
{4}4/6h[4:1],5>3[4:1],,,
{4}3h[4:1]/5,4<6[4:1],,,
{4}6h[4:1],4,3/7,,
{4}4/6h[4:1],5>3[4:1],,,
{4}3h[4:1]/5,4<6[4:1],,,
{4}4/6h[4:1],5pp4[8:5],,,
{2},3h[4:1]/5h[4:1],
{4}3/5,3-1[8:1]/4,,8,
{4}7/8,7-5[8:1]/8,,,
{4}4,3-7[4:1],5,6-2[4:1],
{4}1h[2:1],,4,5,
{2}4h[4:1]/5h[4:1],5h[4:1]/6h[4:1],
{4}6h[4:1]/7h[4:1],,6/7,5pp5[8:5]*qq5[8:5]/8,
{1},
{4}3h[4:3],4,5h[4:1],,
{8}2>6[4:1],,6,,7,7,6,8h[4:1],
{8},5,5-3[8:1],,7-3[8:1],,2h[4:1],,
{4}4h[4:1],5h[4:1],7h[4:1],1h[4:3],
{24},,,,,,E4,B4,B5,E6,,,8x,,,8x,,,8x,,,,,,
{8}7<3[4:1],,3,,2,2,3,1h[4:1],
{8},4,4-6[8:1],,2-6[8:1],,7h[4:1],,
{4}5h[4:1],4h[4:1],2h[4:1],8<1[2:1],
{1}C1f,
{8}6,5,4,3h[8:3],5,,5,,
{8}6,5,4,3h[8:3],5,,5,,
{8}6,5,4,3h[8:3],5,,5,,
{4}4/5,3/4-1[8:1],2xh[4:1],,
{4}1h[4:1],2h[4:1],3h[4:1],4h[4:1],
{4}5h[4:1],6h[4:1],7,8,
{4}5/7h[4:1],5,2h[4:1]/4,4,
{4}3,4,5,4/6,
{4}7-3[8:1],1-5[8:1]/7,1/8,3/7,
{4}2-6[8:1],2/8-4[8:1],1/8,2/6,
{4}3h[4:1]/5,4,4/6h[4:1],5bp4[2:1],
{1},
{8}3>8[4:1],,,5,5,,4,,
{8}3>8[4:1],,,5,5,,4,,
{8}3p7[4:1],,,5,5,,4,,
{8}3v6[4:1],,,5,5,,4,,
{4}1-4[8:1],4,8-5[8:1],5,
{4}1-4[8:1],4,8-5[8:1],5,
{2}1pp1[4:1],8qq8[4:1],
{4}1h[2:1],,4,3/5,
{8}4/6h[4:1],5,4h[4:1],5,6h[4:1],5,3h[4:1],4,
{8}5h[4:1],4,3h[4:1],4,6,2,1/8,,
{4}6/7,4/5,2/3,1-5[8:1]/8-4[8:1],
{4}1b/8b,1b/8b,3b/6b,2pp4[4:1],
{4}3,3h[4:1],4,,
{16}1-3[8:1],,,5,1-7[8:1],,,5,1-5[8:1],,,5,1,,,,
{16}8-6[8:1],,,4,8-2[8:1],,,4,8-4[8:1],,,4,8,,,,
{16}1-3[8:1],,,5,1-7[8:1],,,5,1-5[8:1],,,5,1w5[4:1],,,,
{8}1,,,,4/6,3/7,2/8<4[4:1],,
{4}4>8[4:1],8<4[4:1],4>8[4:1],8z4[8:3],
{8}4,,3,3,3,,2<7[8:1],,
{4}5,6>3[8:1],1,1v4[8:1]*v6[8:1],
{16},,,,3/7,,,,4/6,,,5,6>3[8:1],,,,
{4}2,2q6[8:1],6,7>2[8:1],
{4}2,3-8[8:1],3x/6h[2:1],,
{4}8,5/6,3/4,1-6[8:1]/2-5[8:1],
{4}1b/2b,,5/6,4/7qq4[4:3],
{4}3,2,2,3qq8[4:3],
{4}7,7,6,5<4[4:3],
{1}C1f,
{4}E1/B8/E8,3/7,B4/E4/E5,5>1[2:1]/6h[4:1],
{4},,7,8<4[2:1],
{4}1h[4:1],,2,3h[4:1]/4<8[2:1],
{4},,2,1>5[2:1],
{4}8h[4:1],,7,5/6,
{4}1/8,2/4,5/7,4h[4:1]/8h[4:1],
{16},,7,5,6,,6,,3,,3,,5,,5,,
{12}2,,,2,3,4,2,3,4,2,3,4,
{12}7,6,5,7,6,5,4,,,2/4,,,
{1}1-4[1:1]/5-8[1:1],
{1},
{1}4v1[4:3]/8v5[4:3],
{4},,1/5,1>4[4:1]/5<8[4:1],
{4},,4/8,4>1[4:1]/8<5[4:1],
{4},,1/5,3-5[8:1]/6-4[8:1],
{4}3x/6x,2-5[8:1]/7-4[8:1],2x/7x,1-5[8:1]/8-4[8:1],
{2}1b/8b,C1f/B3/B6,
{16}8<5[8:1],,,5,8>3[8:1],,,3,8-4[8:1],,,4,8,,,,
{16}1>4[8:1],,,4,1<6[8:1],,,6,1-5[8:1],,,5,1,,,,
{16}8<5[8:1],,,5,8>3[8:1],,,3,8-4[8:1],,,4w8[16:5],8,,,,
{8},,,,3/5,2/6,1>5[4:1]/7,,
{4}5<1[4:1],1>5[4:1],5<1[4:1],1s5[8:3],
{8}5,,6,6,6,,7>2[8:1],,
{4}4,3<6[8:1],8,8,
{16}1b/7b,,,,,,,,2/6,,,5,3<6[8:1],,,,
{4}3/7,7p3[8:1],3/7,2<7[8:1],
{4}2/7,6-1[8:1],3h[2:1]/6x,1x,
{4}1,3/4,5/6,7<4[8:1]/8>3[8:1],
{4}7b/8b,,3h[4:1],1h[4:1],
{4}8h[4:1],6h[4:1],5h[4:1],4>5[2:1],
{8}C1f,,,,,,1,1,
{8}2/8,7,4/6,3,2/5,6,3>8[8:1]/7<4[8:1],,
{4}3x/7x,2>5[8:1]/6<1[8:1],2x/6x,3p6[4:5]/7>2[4:5],
{1},
{4},,,1,
{8}3/7,,6,,2/5,,3,3,
{8}4,,4/6,,3/7,,8,1,
{8}2/6,,3,,4/7,,6,6,
{8}5,,3/5,,2/6,,4x>5[2:3]/5x<4[2:3],4x/5x,
{1}4x/5x,
{8},,,,,,3/6,3/6,
{1},
{1},
{1},
E
