&title=veil
&wholebpm=150
&artist=須田景凪
&des=Jack
&shortid=11367
&genre=POPSアニメ
&cabinet=DX
&version=maimai DX UNiVERSE
&chartconverter=Neskol
&lv_2=2
&des_2=
&lv_3=6
&des_3=
&lv_4=8+
&des_4=隅田川星人
&lv_5=12+
&des_5=Jack
&des_6=
&inote_2=
(150){1},
{1},
{1}1,
{1},
{1}1,
{1},
{1}8,
{1},
{1}8,
{1},
{1}1,
{1}1,
{1}2,
{1}2,
{1}3,
{1}3,
{1}4,
{1}4/5,
{1}5,
{1}5,
{1}6,
{1}6,
{1}7,
{1}7,
{1}8,
{1}1x/8x,
{1}8-5[4:3],
{1},
{1}4-1[4:3],
{1},
{1}8-5[4:3],
{1},
{1}4,
{1}4x/5x,
{2}3x,3,
{1}3,
{2}2,2,
{1}2,
{2}1,1,
{1}1,
{2}8,8,
{1}1/8,
{2}7,7,
{1}7,
{2}6,6,
{1}6,
{2}5,5,
{1}5,
{2}4,4,
{1}4/5,
{1}B5,
{1}B4,
{1}B6,
{1}B3,
{1}B7,
{1}B2,
{1}C1xh[1:1],
{1},
{1}B1/B2,
{1}B3/B4,
{1}B5/B6,
{1}B7/B8,
{1}B5/B6/E6,
{1}B3/B4/E4,
{1}C1xh[1:1],
{1},
{2}1x,1,
{2}2,2,
{2}3,3,
{1}4/5,
{2}5,5,
{2}6,6,
{2}7,7,
{2}1x/8x,1b/8b,
{2}8,8,
{2}7,7,
{2}6,6,
{1}5/6,
{2}4,4,
{2}3,3,
{2}2,2,
{1}1x/8x,
{2}7,7,
{2}7/8,7/8,
{2}1,1,
{2}1/8,1-4[4:3]/8-5[4:3],
{1},
{1},
{1},
E
&inote_3=
(150){1},
{1},
{1}2h[1:1],
{1}1h[1:1],
{1}8h[1:1],
{1}7,
{1}6h[1:1],
{1}5h[1:1],
{1}4h[1:1],
{1}3,
{4}2,2,1/2,,
{4}7,7,7/8,,
{4}2,2,1/2,,
{4}8,8,1/7,,
{4}6,6,5/6,,
{4}3,3,3/4,,
{4}6,6,5/6,,
{4}4,4,4/5,,
{2}6h[2:1],5,
{2}3h[2:1],4,
{2}6h[2:1],5,
{2}3h[4:1]/4h[4:1],3/4,
{2}2h[2:1],1,
{2}7h[2:1],8,
{4}2,2,1,1,
{4}8x,8x,1x/7x,,
{2}E7,B6,
{1}B5,
{2}E3,B3,
{1}B4,
{2}B7,B6,
{2}B5,B4,
{2}B3,B2,
{1}C1,
{4}8,8,7/8,7/8,
{4}6,5,4/6,,
{4}3,3,3/4,3/4,
{4}2,1/8,1/8,,
{1}7-4[8:3],
{4}3,3,3/4,,
{1}2-5[8:3],
{4}6,4/5,3b/6b,,
{4}2,2,1/2,1/2,
{4}3,4,3/5,,
{4}6,6,5/6,5/6,
{4}7,1/8,1/8,,
{1}2-5[8:3],
{4}6,6,5/6,,
{1}7-4[8:3],
{4}3,4/5,3b/6b,,
{1}B7,
{1}B6,
{1}B5,
{1}B4,
{1}B3,
{1}B2,
{1}B1,
{1}C1,
{1}8x<5[8:3],
{2}4,5,
{1}4>1[8:3],
{2}8,1,
{1}8-5[8:3],
{1}4-1[8:3],
{1}C1xh[1:1],
{1},
{4}7,7/8,2,1/2,
{4}3,4,3/5,,
{4}6,5/6,3,3/4,
{4}2,1,1/8,,
{1}7<4[8:3],
{4}3,3,3/4,,
{1}2>5[8:3],
{4}6,4/5,3b/6b,,
{4}2,1/2,7,7/8,
{4}6,5,4/6,,
{4}3,3/4,6,5/6,
{4}7,8,1/8,,
{1}2>5[8:3],
{4}6,6,5/6,,
{1}7<4[8:3],
{4}3,3,3/4,,
{4}6,6,5h[4:1]/6h[4:1],,
{4}3,3,3h[4:1]/4h[4:1],,
{4}2,2,1,1,
{4}1h[4:1]/8h[4:1],,1/8,1b/8b<2[4:9],
{1},
{1},
{1},
{1},
{1},
E
&inote_4=
(150){1},
{1},
{1}3<6[8:7],
{2},E5,
{1}6>3[8:7],
{2},E5,
{1}2-7[2:1],
{1}6-3[2:1],
{1}1-4[2:1]*-6[2:1],
{1}C1,
{8}3/5,,2,2,1,,7/8,,
{4}5/6,4,3h[4:1]/5h[4:1],,
{8}4/6,,7,7,8,,1/2,,
{4}3/4,2/5<8[4:1],,,
{8}2,2h[8:3],1<6[4:1],,,,,,
{8}7,7h[8:3],8>3[4:1],,,,,,
{4}3/4,2,5/6,7,
{4}1/8,2/7,3b/6b,,
{4}6h[1:1],5,5,4,
{4}5-3[16:3],,,3/4,
{4}3h[4:5]/4,5,4,5,
{4}4-6[16:3],,,5/6,
{4}5/6,7,1x/8x,,
{4}3/4,3/4,2xh[4:1]/5xh[4:1],,
{4}6h[4:1],5h[4:1],4h[4:1],3h[4:1],
{4}8x,1x/8x,2x/7x,,
{2}6h[1:1],B5/B6,
{2}3h[1:1],B3/B4,
{2}7h[1:1],B6/B7,
{4}2,2q6[4:1],,,
{2}B7/B8,B5/B6,
{4}E4,E3,E2,,
{4}7h[4:1],8h[4:1],1h[4:1],2h[4:1],
{8}8,8,1,,2b/7b,,,,
{8}5/6,,7/8,,2,2,1,,
{8}3/4,,5/6,,4/7,,,8x,
{8}8x,,5/6,,3,3,4,,
{4}1/2,7/8,1b/6b,,
{4}3h[2:1],,4,2/5,
{4}6h[2:1],,5,4/7,
{4}8x<3[2:1],,2,2,
{2}1h[4:1]/8h[4:1],C1f/B3/B6,
{8}2x/8x,,3/4,,6,6,5,,
{8}7/8,,1/2,,3/8,,,4x,
{8}4x,,1/2,,7,7,8,,
{4}5/6,3/4,2/5,6,
{4}1/7h[2:1],,8,1/6,
{4}2h[2:1],,1,3/8,
{4}4x>7[2:1],,6,6,
{4}4/5,3/6,2b/7b,,
{1}8<5[4:3],
{1}1>4[4:3],
{1}5<8[4:3],
{1}4>1[4:3],
{1}8xh[1:1],
{1}C1xh[1:1],
{1}7xh[1:1],
{1}5w1[2:1],
{2}2,B2,
{2}3,B3,
{2}4,B4,
{2}5,B5,
{2}6,B6,
{2}7,B7,
{1}1xw5[2:1],
{8}C1,,,,,,,4x/6x,
{8}4x/6x,,7/8,,1,1,8,,
{8}2/3,,4/5,,6/7,,,8x,
{8}8x,,5/7,,4,4,5,,
{4}2/3,1/8,2b/7b,,
{4}6h[2:1],,8,1/7,
{4}3h[2:1],,1,2/8,
{4}4x>7[2:1],,6,6,
{8}4/5,,3/6,3/6,3b/6b,,,1x/8x,
{8}1x/8x,,2/4,,5,5,4,,
{8}6/7,,1/8,,2/3,,,4x,
{8}4x,,1/2,,8,8,1,,
{4}5/7,4/5,2/4,1/8,
{4}2h[2:1]/7b,,4,3/5,
{4}7h[2:1],,5,4/6,
{4}8x<3[2:1],,2,2,
{4}1h[4:1]/8h[4:1],,3/6,1/7,
{4}2V46[8:3]/8,,1,8,
{4}7V53[8:3],,8,1,
{4}2x/3x,4x/5x,6x/7x,1x/8x,
{8}8,8,1,,2/7,,C1xh[4:11]/B3/B4/B5/B6,,
{1},
{1},
{1},
{1},
{1},
E
&inote_5=
(150){1},
{1},
{4}3h[2:1],,4<6[2:1],3,
{2},4,
{4}6h[2:1],,5>3[2:1],6,
{2},5,
{4}4h[2:1],,3p6[4:3],4,
{2},3,
{4}5h[2:1],,6,5p4[8:7],
{1}4/5,
{16}1xh[16:3],,,2h[16:3],,,3,,3,,5,,4,,6,,
{16}6h[16:3],,,5h[16:3],,,4,,4-1[8:1],,3,,3,,,,
{16}8h[16:3],,,7h[16:3],,,6,,6,,4,,5,,3,,
{16}3h[16:3],,,4h[16:3],,,5-1[8:1],,,,7-5[8:1],,,,2,,
{16}2h[16:3],,,3h[16:3],,,4,,4,,3,,1/2,,,,
{16}6h[16:3],,,7h[16:3],,,8,,8,,7,,5/6,,,,
{16}2h[16:3],,,3h[16:3],,,4,,7h[16:3],,,6h[16:3],,,5,,
{4}1>4[8:1],7-2[8:1],3-6[8:1],5<8[8:1],
{8}4b,,2>5[8:1],1,2,,6,5,
{16}5,,,8,1,,2/7,,,,3,,4>1[8:1],,5,,
{8}6,,7<4[8:1],8,7,,3,4,
{16}4,,,1,8,,2/7,,,,5/6,,7,,8,,
{8}1,2,3q8[8:1]/4<7[8:1],,,,1,2,
{16}3/4,,,1/8,,,5>2[8:1]/6p1[8:1],,,,,,,,8,,
{4}8qq8[4:1],5,1pp1[4:1],4,
{4}8q1[16:5],1,C1f,,
{16}3h[1:1],,,,E5,,,,,,,B4,,,B5,,
{16}6h[1:1],,,,E5,,,,,,,B5,,,B4,,
{16}2h[1:1],,,,E5,,,,,,,E4,,,E6,,
{16}7h[1:1],,,,E5,,,,,,,E6,,,E4,,
{4}1h[2:1],E3,8h[2:1],E7,
{4}1>4[8:1],8<5[8:1],4,4qq4[4:1],
{4}1,5pp5[4:1],8,3>6[4:1],
{8}8h[8:3],,,1bw5[8:1],8b,,,,
{8}3/7-4[8:1],2,1h[4:1],,3,4,5-1[8:1],6,
{8}5/7-3[8:1],,2<4[4:1]/7,,2x/8h[8:3],,,1,
{8}2-5[8:1],1,8h[4:1],,6,5,4-8[8:1],3,
{4}2-4[8:1]/4,2/6-8[8:1],2-6[8:1]/6,2/7>5[4:1],
{8}1h[8:3]/7x,,,8,3/4,,5-1[8:1]/6,4,
{8}7h[8:3],,,2,1-5[8:1]/8-6[8:1],,1x-3[8:1]/8x-4[8:1],,
{8}1b/8b,,,5/6,4/7,,2>5[8:1]/5,1,
{8}2,,4/7<4[8:1],8,7,,4x/5x,,
{8}2b-5[8:1]/6,7,8h[4:1],,6,5,4-8[8:1],3,
{8}2-6[8:1]/4,,2/7>5[4:1],,1h[8:3]/7x,,,8,
{8}7-4[8:1],3,2,1,2/3,4,5-1[8:1],6,
{4}5/7-5[8:1],3-1[8:1]/7,3/7-3[8:1],2<4[4:1]/7,
{8}2x/8h[8:3],,,1,2/7,,4qq4[4:1]/5pp5[4:1],,
{8},,,2/7,1-3[8:1]/8-6[8:1],,1-5[8:1]/8-4[8:1],,
{8}1b/8b,,,3,2h[4:1]/4h[4:1],,,6,
{8}5/7>2[8:1],,3<6[8:1],3,7,,4/5,,
{4}3h[4:3],,,4<6[2:1],
{1}4h[1:1],
{4}6h[4:3],,,5>3[2:1],
{1}5h[1:1],
{2}3h[2:1],4h[2:1],
{2}5h[2:1],6h[2:1],
{2}1h[2:1],8h[2:1],
{4}4-2[8:1],5-7[8:1],4q5[4:1],,
{4}6h[1:1],,7,E5,
{4}3h[1:1],,2,E5,
{4}5h[1:1],,6,E3,
{4}4h[1:1],,3,E7,
{4}8<5[4:1],E7,1>4[4:1],E3,
{4}7>2[4:1],C1,3<6[4:1],6qq3[1:1],
{1},
{1},
{8}2b-5[8:1]/7b,1/8,2/7h[4:1],,6,5,4-8[8:1],3,
{8}2-6[8:1]/4,,2/7>5[4:1],,1xh[8:3]/7,,,8,
{8}3/6-1[8:1],4,5h[4:1],,3,4,5-1[8:1],6,
{4}5/7-5[8:1],3-1[8:1]/7,3/7-3[8:1],2<4[4:1]/7,
{8}2/8xh[8:3],,,1,5/6,,3/4-8[8:1],5,
{8}2h[8:3],,,7,1-3[8:1]/8-4[8:1],,1x-5[8:1]/8x-6[8:1],,
{8}1b/8b,,,3,2/4,6,5/7-3[8:1],8,
{8}7,,2-6[8:1]/4,1,2,,4x/5x,,
{8}2b-5[8:1]/6b-1[8:1],3/7,2/6,,4/8,3,2/5-1[8:1],6,
{8}5/7-3[8:1],,2<4[4:1]/7,,2/6xh[8:3],,,2,
{8}1>4[8:1]/5<8[8:1],,1b/5b,,5/7,6,3-7[8:1]/5,2,
{4}1-3[8:1]/3,1/5-7[8:1],1-5[8:1]/5,1/6<4[4:1],
{8}1h[8:3]/6x,,,8,2/7,,4>1[8:1]/5<8[8:1],,
{8}4/5,,3/6,2/7,1-3[8:1]/8-6[8:1],,1-5[8:1]/8-4[8:1],,
{8}1b/8b,,,2h[4:1]/7,4,6h[4:1],5,4,
{16}4/5,,,5,4-8[8:1],,4,,7>2[8:1],,,,3>6[4:1],,,,
{8}8b,,,4/5,4/5-1[8:1],,2>7[4:1],2,
{8}8h[8:3],,,1,2-5[8:1]/7-4[8:1],,2/7,,
{16}1/2h[16:3],,,3h[16:3],,,4,,7h[16:3]/8,,,6h[16:3],,,5,,
{16}1/8,,,5,4-8[8:1],,4,,1>8[4:11],,,,C1xh[4:11]/1b,,,,
{1},
{1},
{1},
{1},
{1},
E
