&title=on the rocks
&wholebpm=150
&artist=OSTER project
&des=Jack
&shortid=11361
&genre=niconicoボーカロイド
&cabinet=DX
&version=maimai DX UNiVERSE
&chartconverter=Neskol
&lv_2=1
&des_2=
&lv_3=6
&des_3=
&lv_4=8+
&des_4=はっぴー
&lv_5=12+
&des_5=Jack
&des_6=
&inote_2=
(150){1},
{1},
{1},
{1}1,
{1}1,
{1}1h[1:1],
{1},
{1}8,
{1}8,
{1}8,
{1}1xh[8:7]/8xh[8:7],
{1},
{1}1x,
{1}1,
{1}2,
{1}2,
{1}3,
{1}3,
{1}4/5,
{1}4/5,
{1}5,
{1}5,
{1}6,
{1}6,
{1}7,
{1}7,
{1}8,
{1}1x/8x,
{1}8-4[4:3],
{1},
{1}1-5[4:3],
{1},
{1}B6,
{1}B7,
{1}B8,
{1}B1,
{1}B2,
{1}B3,
{1}C1f,
{1}1x/8x,
{2}8,8,
{1}8,
{2}7,7,
{1}7,
{2}6,6,
{1}6,
{2}5,5,
{1}4/5,
{2}4,4,
{1}4,
{2}3,3,
{1}3,
{2}2,2,
{2}1,1,
{2}8x,8x,
{1}1b/8b,
{1}1xh[1:1]/8xh[1:1],
{1},
{1}1h[1:1]/2h[1:1],
{1},
{1}7h[1:1]/8h[1:1],
{1},
{1}1h[1:1]/8h[1:1],
{1},
{2}1,1,
{2}2,2,
{2}3,3,
{1}3/4,
{2}5,5,
{2}6,6,
{2}7,7,
{2}8,8,
{2}1,1h[8:3]/8h[8:3],
{1},
{1},
{1},
E
&inote_3=
(150){1},
{1},
{1}4h[2:1]/5h[2:1],
{2}5/6,3/4,
{4}4x/5x,4/5,3/6,,
{4}7,7,7/8,,
{4}2,2,1/2,,
{4}7,7,7/8,,
{4}1,1,2/8,,
{4}3,3,4,4,
{1}4-1[8:3]/5-8[8:3],
{2}2x/7x,3x/6x,
{2}6h[2:1],5,
{2}3h[2:1],4,
{2}6h[2:1],5,
{2}3h[4:1]/4h[4:1],3/4,
{2}2h[2:1],1,
{2}7h[2:1],8,
{2}2h[2:1],1,
{2}1h[4:1]/8h[4:1],2/7,
{4}6,6,5,,
{4}3,3,4,,
{4}6,6,5,,
{4}4,4,3/5,,
{4}2,2,1,,
{4}7,7,8,,
{4}2,2,1,,
{4}8,8,1/8,,
{4}E7,B6,B5,,
{4}E3,B3,B4,,
{4}E7,B6,B5,E5,
{4}B4,B3,E3,,
{4}B5,B6,E7,,
{4}B4,B3,E3,,
{4}E7,B7,B8,E1,
{4}B1,B2,E3,,
{1}6x<1[8:3],
{1}2>5[8:3],
{1}6x<1[8:3],
{4}2,2,1/8,,
{4}7,7,7/8,7/8,
{4}2,2,1/2,1/2,
{4}3,3,4,4,
{4}5,5,4/6,,
{4}3,3,3/4,3/4,
{4}6,6,5/6,5/6,
{4}7,7,8,8,
{4}1,1/8,2/7,,
{4}2,2,1/2,1/2,
{4}7,7,7/8,7/8,
{4}6,6,5,5,
{4}4,4,3/5,,
{4}6,6,5/6,5/6,
{4}4,3,2,1,
{1}1>4[8:3]/8<5[8:3],
{8}5h[2:1],,,,4,,4/5,4bqq1[8:11]/5bpp8[8:11],
{1},
{1},
{4}8h[4:1],1,1/8,,
{4}2h[4:1],1,1/2,,
{4}3h[4:1],4,3/4,,
{4}6h[4:1],5,5/6,,
{4}3h[4:1],4,6h[4:1],5,
{4}4h[4:1],5,3/6,,
{1}7-4[8:3],
{1}3-8[8:3],
{1}7-3[2:1],
{4}2,2,1/8,,
{1}1>4[8:3],
{1}5<8[8:3],
{4}1,1,2,2,
{4}3,3,4,4,
{8}5,,5,,4/5,,3/6,3x/6x,
{1},
{1},
{1},
E
&inote_4=
(150){1},
{1},
{8}4h[2:1]/5h[2:1],,,,,3/6,3/6,,
{8}1h[4:1],,8,,2/7,2/7p4[8:5],,,
{4},,,3/5,
{8}2,2,4,,7,7,5,,
{4}3h[4:1],4,2/5,4/7,
{8}8h[4:1],,1,,2/7,2q5[8:5]/7,,,
{8},,,,,,4/6,4/6h[4:1],
{8},5,5,,4/7,,2-6[4:1]/5h[1:1],,
{8},,,,,,1x,1x,
{8},4/6,,3/7,,8,8,,
{8}5/7,5/7,,,2/4,2/4,,1h[4:1],
{8},8,,3/7h[4:1],,5,5,,
{8}4/6,,3,3h[4:1],,1h[4:1],,8h[4:1],
{8},6h[4:1],,5,,4/7,4/7,,
{8}2/5,,1,,4/7,,8,8h[4:1],
{8},1,,2h[4:1]/6,,4,4,,
{8}3/5,,6,6h[4:1],,8>7[2:1],,,
{4},,,1/8,
{8}2/4,,3,,5/7,,6,6h[4:1],
{8},4,,2h[4:1],,4,4,,
{8}3/5,,6,6h[2:1],,5,,2h[2:1],
{8},4,,5,,4/6,4/6,,
{8}3/8,,7,,1/6,,2,2h[4:1],
{8},8,,3/7h[4:1],,4,4,,
{8}3/5,,2,2h[4:1],,4h[4:1],,5h[4:1],
{8},7h[4:1],,2,,1/8,1/8,,
{4}6h[4:3],5,5,5,
{4}7h[4:3],8,8,8,
{4}5/6,3/4,1-5[4:1]/2-6[4:1],,
{8},,4/7,4/7,,2/5,2/5,,
{4}3h[4:3],4,4,4,
{4}2h[4:3],1,1,1,
{4}3/4,5/6,7<4[4:1]/8>3[4:1],,
{4},2/5,3/6,4>1[4:1]/7,
{4},5<8[4:1],,4>1[4:1],
{4},5<8[4:1],,4>5[4:3],
{1},
{8}4/5,4/5,4/5,,3/6,,3b/6b,,
{8}7/8,,5/6,,4/7,4/7,,2h[4:1],
{8},4,,1/5,,7,7h[4:1],,
{8}5-1[4:1],,,,8,8,1,1h[4:1],
{8},4,4,,6,,4/8,,
{2}3<6[4:1],7>2[4:1],
{4}3<6[4:1],,8,8,
{4}B1/B2,B7/B8,B5/B6,C1f/B3/B4,
{8},,1/8,1/8,,2b/7b,2b/7b,2b/7b,
{8},,3x/5x,,2/6,2/6,,7h[4:1],
{8},5,,4/8,,2,2h[4:1],,
{8}4-8[4:1],,,,1,1,8,8h[4:1],
{8},5,5,,3,,1/5,,
{2}6>3[4:1],2<7[4:1],
{8}6h[4:1],,5,5,,4>5[4:3]/7,,C1f,
{1},
{8}3h[2:1]/7h[2:1],,,,,,2,2h[8:5],
{8},4,4,,7h[2:1],,5,,
{4}1h[2:1],4,8h[2:1],5,
{8}3,,2/4,,6,,5/7,5/7,
{8},1/8,,2/4,,4/5,,4/6,
{4}4/6,8,3/5,1,
{4}4/6,8,3/5,1h[4:1],
{8}8,,2/7,2/7,,4/6,,3/7,
{8},3/5,,2/6,,2x/6x,,7,
{8}7h[4:1],,5,5,4,4,6,6h[4:1],
{8},5,4,3h[4:1],,4,5,6,
{8}6,5,4,4,5,5,3,3h[4:1],
{8},4,5,6h[4:1],,5,5,,
{4}1/6,2,3/8,7,
{8}1/6,,2/5,2/5,,1x/8x,,1x/8x,
{8},7,5/7,,2/4,,5/7,,
{4}3/4,5/6,3/4,5/6,
{8}2/4,,5/7,,3/6,3/6,,1b/8b,
{1},
{1},
{1},
E
&inote_5=
(150){1},
{1},
{24},,,,,,,,,,,,,,,C1f/2,3,4,5,6,7,8,1,2,
{8}3x/4x,,,,5/6,4-1[8:1]/7,,5,
{8},7p4[16:7],7,3h[8:5],,,,,
{8}4h[4:1],,5h[4:1],,6,5,6,4/7,
{8},3,4,2/5,,8-4[8:1],8,1,
{16},,,,2/7,,,,5/6,,,4/5,,,3/4,,
{8},2,1,3/8,,7,8,1/6,
{8},3,3/4,5,5/6,4,3/4,6,
{8}5h[8:5]/6h[2:1],,,,,6,5,4/7,
{8},3,4,2/5,,7,8,1,
{8}2/4,3/4,,,5/7,5/6-3[8:1],,1,
{8},2>5[8:1],2,8,,6,5/6,,
{8}1/8,,3,3/4,,5-8[8:1],5,4,
{8},4-1[8:1],4,5,,5,4/5,,
{8}B3/E3/B4,,B5/B6/E7,,3,3-6[8:1],8,8,
{8},7<4[8:1],7,1,,3,3/4,,
{8}1/8,,6,5/6,,1,1,2/8,
{8},4/5,4-2[8:1]/5-7[8:1],,,,8,8,
{8}1>4[8:1]/7,,5,,7,5,6,4,
{8}4,8<5[8:1],8,3h[4:1],,4,3/5,,
{8}6h[4:1],,5,4/6,,2>5[8:1],2,1,
{8},7<4[8:1],7,8,,1,1/8,,
{8}B5/B6/E7,,B3/E3/B4,,8,1-4[8:1]/7,,1x/8,
{8},6<1[8:1],6,5,,3,3/4,,
{8}1/8,7,6,5/7,,2,3,2/4,
{8},1/5,1>4[8:1]/5<8[8:1],1/5,,,2/6,,
{8}4,4,3/5,6,5/6,4,3/4,5,
{8}5/6,3,3/4,5,4/6,3,2/4,6,
{8}5-1[8:1]/7,,5x/8-4[8:1],,3>6[16:5]/8x,,8,8xh[8:3],
{8},,1,2/7>2[8:1],,4,4,5,
{8},6,5/6,4,3/4,5,5/6,3,
{8}3/4,5,4/6,3,2/4,6,5/7,4,
{8}3/5,3/5,2x-6[8:1]/6x,,7,8<3[4:1],1,2xh[8:3],
{8},,1,2,3/8,7,1-4[8:1]/6,,
{8}8,8,5/7,5,4/6,6,2/5-8[8:1],,
{8}4,4,1/3,1,2/8,2,3/7,3/7-3[8:1],
{8},2-5[8:1],,6-1[8:1],,4,4h[4:1],,
{8}8,8,1/7,1/7,2/6,2/6,3>8[8:1]/5<8[8:1],4b,
{8},,C1f/B3/B4/B5,,1/7,1/7-4[8:1],,4q1[8:1],
{8},2q5[16:5],2,8,,6,7-4[8:1],8,
{8}1x-6[8:1],,1x/5-8[8:1],,4,3,1/2,3>6[16:5]/8,
{8},5,5h[8:3],,,4,5,6,
{8}5/7,4,3,2/4<7[8:1],,3,2,1>4[8:1]/8,
{8},8,7,5/6,,1,2q6[8:1],8,
{8}7p3[8:1],,2,,1/8,2/7,3/6,4/5,
{8},1-5[8:1],1,8,,3/7,4>1[8:1]/6<1[8:1],5b,
{8},,C1f/B4/B5/B6,,2/8,2-5[8:1]/8,,5p8[8:1],
{8},7p4[16:5],7,1,,3,2-5[8:1],1,
{8}8x-3[8:1],,4-1[8:1]/8x,,5,6,7/8,1/6<3[16:5],
{8},4,4h[8:3],,,5,4,3,
{8}2/4,5,6,5>2[8:1]/7,,6,7,1/8<5[8:1],
{8},1,2,3>8[8:1]/4,,6h[4:1],,5,
{8}3/4,2,5/6,7,3/4,1,5/6,8,
{8}C1f/B2/B3/B6/B7,,,,,4>5[16:11],4,8b,
{8},,,,,,6,5h[4:1]/7,
{8},4h[4:1],,2-6[8:1],,8,8,,
{8}5/7-3[8:1],,7/8,,1/2,3,4,5<1[4:1],
{8},1>5[4:1],,5<3[8:3],,1,,,
{8}4x,,1/8,2/7<4[8:1],,2q6[8:1],,7p3[8:1],
{8},2>5[8:1],2,1,,7/8,5,3,
{8}1/2,4,6,7h[4:1]/8,,5,3,1/2h[4:1],
{8},4,6,1pp1[4:1]/8qq8[4:1],,1/8,,,
{24}2x/7x,,,4,5,4,5,,,3/6,,,,,,2-5[8:1],,,1,,,2,,,
{24},,,7-4[8:1],,,8,,,7,,,2,,,2,,,8,7,6,5,4,,
{24},,1,8,,,2/7,,,3/6,,,4/5,,,3-8[8:1],,,4,,,3,,,
{8}5,6-1[8:1],5,6,4,5,3/6,2/7,
{16}1/8,,2/7,,6,5,7,,1/8,,2/7,,3,4,2,,
{16}1/8,,2/7,,4,5,4,,3/6,,2-5[8:1]/7-4[8:1],,1/8,,2x/7x,,
{8},1,1/8,7,7/8,2,1/2,8,
{8}1/8,2,3/4,7,5/6,1,3/4,8,
{24}5/7,,,1/8,,,2/4,,,1/8,,,5/7,,,1-5[12:1]/8-4[12:1],,,2/7,,,,C1f,,
{1},
{1},
{1},
E
