&title=needLe
&wholebpm=190
&artist=DECO*27 / 初音ミク / Leo/need「プロジェクトセカイ カラフルステージ! feat. 初音ミク」
&des=はっぴー
&shortid=11372
&genre=niconicoボーカロイド
&cabinet=DX
&version=maimai DX UNiVERSE
&chartconverter=Neskol
&lv_2=2
&des_2=
&lv_3=7+
&des_3=
&lv_4=9+
&des_4=隅田川星人
&lv_5=12+
&des_5=はっぴー
&des_6=
&inote_2=
(190){1},
{1},
{1},
{1}1,
{1},
{1}1,
{1},
{1}8h[2:3],
{1},
{1},
{1},
{1}1,
{1}1,
{1}2,
{1}2,
{1}3,
{1}3,
{1}4,
{1}4x/5x,
{1}4h[1:1],
{1},
{1}3h[1:1],
{1},
{1}2h[1:1],
{1},
{1}1h[1:1]/8h[1:1],
{1},
{1}8,
{1}8,
{1}7,
{1}7,
{1}6,
{1}6,
{1}5,
{1}4x/5x,
{1}B4,
{1}B5,
{1}B3,
{1}B6,
{1}B2,
{1}B7,
{1}C1xh[1:1],
{1},
{2}1b,1,
{1}1,
{2}2,2,
{1}2,
{2}3,3,
{1}3,
{2}4,4,
{1}4x/5x,
{2}6,6,
{1}6,
{2}7,7,
{1}7,
{2}8,8,
{1}1/8,
{2}8,8,
{1}7,
{2}6,6,
{1}5,
{2}4,4,
{1}3,
{2}2,2,
{1}1x/8x,
{2}1,1,
{1}2,
{2}3,3,
{1}4,
{2}4/5,4/5,
{1}4h[1:1]/5h[1:1],
{1},
{1},
{1}8-5[4:5],
{1},
{1},
{2}1,1,
{1}1-4[4:5],
{1},
{1},
{2}8,8,
{1}8-4[4:5],
{1},
{1},
{1}1x,
{1}E1,
{1}B1/B8,
{1}C1hf[4:7],
{1},
{1},
{1},
E
&inote_3=
(190){1},
{1},
{1},
{1}6x<1[8:3],
{2}2,1/2,
{1}3x>8[8:3],
{2}7,7/8,
{4}6,6,5,,
{4}3,3,4,4qq1[4:5]/5pp8[4:5],
{1},
{1},
{4}7,6,5,4,
{4}3,2,1/8,,
{4}2,3,4,5,
{4}6,7,1/8,,
{4}7,7,7/8,,
{4}2,2,1/2,,
{8}8h[8:3],,,1x,,1x/8x,,2x/7x,
{1},
{1}1>6[1:1],
{1},
{1}8<3[1:1],
{1},
{1}2h[1:1],
{1}1h[1:1],
{1}8h[1:1],
{2}7,7/8,
{2}6h[2:1],5,
{4}3,3,3/4,,
{2}6h[2:1],5,
{4}3,3,3/4,,
{4}2,2,1/2,,
{4}7,7,7/8,,
{4}1,1,8,8,
{4}1,8,2/7,,
{2}E7,B6,
{1}B5,
{2}E3,B3,
{1}B4,
{2}E7,B6,
{2}B5,B4,
{2}B3/B6,B2/B7,
{1}C1f,
{4}8b,7,7/8,7/8,
{4}6,5,4/6,,
{4}3,3,3/4,3/4,
{4}2,1,2/8,,
{4}7h[4:1],8,7/8,,
{4}2h[4:1],1,1/2,,
{4}8,8,1,1,
{4}1/8,1/8,2x/7x,,
{4}3b,3/4,3,3/4,
{4}2,1,2/8,,
{4}7,7/8,7,7/8,
{4}6,5,4/6,,
{4}3,4,5,6,
{1}4h[2:1]/5h[2:1],
{4}6,6,5/6,,
{1}7<4[8:3],
{4}3,3,3/4,,
{1}2>5[8:3],
{1}6<1[8:3],
{1}2q6[8:3],
{2}7,7/8,
{4}1/8,2/7,3/6,,
{4}7,7,6,6,
{1}5<8[8:3],
{4}1,1,2,2,
{1}3>8[8:3],
{4}7,7,8,8,
{4}1,1>8[4:5],,,
{1},
{1},
{4}7b,6,5,4,
{4}3,2,1/8,,
{4}2,3,4,5,
{4}6,7,1/8,,
{4}7,6,5,4,
{4}3,2,1/8,,
{4}2,3,4,5,
{4}4/5,4/5,3/6,,
{4}7b,8,7/8,6,
{4}5,5/6,4/7,,
{4}3,4,3/4,2,
{4}1,1/2,3/8,,
{4}7,8,7/8,6,
{4}5,6,4/5,4z8[1:1]/5,
{1},
{8},,,,,,1x/8x,1xh[8:9]/8xh[8:9],
{1},
{1},
{1},
{1},
E
&inote_4=
(190){1},
{1},
{1},
{1}3/6<2[2:1],
{2}4xh[2:1],5,
{4}6,6,7,7,
{1}1pp1[2:1]/8,
{4}6,5,4,3,
{8}2,2,8,,1/6>7[1:1],,,,
{1},
{2},E5,
{8}1h[4:1]/8b,,3,3h[4:1],,5,5h[4:1],,
{8}7,7h[4:1],,1,1h[4:1],,8,,
{8}2x/7xh[4:1],,5,5h[4:1],,4,4h[4:1],,
{8}2,2h[4:1],,8,8h[4:1],,1,,
{4}B6,B5,B4,B3,
{4}B2,B1,B8,B7,
{8}1xh[8:3],,,8,,1/8,,3bV15[16:9]/6bV84[16:9],
{1},
{1}6>3[8:9],
{1},
{1}6>3[8:9],
{1},
{4}6h[1:2],5,,5,
{4},4,,3,
{4}3h[4:5],4,,4,
{4},5,3/5,,
{8}6,6,5,,4/6,,3,3,
{4}4,3/5,2/6,,
{8}7,7,8,,1/7,,2,2,
{4}1,2/8,3/7,,
{8}7,7,5,,4/6,,2,2,
{1}4q5[2:1],
{8}6x,6,5,,4/7,,2/5,,
{2}1xh[4:1]/8xh[4:1],2b/7b,
{2}6h[1:1],E8,
{2}5h[1:1],B8,
{2}4h[1:1],B1,
{2}3h[1:1],E2,
{4}4x,3x,2,1,
{4}8,7,6,5,
{8}3x/6x,,5/7,5/7,,2/4,2/4,,
{1}1/5-8[16:3],
{8}2b/6b,,1,,7/8,7-4[8:1]/8-4[8:1],,,
{8},,,2/5,2/5,,3,,
{8}4/7,,8,,1/2,1-5[8:1]/2-5[8:1],,,
{8},,,7,7h[4:1],,5x-1[8:1],,
{8},,,2,2h[4:1],,4x-8[8:1],,
{8},,,1/7,1/7,,2/6,,
{8}3/5,,4/6,,1/8,1/8,,C1f/B3/B6,
{8},,,1x,1xh[4:1],,8x,,
{8}2b/7b,,4/6,,3/5,,2-5[8:1]/6-1[8:1],2x/6x,
{8},,,3x/7x,3x/7x,,4/5,,
{8}2x/8x,,1x/7x,,2/6,2/6,,3h[4:1]/5h[4:1],
{8},,,1/8,1pp1[8:3]/8qq8[8:3],,,,
{4},,2/7,3/6,
{1}4h[2:1]/5h[2:1],
{8}1b/8b,,7,,4/6,,3/5,3h[4:1]/5,
{8},2h[4:1],,1h[4:1],,8,8,,
{8}1/8,,2,,3/5,,4/6,4/6h[4:1],
{8},7h[4:1],,8h[4:1],,1,1,,
{4}C1f/B3/B6,,E8,E7,
{4}E6,E5,E4,E3,
{8}1x/8x,,7,7,8,,1/7,,
{8}2,2,1,,2/8,,3/7,,
{8}4b/5b,,6,,1/7,,2/8,2h[4:1]/8,
{8},3h[4:1],,4h[4:1],,5,5,,
{8}4/5,,3,,2/8,,1/7,1/7h[4:1],
{8},6h[4:1],,5h[4:1],,4,4q5[2:1],,
{1},
{8}1x/8x,1x/8x,1x/8x,1xh[8:13]/8xh[8:13],,,,,
{1},
{4},,,3>6[4:3],
{1}C1f,
{4},,4/5,3/6,
{8}2,2,1,,3/8,,7,7,
{4}8,1/6,5,4/6,
{8}3,3,4,,2/5,,6,6,
{4}5,4/7,8,1/7,
{8}2,2,1,,3/8,,7,7,
{4}8,1/6,2/5,3/4,
{8}2b,2,4,,3/5,,7,7,
{4}5,4/6,3/5,2/7,
{8}6,6,8,,1/7,,3,3,
{4}1,2/8,1/7,3/6,
{8}2,2,4,,3/5,,7,7,
{8}5,,4/6,,3x/7x,3x/7x,3x/7x,3x>4[1:1]/7x,
{1},
{8},,,,,,1x/6x,1xh[4:5]/6x,
{1},
{16}B7,C1,B3,,,,,,,,,,,,,,
{1},
{1},
{1},
E
&inote_5=
(190){1},
{1},
{4},,,2-5[8:1]/7-4[8:1],
{16}2x/7x,,,,,,,,,,,,4,5,4h[4:3],,
{8},,,,,5,6<2[4:1],,
{8}2<6[4:1],,3,,4,4-1[8:1],,,
{16},,8x,,,,5/7,,5/7,,,4/6,,,3/5,,
{8}3h[4:1]/5,,4,4,5,5,4/6,,
{2}3-6[8:1]/7-2[8:1],8b,
{8}3h[4:1],,5,,6,,4,4h[4:1],
{8},5,2>4[8:1]/7<5[8:1],,,,B1/E1/B8,,
{8}3/5,4/6-1[8:1],,5,,3,3,4,
{8}2,6,5,7,1,1,2/8,,
{8}4/6,3-8[8:1]/5,,4,,6,6,5,
{8}7,3,4,2,8,8,1/7,,
{8}3h[4:1],,5,5,4/6,4/6,3/7,,
{4}2-5[8:1],6-1[8:1],3h[4:1],8b,
{8}4/7,4/7,3,2h[4:1]/6,,8-4[8:1],,1/8x,
{8},3,4,5,6,,4>5[1:1],,
{1}C1f,
{1},
{1}6>3[4:3],
{1},
{4}5,5,5,5,
{8}5,,5,,5,4,4/5,,
{8}5,,6,6,,3v1[8:1]/7v5[8:1],,,
{8},,,3,4,5,4/6,,
{4}7<4[8:1],3,2>5[8:1],5,
{4}6<1[8:1],4,3>8[8:1],6,
{8}7-3[8:1],,3,2,2-6[8:1],,7,7h[4:1],
{8},5,5,,2,2,4-8[8:1],,
{8}1-5[8:1],,6,6,,,8,8,
{8},5/7,,2/4,,6,5/7,,
{8}4/8<5[8:1],,2,2h[4:1],,5,,3/6,
{24},,,5,,,5,,,4/5,,,3,,4,,2,,6,,5,,7,,
{2}C1xh[2:1]/B3/B4,B5/B6,
{4}1/2,2-6[4:1]/3-5[4:1],,,
{2}C1xh[2:1]/B5/B6,B3/B4,
{4}7/8,6>3[4:1]/7>2[4:1],,,
{4}1h[4:3],3,3,8h[1:1],
{4}6,6,6,1,
{8}2/7,2/7,,4/6,4/6,,3h[4:1]/5,,
{16}E5,E6,E7,E8,,,,,,,,,,,,,
{8}1>4[8:1]/7<4[8:1],,1/7,,3/5,3/5<1[4:1],,1>5[4:1],
{8},5,,1,1,,3/7,,
{8}5-2[8:1]/6-1[8:1],,5/6,,3/8,3/8-5[8:1],,4-1[8:1]/8,
{16},,4/5x,,,,6,,6h[16:3],,,7h[16:3],,,8,,
{16}8-5[8:1],,,,5,,4,,4h[16:3],,,3h[16:3],,,2,,
{8}2-6[8:1],,6,7,7h[4:1],,1b,,
{8}2/6,,3>8[8:1]/7<4[8:1],,3/7,,1x/5x,1x/5x,
{16},,3,4,3,,1,,2>5[8:1]/8<5[8:1],,,,2x/8x,,,,
{8}3-6[8:1]/7-2[8:1],,3/7,,4/8,4/8-3[8:1],,5-1[8:1],
{8},6,,7,7,,3>7[4:1],,
{8}7>3[4:1],,6,,5,5-8[8:1],,4-1[8:1],
{16},,5,,,,7,,7h[16:3],,,6h[16:3],,,5,,
{16}5-1[8:1],,,,1,,2,,2h[16:3],,,3h[16:3],,,4,,
{2}4x/5x,8b,
{8}3/5,,2-6[8:1]/4-8[8:1],,2/4,,1,1h[4:1],
{8},2,,3/4,,5/6,4/7h[4:1],,
{8}5,,4-1[8:1]/8-5[8:1],,4/8,,1x,1xh[4:1],
{8},4pp8[8:5],,3,,1,1-5[8:1],,
{4}1x,4/7,3-8[8:1],5-2[8:1],
{8}1-6[8:1],,7-4[8:1],,3,3,2/5>2[8:1]*<8[8:1],,
{8},,,1x,1s5[8:3],,6,6<3[4:1],
{4},,5,3/7<4[8:1],
{8}2<7[8:1],,5>2[8:1],,8x,,2x,2x,
{8},3pp4[4:1]*V14[4:1]/4,,,,,8x,,
{8}1/7,,6>3[8:1],,2<7[8:1],,5,5,
{16},,3/7,,,,4/6,,4/6,,3,5,3,5,3,5,
{8}3<6[8:1],,,,1x/8x,,5,5,
{8}4/6,4/6,3-6[8:1]/7-2[8:1],,,,5<4[1:1],,
{1},
{8},,,,,3/6,4-1[8:1]/5-8[8:1],,
{8}4x/5x,,2/7,,3,3h[4:1],4,5,
{8},6h[4:1],5,4,3<6[8:1],,6,,
{8}7,7h[4:1],8,1,,2h[4:1],1,8,
{8},7h[4:1],8,1,2/6,,3/5,,
{8}6,6h[4:1],5,4,,3h[4:1],4,5,
{8},6h[4:1],5,4,3,,2x/5x,,
{8}4/6,7,8,1/7,2,3,4/5,6,
{4}6-2[8:1],3-7[8:1],8-4[8:1],1>6[4:1],
{4}7,8qq4[2:1],1b,,
{8},1,1h[4:1],,8,2/7,3/6,,
{8}7,7h[4:1],5,4,,2h[4:1],4,5,
{8},7h[4:1],5,4,2-6[8:1],,6,,
{8}5/7,8,1>4[8:1]/8<5[8:1],,1/8,,3/6,2/7,
{16},,4,5,4,,2,,1/8,,1/8,,2/7-3[8:1],,2h[8:13]/7,,
{1},
{8}5,,5,,8<1[4:3],,1b,1b,
{1},
{24}E4,B4,B5,E6,,,,,,,,,,,,,,,,,,,,,
{1},
{1},
{1},
E
