&title=Upshift
&wholebpm=155
&artist=s-don as Iriss-Frantzz
&des=Safata.Hz
&shortid=11334
&genre=ゲームバラエティ
&cabinet=DX
&version=maimai DX UNiVERSE
&chartconverter=Neskol
&lv_2=2
&des_2=
&lv_3=8
&des_3=
&lv_4=11
&des_4=はっぴー
&lv_5=13+
&des_5=Safata.Hz
&des_6=
&inote_2=
(155){1},
{1},
{1},
{1},
{1},
{1},
{1}1,
{1},
{1}8,
{1},
{1}1h[1:1],
{1},
{1}8h[1:1],
{1},
{1}1h[1:1]/8h[1:1],
{1},
{1}1/8,
{1}1b/8b,
{2}1,1x,
{1}1,
{2}2,2x,
{1}2,
{2}3,3x,
{1}3,
{2}4,4x,
{1}4/5,
{2}5,5,
{1}6,
{2}6,6,
{1}7,
{2}7,7,
{1}8,
{2}1,1,
{1}1/8,
{2}8,8,
{2}7,7,
{2}6,6,
{1}5/6,
{2}4,4,
{2}3,3,
{2}2,2,
{1}1/2,
{2}1,1,
{2}2,2,
{2}3,3,
{2}4,4,
{2}5,5,
{2}6,6,
{2}7,7,
{1}1x/8x,
{1}8-5[4:3],
{1},
{1}1-4[4:3],
{1},
{1}8-4[4:3],
{1},
{1}1-5[4:3],
{1},
{1}E8,
{1}E7,
{1}E6,
{1}E5,
{1}E4,
{1}E3,
{1}C1hf[1:1],
{1},
{4}1b,1,1,,
{2}2,2,
{4}3,3,3,,
{2}4/5,4/5,
{4}5,5,5,,
{2}6,6,
{4}7,7,7,,
{2}1/8,1/8,
{1}2x/7x,
{4}1,1,1/8,,
{4}7,7,7,,
{1}6h[2:1],
{4}5,5,5,,
{4}4,4,4,,
{4}3,3,3,,
{4}2,2,2,,
{1}1b/8b,
{1},
{1}B1/B8,
{1}B2/B7,
{1}B3/B6,
{1}B4/B5,
{1}E5,
{1}C1xh[1:1],
{1},
{1},
{1},
E
&inote_3=
(155){1},
{1},
{1}8-4[8:3],
{1}2-6[8:3],
{1}7-4[8:3],
{1}3-8[8:3],
{4}7h[2:1],,8,1x,
{4}2h[2:1],,1,8x,
{4}7h[2:1],,8,1x,
{4}2,2,1/8,,
{4}7,7x,7/8,,
{4}2,2,1/2,,
{4}3,3,3/4,,
{4}5,5,4/5,4/5,
{4}3,2,1,8,
{4}7,6,5,4,
{8}3,3,3,,2,2,2,,
{4}1/8,2/7,3/6,4/5,
{1}6bv1[8:3],
{4}2,2,1,1,
{1}2V46[2:1],
{4}7,7,8,8,
{1}7bV53[2:1],
{4}2,2,1,1,
{4}2,1,7,8,
{4}1/8,1/8,2/7,,
{4}6b,6,5,5,
{4}6,5,4/6,,
{4}3,3,4,4,
{4}3,4,3/5,,
{4}2,2,1,1,
{4}2,1,2/8,,
{4}7,7/8,2,1/2,
{8}8,8,8,,2b/7b,,,,
{4}E7,B6,B5,,
{4}E3,B3,B4,,
{4}E8,B7,B6,,
{4}E2,B2,B3,,
{4}E7,B7,B8,,
{4}E3,B2,B1,,
{4}E6,B6,B7,,
{4}E4,B3,B2,,
{4}8x,8x,7,7,
{4}6,6,5/7,,
{4}3,3,2/4,,
{4}5,5,4x/6x,,
{4}3,3,2,2,
{4}1,1,2/8,,
{4}7,6,5,4,
{8}4/5,4/5,4/5,,3/6,,4qq1[4:5]/5pp8[4:5],,
{1},
{1},
{1}7pp4[1:1],
{1},
{1}3pp8[1:1],
{1},
{1}7pp4[1:1],
{1},
{4}3,3,4,4,
{4}5,5,4/6,,
{4}7,7,8,8,
{4}1,1,2/8,,
{4}2,1/2,3,3/4,
{4}6,5/6,7,7/8,
{8}1,1,1,,8,8,8,,
{4}1x/8,2x/7,3x/6,4b/5b,
{8}6,,5/6,,7,7,7,,
{4}6,5,4,3,
{8}2,,1/2,,3,3,3,,
{4}4x/5x,3x/6x,2x/7x,,
{8}3,,3/4,,2,2,2,,
{4}3,4,5,6,
{4}7,7/8,2,1/2,
{4}8x,1x/8x,2x/7x,3x/6x,
{1}4b>1[8:3]/5b<8[8:3],
{4}1/8,1/8,2/7,,
{8}3,,2/4,,1,1,8,,
{4}2x/7x,,3/6,4/5,
{8}6,,5/7,,8,8,8,,
{8}1,1,1,,2,2,2,,
{4}3,3/4,6,5/6,
{8}4,4,4,,5,5,5,,
{1}6b-1[8:3],
{1}2-6[8:3],
{1}7-3[8:3],
{2}2,1/8,
{2}2h[2:1],1,
{2}7h[2:1],8,
{2}2h[2:1],1,
{1}7z3[8:5],
{1},
{1},
{1},
E
&inote_4=
(155){1},
{1},
{1}C1xh[2:7]/B3/B4/B5/B6,
{1}B1/B8,
{1}B2/B7,
{1}B3/B6,
{4}8<3[2:1],,,8x,
{4}1>6[2:1],,,1x,
{4}8<3[2:1],,,8x,
{4}1>6[2:1],,,1-4[8:1]*-6[8:1],
{8},,5x,,5,,4/6,3,
{8}3,,2,,2,,1/5,6,
{8}6,,7,,7,,4/8,3,
{4}3,2-6[8:1]/7h[2:1],,1x,
{8}2,2,5,5,4,4,8,8,
{8}1,1,7,7,3,3,5,5,
{8}1,2,3,4,5,6,7,8,
{4}1-5[8:1],,8b,3-6[8:1]/7-2[8:1],
{8},,1h[8:1]/5h[8:1],,4/8,4/8,3/7s3[8:3],,
{4},,1,2-7[8:1]/6-3[8:1],
{8},,4h[8:1]/8h[8:1],,1/5,1/5,2s6[8:3]/6,,
{4},,7,2-5[8:1]/6-1[8:1],
{8},,4h[8:1]/8h[8:1],,3/7,3/7,2pp2[8:3]/6>2[8:3],,
{8},,,,1,8,3-8[8:1]/7-4[8:1],,
{8},,1h[8:1]/5h[8:1],,2/6,2/6,3>7[8:3]/7qq7[8:3],,
{4},,1,2-8[8:1]/6-4[8:1],
{16},,,,1/5,,,,2/6h[16:3],,,7h[16:3],,,8,,
{16}8,,,,1/7,,,,2h[16:3]/6,,,3h[16:3],,,4,,
{16}4x,,,,3/5,,,,2h[16:3]/6,,,3h[16:3],,,4,,
{4}4,2>4[8:1]/6<8[8:1],,3-5[8:1]/7-1[8:1],
{16},,,,4/8,,,,3h[16:3]/7,,,2h[16:3],,,1,,
{16}1,,,,2/8,,,,3/7h[16:3],,,6h[16:3],,,5,,
{8}5,4,4,4/5,4/5,3/6,3/6,2/7,
{2}2-5[8:1]/7-4[8:1],C1hf[4:1]/B3/B4/B5/B6,
{8}8x,8x,1x,1x,2/6,7,3/8,4,
{8}5>2[8:1]/7,,8<5[8:1],,2xh[4:1],,5x,6,
{8}4/7,8,3/7,2,1/5,6,3/7,2,
{8}1/4,1/4,2/5,3/6,4>1[8:1]/7h[2:1],,,,
{8}1x,1x,2>5[8:1]/6<1[8:1],,,,4h[4:1]/8,,
{8}5,6,3>8[8:1]/7<4[8:1],,,,1/5h[4:1],,
{8}4,3,2/6h[4:1],,5,5,4,3/6,
{16}3/6,,,,4/5,,,,1/8,,2x/7x,2xh[16:3]/7xh[16:3],,,,,
{8}3/6h[4:1],,3,2,1/5,6,7<4[8:1]/8>3[8:1],,
{8},,2x/5x,6,5/7,4,3/5<8[8:1],,
{8}4,,4,,3/5,6,4>1[8:1]/7,,
{4}5,5pp4[8:3],1h[4:1],,
{8}1,,6,7,4/8,3,1<6[8:1]/2>5[8:1],,
{8},,4x/7x,3,2/4,5,4>1[8:1]/6,,
{8}5,,6,,4/7,3,2/8qq8[4:1],,
{4}4x,4xqq4[4:1],,,
{1}8-5[4:11],
{1},
{4}4,4,3,3,
{1},
{4}1-4[4:11]/5,5,6,6,
{1},
{4}5,5,6,6,
{4}7,7,8x-4[8:1],,
{4}3h[8:1],2h[8:1]/4h[8:1],5h[8:1],3h[8:1]/6h[8:1],
{4}4h[8:1],3h[8:1]/5h[8:1],6h[8:1],5h[8:1]/7h[8:1],
{4}6xh[8:1],5xh[8:1]/7xh[8:1],4xh[8:1],3xh[8:1]/6xh[8:1],
{4}5h[8:1],4h[4:1]/6pp5[2:1],,,
{8}3,3,3,3,4/6,7,7,7,
{8}3/6,2,2,2,3/7,8,8,8,
{48}2,,,7,,,2,,,7,,,2,,,7,,,2,,,7,,,1x,,,,1x,,,,1x,,,,8x,,,,8x,,,,8x,,,,
{4}1b,2b,3b/4-8[8:1],1b>7[8:3],
{8}C1f,,,8,8,1/7,2/6,3/5,
{8}4h[4:1],5,7h[4:1],5,3h[4:1],5,8<2[8:3],,
{8}C1f,,,1,1,2/8,3/7,4/6,
{16}4/6,,3/7,,3/7,,6,5,,3,4,,2/5b<3[8:3],,,,
{8}C1f,,,8,8,1/7,2/6,1/7,
{8}8h[4:1],1,3h[4:1],1,7h[4:1],1,4,,
{8}4/6,3,2/4,5,4/6,3,2/4,5,
{8}4/6,7x,3/5,2x,4/6,7x,1bpp5[2:1],1b,
{2}8b,6xh[2:1],
{16}4,,,3/5,,,4/6,,3h[8:1]/7h[8:1],,,,8b<2[8:3],,8b,,
{8}C1f,,,1,1,2/8,3/7V53[8:3],,
{16},,,,,,,,2,,,8,1>7[8:3],,1,,
{8}C1f,,,8,8,1/7,2/6,3/5,
{8}4,4,5/6,7/8,1/2,3/4,5b>7[8:3]/6b,,
{8}C1f,,,,4,4,5,5,
{8}3-6[8:1],3,7-4[8:1],7,2-7[8:1],2,6<5[1:1],6,
{1}C1f,
{8},,,,,,,3h[8:7],
{8}5h[8:5],,,,,,,6h[8:7],
{1}4h[4:3],
{8}5-8[8:3],,,,,,,3h[8:7],
{8}5h[8:5],,,,,,,6h[8:7],
{8}4h[8:5],,,,,,,3,
{8}3/5,6,4/7,3,2/6,7,C1xh[8:1],,
{1},
{1},
{1},
E
&inote_5=
(155){1},
{1},
{8}4b/5<4[4:13],,,,,,,E7,
{8}E6,,,,,,,E3,
{8}E4,,,,,,,E7,
{4}E6,,,4/5,
{8}4/5h[4:1],,3,4,6h[4:1],,5x,,
{8}4/5h[4:1],,3,4,6h[4:1],,5x,,
{8}4/5h[4:1],,3,4,6h[4:1],,5x,,
{8}4/6h[4:1],,4,3h[4:1]/5,,5,4h[4:1]/6x-4[8:1],,
{4},3,4/6,3/5,
{4}5/6,3/4,4/5,5/7-5[8:1],
{4}5,3/4,2/3,1/2,
{4}1/8,7h[4:1]/8>4[8:3],,,
{8}6,6,5,5,4,4,3,3,
{8}3/4,5,2,3,4/6,7,3,4,
{8}5/7,7,4/6,4,3/5,5,2pp6[2:1]/4,,
{4}1/2,,8x-4[8:1],1b<6[8:1],
{8}5bV74[4:1],,4V61[16:5],3,2x-5[16:1],,2,,
{16}3,4,3,4,3-8[8:1],,2,,1x,,,,4/7-3[8:1],,,,
{8}2b<7[8:1],,5pp4[4:1],,1x,,2,2,
{16}2,4,2,4,2-4[8:1],3,2-6[8:1],3,,,,,1b<6[8:1],,,,
{8}5bV74[4:1],,4V61[16:5],3,2x-5[16:1],,2,,
{16}3,4,3,4,2,4,2,,1x/8x,,7,7,6,6,5,5,
{8}4,2/3,1/2-6[8:1],,2x/8-4[8:1],,1/8,,
{8}2/6,3/7,4-1[8:1]/8-5[8:1],,4/8,,2b/6b,,
{16}3xh[8:1]/4xh[8:1],,,,2h[8:1]/5h[8:1],,,,3/4,,5,3/5,,4,4/7,,
{16}5h[8:1]/6h[8:1],,,,4h[8:1]/7h[8:1],,,,5/6,,4,4/6,,5,2/5,,
{16}3xh[8:1]/4xh[8:1],,,,2h[8:1]/5h[8:1],,,,3/4,,5,3/5,,4,4/7,,
{4}5h[8:1]/6h[8:1],4w8[8:1]/7,,2b/6b,
{16}5b/6b,,7,,5/6,,7,,5/6,,7,5/7,,2,2/4,,
{16}3/4,,2,,3/4,,2,,3/4,,2,2/4,,7,5/7,,
{16}4/5,,3,4,3,,7,6,7,,2,3,2,,6,3,
{16}7,2,7,2,8-4[8:1],1,8,1,8,,,,2b/6b,,,,
{16}7<4[8:1],8,,8,7,,1,,2>5[8:1],1,,1,2,,8,,
{16}7/8,,6,5,7-3[8:1],,2/8,,3/7,,,,4/6,,3/7,,
{8}2/8-4[8:1],7,6/8,7,3/8-4[8:1],7,6/8,7,
{8}2/8-3[8:1],1,6/8-4[8:1],7,4/8,,2/6,,
{8}8x-4[8:1],3>8[8:1],8x<5[8:1],3,4x-1[8:1]*-7[8:1],,4x,,
{8}1x-5[8:1],6<1[8:1],1x>4[8:1],6,5x-2[8:1]*-8[8:1],,5x,,
{8}3x/7x,4/6,3/5,2/6,1-5[8:1],7-3[8:1],1,7,
{16}8b,,,,7,1,6,2,4b,,,5b/7b,,,1b/8b,,
{16}2>5[8:1],1,,1,2,,8,,7<4[8:1],8,,8,7,,2,,
{16}3>8[8:1],4,,4,3,,6,,5/7,,8,,2/4,,1,,
{16}6<1[8:1],5,,5,6,,3,,2/4,,2/4,,3/5<3[8:3],,4/6,,
{8}5/7,,,8x,8xh[4:1],,1x,1x,
{16}7<4[8:1],8,,8,7,,2,,3>8[8:1],4,,4,3,,6,,
{8}5/7,8,2/4,1,5/6,8,3/4,1,
{8}5-1[8:1],6,3-8[8:1],2,6-1[8:1],7,2,2,
{16}2,6,3,5,2z6[8:3],6,3,5,2x,,,,,,,,
{1}4x>5[4:11]/5x,
{1},
{4}E1,E8,E7,E6,
{1}4x>5[2:5],
{4}E1,E2,E3,E4,
{1}4x>2[2:1],
{2}3h[4:1]/5h[4:1],4h[4:1]/6h[4:1],
{8}3/6,5,3/6,4,3-5[8:1]/6-4[8:1],,,,
{8}2-4[8:1],2,5-7[8:1],5,2-4[8:1],2,5-7[8:1],5,
{8}2-4[8:1],2,5-7[8:1],5,3-6[8:1],,8x,,
{8}7-5[8:1],7,4-2[8:1],4,7-5[8:1],7,4-2[8:1],4,
{8}7-5[8:1],7,4-2[8:1],4,6-3[8:1],,1x,,
{8}2/4,3,3,3,5/7,6,6,6,
{8}3/4,2,2,2,5/6,7,7,7,
{48}4,,,5,,,4,,,5,,,4,,,5,,,4,,,5,,,2,,,,4,,,,3,,,,7,,,,5,,,,6,,,,
{8}1b/5,,2b/8,,3b/4-1[8:1]*-7[8:1],2/6,4b>6[4:1],,
{16}4x/8x,,,,5,,3,4,1,8,5,6,2-6[8:1],4,1-5[8:1],8,
{16}2,,1,,4,,7/8,7/8,,2,1/3,,4>6[4:1],,5,,
{16}4x/6x,,,,5,,3,4,1,8,5,6,2,1,4,7,
{16}5b/6x,,3x/4b,,2b/7x,,1x/3b,1b/3x,,6x/8b,6b/8x,,5<3[4:1],,4,,
{16}3x/5x,,,,4,,6,5,8,1,4,3,7-3[8:1],5,8-4[8:1],1,
{16}7<4[8:1],,8,,7,,3,3,,1/2,3/8,,7-3[8:1],,4-8[8:1],,
{16}7<4[8:1],,4,,7,,3,3,,1/2,3/8,,7,,2/6,,
{8}3/4,8,5p4[4:1]/7,1,3/5,,2xh[4:1],,
{8}1b-5[8:1],,,,4/6bv1[8:1],3-8[8:1],6,3,
{16}7x,,5/6,4x/7x,,3/4,2x/5x,,1-5[8:1],,8q4[8:1],,1<6[8:1],,8b,,
{16}1x,,,,3/5,,2,1,3,8,5,6,4w8[4:1],,,,
{48},,,,,,,,,,,,,,,,,,,,,,,,1b/7x,6x,5x,4x,,,,,,2x/8b,3x,4x,5x,,,,,,1b/7b,,,,,,
{32}2b/6b,,,,3,,5,,4,,6,,2,,1,,2b,3,4,,7,,8,,7b,6,5,,2,,1,,
{32}3b,4,5,,7,,8,,6b,5,4,,2,,1,,3,,3,,4,,4,,5,,5,,7,,7,,
{8}1-5[8:1],6-2[8:1],1<6[8:1],6,1>4[8:1],5-1[8:1],1,5,
{16}2,2,8,8,5,7,3,4,8,6,3,1,2>1[2:1],8,1,,
{8}C1f,,,,,,,4,
{8}3h[4:1],,6-3[8:1],,2h[2:1],,,5,
{8}6h[4:1],,3-6[8:1],,7h[8:3],,,5,
{16}4h[4:1],,,,5,,,,3/6,,4,4,5,5,4,4,
{8}5V36[8:3],,6,,7h[2:1],,,4,
{8}3h[4:1],,6-3[8:1],,2h[8:3],,,5,
{4}3h[4:1]/6-3[8:1],,6-3[8:1],3,
{16}1/8,,6,5,7,3,4,2,1/5,2/6,3-6[16:1]/7-2[16:1],4/8,,,,,
{1},
{1},
{1},
E
