&title=No Limit RED Force
&wholebpm=146
&artist=曲:本多友紀(Arte Refact)/歌:オンゲキシューターズ
&des=小鳥遊さん
&shortid=11313
&genre=オンゲキCHUNITHM
&cabinet=DX
&version=maimai DX UNiVERSE
&chartconverter=Neskol
&lv_2=2
&des_2=
&lv_3=7
&des_3=
&lv_4=9+
&des_4=翠楼屋
&lv_5=12+
&des_5=小鳥遊さん
&des_6=
&inote_2=
(146){1},
{1},
{1}1x,
{1},
{1}1,
{1},
{1}8,
{1},
{1}8,
{1},
{1}1b,
{1}1,
{1}1,
{1}2,
{1}2,
{1}3,
{1}3,
{1}4,
{1}4x/5x,
{1}5,
{1}5,
{1}6,
{1}6,
{1}7,
{1}7,
{1}8,
{1}1x/8x,
{1}8-5[4:3],
{1},
{1}1-4[4:3],
{1},
{1}8-5[4:3],
{1},
{1}1,
{1}1b,
{2}8,8,
{1}8,
{2}7,7,
{1}7,
{2}6,6,
{1}6,
{2}5,5,
{1}4/5,
{2}4,4,
{1}4,
{2}3,3,
{1}3,
{2}2,2,
{1}2,
{2}1,1,
{1}1,
{2}1/8,1/8,
{1}1b/8b,
{2}1,1,
{1}1/2,
{2}3,3,
{1}3/4,
{2}5,5,
{1}5/6,
{1}7h[1:1]/8h[1:1],
{1},
{1},
{1}B8,
{1}B7,
{1}B6,
{1}B5,
{1}B4,
{1}B3,
{1}B2,
{1}C1f,
{2}1x,1,
{4}2,2,2,,
{2}3,3,
{4}4,4,4/5,,
{2}5,5,
{4}6,6,6,,
{2}7,7,
{4}8,8,8,,
{2}1b/8b,1/8,
{1}2h[1:1]/7h[1:1],
{1},
{1}C1hf[1:1],
{1},
{1}1x/8x,
{2}8,8,
{2}7,7,
{2}6,6,
{2}4/5,4/5,
{2}3,3,
{2}2,2,
{1}1h[2:1]/8h[2:1],
{4}1/8,1/8,1/8,2h[2:1]/7h[2:1],
{1},
{1},
{1},
E
&inote_3=
(146){1},
{1},
{1}3h[1:1],
{1}4h[1:1],
{1}5h[1:1],
{1}6,
{1}7h[1:1],
{1}8h[1:1],
{1}1h[1:1],
{1}2,
{1}8w4[8:3],
{4}3,3,4,4,
{4}5,5,4/6,,
{4}7,7,8,8,
{4}1,1/8,2/7,,
{4}7,7,6,6,
{4}5,5,4/6,,
{8}3xh[8:3],,,4x,,,4x/5x,,
{8}6xh[8:3],,,5x,,,4x/5x,,
{4}3,3,3/4,,
{4}6,6,5/6,,
{4}3,3,3/4,,
{4}5,5,4/6,,
{4}7,7,7/8,,
{4}2,2,1/2,,
{4}3,3,4,5,
{1}4x>1[8:3]/5x,
{4}8,8,7,7,
{4}6,6,5/7,,
{4}4,4,3,3,
{1}2q6[8:3],
{1}7<4[8:3],
{1}3>8[8:3],
{4}7x,6x,5x,4x,
{1}4-1[8:3]/5-8[8:3],
{4}7b,7,7/8,7/8,
{4}6,5,4/6,,
{4}3,3,3/4,3/4,
{4}2,1,2/8,,
{4}3,3,2/4,3,
{4}5,6,5/7,6,
{1}4>1[8:3]/5<8[8:3],
{4}1x/8x,1x/8x,2x/7x,,
{4}6b,6,5/6,5/6,
{4}7,8,1/7,,
{4}2,2,1/2,1/2,
{4}3,4,3/5,,
{1}1-5[8:3]/2-5[8:3],
{1}7-4[8:3]/8-4[8:3],
{4}3,3/4,6,5/6<3[8:5],
{1},
{4}4x/5x,,2x/7x,2x/7x,
{1}1b-5[8:3]/8b-4[8:3],
{4}4x/5x,3b/6b,,,
{1}7-3[8:3],
{1}2-5[8:3],
{1}6v1[8:3],
{1}2-6[8:3],
{1}7v5[8:3],
{16}4xh[2:1],,,,,,,,5x,,,5x,,,5x<4[8:9],,
{1},
{1},
{1}E5,
{1}E6,
{1}E7,
{1}E8,
{1}E1,
{1}E2,
{1}C1hf[1:1],
{1},
{4}2b,1/2,2,1/2,
{4}3,4,3/5,,
{4}6,5/6,6,5/6,
{4}7,8,1/7,,
{1}1-5[8:3]/2-4[8:3],
{4}6,6,7,7,
{1}8p3[8:3],
{4}2,1,8,7,
{1}1bpp4[8:9]/8bqq5[8:9],
{1},
{1}C1f/B3/B6,
{4}1h[4:1]/8h[4:1],,2/7,3/6,
{1}4b-1[8:3]/5b-8[8:3],
{4}1/8,1/8,2/7,,
{4}6,6,5,5,
{4}4,4,3/5,,
{4}2,2,1,1,
{4}8,1/8,2/7,,
{4}2,2,3,3,
{4}4,4,3/5,,
{8}6xh[8:3],,,5x,,,4x/5x,,
{8}3xh[8:3],,,4x,,,4x/5x,,
{4},C1hf[4:7],,,
{1},
{1},
{1},
{1},
E
&inote_4=
(146){1},
{1},
{1}4-1[4:3],
{1}5-8[4:3],
{1}1-4[4:3],
{1}8-5[4:3],
{1}3h[1:1],
{1}4h[1:1],
{2}5,7,
{1}8h[1:1],
{4}1,3,4/5,2b/7b,
{4}3,4,6,5/7,
{4}6,5,3,2/4,
{4}3,4,6,5/7,
{4}5/7,4/8,4/8h[4:1],1x,
{4}2,3/4,5,4/6,
{4}7,5/6,4,3/5,
{8}2x/6x,,,3x/7x,,,2x/6x,,
{8}3x,3x/4x,,6x,5x/6x,,2b/7b,,
{4}3xh[2:3]/5x,5,4,5,
{4}4,4,5,4x/5x,
{4}4x/6h[1:1],4,5,4,
{4}5,4/6,4x/6x,4/5,
{4}3h[4:5]/5b,5,4,5,
{4}4,4,3/5,3/5,
{4}6,4/6,3,3/5,
{1}C1hf[2:1]/B2/B6,
{2}1x>4[4:1],8<5[4:1],
{4}3h[4:1],2h[4:1],1,8,
{2}7<4[4:1],3>8[4:1],
{4}6h[4:1],5h[4:1],4h[4:1],3s7[2:1],
{4},,,8>5[2:1],
{8},,,,,,,4x/7x,
{8}4xh[16:3]/7xh[16:3],,,2x/5x,2xh[16:3]/5xh[16:3],,,1x/8x,
{4}2b/7b,,4/5,1b/8b,
{16}2h[16:3],,,1,,,3/8,,7h[16:3],,,8,,,1/6,,
{16}2h[16:3],,,8,,,3/7,,3x-7[8:1]/7x,,,,,,,,
{16}8x-4[8:1],,,,,,,,3h[16:3],,,4,,,2/5,,
{16}6h[16:3],,,5,,,4/7,,4/7,,,,8<2[8:3],,,,
{8},,,1x,1x,,2/8<2[8:3],,
{8},,,1x,1x,,1xpp4[2:1]/8xqq5[2:1],,
{4},,,4x-1[8:1]/5x-8[8:1],
{4},,4x-8[8:1],6b,
{16}7h[16:3],,,8,,,1/6,,2h[16:3],,,1,,,3/8,,
{16}7h[16:3],,,1,,,2/6,,2x/6x,,,,7x,,,,
{2}7-3[8:1]/8-4[8:1],1-5[8:1]/2-6[8:1],
{8}7-3[8:1]/8-4[8:1],,,,1b/6b,,,2x/7x,
{16}2x/7x,,,4x/6x,,,3x/5x,,3x/5x,,,,1b,,,,
{16}2x/7x,,,3x/5x,,,4x/6x,,4x/6x,,,,8b<2[8:3],,,,
{16},,,,,,,,1x,,,2x/8x,,,3x/7x,,
{4}3x/7x-3[8:1],,2,1-5[8:1]/5,
{16}8b,,,,,,,,4x/6x,,,3x/5x,,,1x/7x,,
{4}1b/7bV51[8:3],,,4,
{8}3/5-1[8:1],,4b,,,,3/5,3/5,
{8},6,6,5,,4/7,4/7,,
{8}3,3,4,,2/5,,1/6,1/6,
{8},7/8,7/8,,5/6,,4/7,,
{8}6,6,5,,7/8,,1/2,,
{8}3,3,4,,1/2,,3/8,,
{16}C1f/B4/B5,,,,,,,,1x/8x,,,2x/7x,,,C1f/B3/B6,,
{1},
{1},
{1}3h[1:2],
{2}B4,B5,
{1}6h[1:2],
{2}B6/E6,B3/E4,
{2}5h[1:1],B6,
{2}4h[1:1],B3,
{1}C1xh[2:1],
{16}1x/8x,,,2x/7x,,,3x/6x,,3x/6x,,,,1b/8b,,,,
{16}7h[16:3],,,8,,,1/6,,2h[16:3],,,1,,,3/8,,
{16}7h[16:3],,,1,,,2b/6b,,2b/6b,,,,3-6[8:1]/8,,,,
{4},4/7-2[8:1],,4/8,
{8}2x-5[8:1]/6x-1[8:1],,,,4b/8b,,,1x/7x,
{16}1x/7x,,,3x/5x,,,4x/6x,,4x/6x,,,,1b/8b,,,,
{4}B3/E3/B4,B5/B6/E7,C1f/B2/B7,,
{2}1>4[4:1],6<1[4:1],
{4}5bw1[4:1],,,3bqq8[8:5]/7bqq4[8:5],
{1},
{8}1,,2,,3,,4/6,3/7,
{8}3h[4:3]/7h[4:3],,,,,,,2/6,
{16}2h[2:1]/6,,,,,,,,5x,,,3x/6x,,,1x/8x,,
{1}2bqq5[4:3]/7bpp4[4:3],
{4},,4/5,2b/7b,
{8}3/6,,5,4,3,,3h[4:1]/5,,
{4}4,2/5,5/6h[4:1],4,
{8}3/6,,4,5,6,,2qq5[2:1],,
{4},,,8x,
{8}3/6,,5,4,3,,3h[4:1]/5,,
{4}4,2/5,5/6h[4:1],4,
{8}3b/7b,,,2b/6b,,,3b/7b,,
{16}6x,5x,6x,5x,,,3x,4x,3x,4x,,,4x/5x,,,,
{4}2/7<2[2:3],C1f,,,
{1},
{1},
{1},
E
&inote_5=
(146){1},
{1},
{1}4-1[2:1],
{1}5-8[2:1],
{1}4-1[2:1],
{2}5h[2:1],4,
{1}3h[4:3]/4-8[2:1],
{1}5-1[2:1]/6h[4:3],
{16}3h[4:1]/4h[4:1],,,,,,,,7h[16:3],,,6h[16:3],,,5,,
{1}4>1[2:1]/5<8[2:1],
{16}3/5,,6,4,6,,3,5,3,,,,1b/8b,,,,
{8}3/6,7<4[8:1],8,1,,3>8[8:1],4,5,
{8},7p6[8:3],8,1,,,3,4,
{8}5,6>3[8:1],7,8,,2<7[8:1],3,4,
{16},,5-1[8:1],,6,,7,,,,,,4,5,4,5,
{8}3,2>5[8:1],1,8,,6<1[8:1],5,4,
{8},2q3[8:3],1,8,,,6,,
{8}B3/B4/7xh[4:1],,,B5/B6/2xh[4:1],,,B4/B5/8xh[4:1],,
{16}2,1,3,1,,,7,8,6,8,,,2b/7b,,,,
{16}3,,3,5,,5,4,,,,6,,5/6,,,,
{16}7h[16:3],,,8<3[16:5],,,6h[8:3],,,,,,,,,,
{16}2,,2,4,,4,3,,,,6,,5/6,,,,
{16}8h[16:3],,,7h[16:3],,,6,,5,,,,4/7,,,,
{16}6,,6,4,,4,5,,,,3,,3/4,,,,
{16}2h[16:3],,,1>6[16:5],,,3h[8:3],,,,,,,,3,,
{16}3-5[8:1],,,,,,7,,7h[16:3],,,6h[16:3],,,5,,
{8}4/5,,,1/8,3b/6b,,,4,
{16}3x/5x,,,,2/4,,3,,4/5h[16:3],,,6h[16:3],,,7,,
{8}8<5[4:1],,3,2,1>4[4:1],,6,7,
{16}8,,,,5/7,,6,,4h[16:3]/5,,,3h[16:3],,,2,,
{4}1-5[4:1],,6,5,
{2}4/6h[2:1],B5/B6,
{8}3h[2:1]/4,,,,B3/B4,,,8,
{16}3x/7x,,,2x/6x,,,1x/5x,,2x/6x,,,3x/7x,,,4x/8x,,
{4}2b/6b,4>2[8:1]/5<7[8:1],4-8[8:1]/5-1[8:1],C1f,
{16}7x-3[8:1]/8x,,,1,7,,2,,3-7[8:1]/4,,,5,3,,6,,
{16}7-3[8:1]/8,,,1,7,,2,,1b/5b,,,,7,,2,1,
{16}3-7[8:1],,,,3/5,,,,7-3[8:1]/8,,,1,7,,2,,
{16}3-7[8:1]/4,,,5,3,,6,,1b/5b,,,,8,,2,1,
{16}2>5[8:1],,,1,2,,8,,7<4[8:1],,,8,7,,1,,
{16}2/5,,,,7/8,,1,,2/4,,,4/5,,,5/7,,
{8}8h[4:1],,1>7[8:3],2,3h[2:1],,,,
{384}8x,,,,,,,,,,,,,,,,,,,,,,,,,,,,,,,,,,,,,,,,,,,,,,,,,,,,,,,,,,,,,,,,,,,,,,,,5x/7x,,,,,,,,,,,,,,,,,,,,,,,,,,,,,,,,,,,,,,,,,,,,,,,,,,,,,,,,,,,,,,,,,,,,,,,,2x/4x,,,,,,,,,,,,,,,,,,,,,,,,,,,,,,,,,,,,,,,,,,,,,,,,4-8[8:1]/5-1[8:1],,,,,,,,,,,,,,,,,,,,,,,,,,,,,,,,,,,,,,,,,,,,,,,,,,,,,,,,,,,,,,,,,,,,,,,,,,,,,,,,,,,,,,,,,,,,,,,,4/5,C1f,,,,,,,,,,,,,,,,,,,,,,,,,,,,,,,,,,,,,,,,,,,,,,,,,,,,,,,,,,,,,,,,,,,,,,,,,,,,,,,,,,,,,,,,,,,,,,,
{16}1x/2x-6[8:1],,,8,2,,7,,5/6-2[8:1],,,4,6,,3,,
{16}1/2-6[8:1],,,8,2,,7,,4b/8b,,,,2,,7,8,
{16}6-2[8:1],,,,4/6,,,,1/2-6[8:1],,,8,2,,7,,
{16}5/6-2[8:1],,,4,6,,3,,4b/8b,,,,,,7,8,
{16}7x,,,2x/4x,,,1x/8x,,5x/7xh[4:1],,6,,6b,,2,1,
{16}2x,,,5x/7x,,,1x/8x,,2xh[4:1]/4x,,3,,3b,,,,
{16}7-4[8:1]/8,,,,2-5[8:1]/7,,,,1/2,,,8,,,7,,
{1}2pp5[2:1]/6pp1[2:1],
{16}3x-8[8:1]/7x-4[8:1],,,,3/7,,,,2b/6b,,,4b/8b,,,1b/5b,,
{16}3b>8[4:1]/7b<4[4:1],,,,,,,,,,,,5,4,5,4,
{64}5w1[8:1],,,,,,,,,,,,,,,,,B5,C1f,B1/B2/B8,,,,,,,,,,,,,,,,,,,,,,,,,,,,,1/2,,,,,,,,3/8h[4:1],,,,,,,,
{8},6,5,4h[4:1],,5,6,7,
{16}2,1,2,,3/8,,7,,6,,5,,4,,3/5h[4:1],,
{16},,3>6[8:3],4,3,4,3,,,,,,,,,,
{16}7,5,6,5,7,4,5,4,6,,2,1,2,,3/8h[4:1],,
{16},,6,,5,,4h[4:1],,,,6,4,5,3,4,2,
{16}1x/8x,,,,,,4,4,4,,,3b/7b,,,1bs5[8:7]/5b,,
{1},
{1},
{48}3h[2:7],,,,,,,,,,,,,,,,,,,,,,,,E7,B6,,,,,,,,,,,,,,,,,,,,,,,
{48},,,,,,,,,,,,,,,,,,,,,,,,B5,E5,,,,,,,,,,,,,,,,,,,,,,,
{48},,,,,,,,,,,,,,,,,,,,,,,,C1,B3,,,,,,,,,,,,,,,,,,,,,,,
{48}B5,E5,,,,,,,,,,,,,,,,,,,,,,,B3/B4,,,,,,,,,,,,,,,,,,,,,,,,
{48}6h[1:2],,,,,,,,,,,,,,,,,,,,,,,,C1,B6,,,,,,,,,,,,,,,,,,,,,,,
{48},,,,,,,,,,,,,,,,,,,,,,,,B2,B3,B4,,,,,,,,,,,,,,,,,,,,,,
{1}C1xh[4:3],
{384}1x/8x,,,,,,,,,,,,,,,,,,,,,,,,,,,,,,,,,,,,,,,,,,,,,,,,,,,,,,,,,,,,,,,,,,,,,,,,5x/7x,,,,,,,,,,,,,,,,,,,,,,,,,,,,,,,,,,,,,,,,,,,,,,,,,,,,,,,,,,,,,,,,,,,,,,,,2x/4x,,,,,,,,,,,,,,,,,,,,,,,,,,,,,,,,,,,,,,,,,,,,,,,,4-8[8:1]/5-1[8:1],,,,,,,,,,,,,,,,,,,,,,,,,,,,,,,,,,,,,,,,,,,,,,,,,,,,,,,,,,,,,,,,,,,,,,,,,,,,,,,,,,,,,,,,,,,,,,,,4/5,C1f,,,,,,,,,,,,,,,,,,,,,,,,,,,,,,,,,,,,,,,,,,,,,,,,,,,,,,,,,,,,,,,,,,,,,,,,,,,,,,,,,,,,,,,,,,,,,,,
{16}7x<4[8:1]/8x,,,1,7,,2,,3>8[8:1]/4,,,5,3,,6,,
{16}7/8,,,2,4-1[8:1]*-7[8:1],,3,,4b,,,,8,,2,1,
{16}3>8[8:1],,,,3/5,,,,7<4[8:1]/8,,,1,7,,2,,
{16}3>8[8:1]/4,,,5,3,,6,,1b/5b,,,,8,,2,1,
{16}2x,,,4x/7x,,,1x/5x,,4x/8x-4[8:1],,,,1b/8b,,,,
{16}2xh[16:3]/5xh[16:3],,,,4xh[16:3]/7xh[16:3],,,,6,5,6,5,6,,4/5,,
{16}3h[4:1],,4,,5,,6,,7h[4:1],,8,,1,,2,4,
{16}2<7[8:1],,,,7,,6,,4x/5x,,,1x/3x,,,6b/8b,,
{16}4b/5b,,,,,,3,4,2/5,,,4/7,,,3/6,,
{8}1h[4:1],,8b,,7b,,6b,4,
{8}4b-1[2:1],,,,,,,5,
{16}5b-8[2:1],,,,,,,,1,,,2,,,3,,
{16}4x/7x,,4/7,,3/6,,3/6,,2/5,,2/5,,1,8,1,8,
{4}1x>8[16:5]/8xq1[16:5],,,3b/6b,
{8}4/5,2>5[8:1],1,8,,6<1[8:1],5,4,
{8},2q3[8:3],1,8,,,6,5,
{8}4,3<6[8:1],2,1,,7>2[8:1],6,5,
{16},,4-8[8:1],,3,,2,,,,,,5,4,5,4,
{8}6,7<4[8:1],8,1,,3>8[8:1],4,5,
{8},7p6[8:3],8,1,,,3,,
{8}B5/B6/2xh[4:1],,,B3/B4/7xh[4:1],,,B4/B5/1xh[4:1],,
{16}7,8,6,8,,,2,1,3,1,,,3b-8[8:1]/7b-4[8:1],,,,
{384}3/7>6[4:7],,,,,,,,,,,,,,,,,,,,,,,,,,,,,,,,,,,,,,,,,,,,,,,,,,,,,,,,,,,,,,,,,,,,,,,,,,,,,,,,,,,,,,,,,,,,,,,,,C1f,,,,,,,,,,,,,,,,,,,,,,,,,,,,,,,,,,,,,,,,,,,,,,,,,,,,,,,,,,,,,,,,,,,,,,,,,,,,,,,,,,,,,,,,,,,,,,,,,,,,,,,,,,,,,,,,,,,,,,,,,,,,,,,,,,,,,,,,,,,,,,,,,,,,,,,,,,,,,,,,,,,,,,,,,,,,,,,,,,,,,,,,,,,,,,,,,,,,,,,,,,,,,,,,,,,,,,,,,,,,,,,,,,,,,,,,,,,,,,,,,,,,,,,,,,,,,,,,,,,,,,,,,,,,,,,,,,,,,,,,,,,,,,,
{1},
{1},
{1},
{1},
E
