&title=NAGAREBOSHI☆ROCKET
&wholebpm=216
&artist=梅干茶漬け
&des=SHICHIMI☆CAT
&shortid=11299
&genre=maimai
&cabinet=DX
&version=maimai DX UNiVERSE
&chartconverter=Neskol
&lv_2=6
&des_2=
&lv_3=8
&des_3=
&lv_4=12
&des_4=サファ太
&lv_5=14
&des_5=SHICHIMI☆CAT
&des_6=
&inote_2=
(216){1},
{1},
{1}1,
{1},
{1}1,
{1},
{1}8,
{1},
{1}8,
{1},
{1}1xh[1:1]/2xh[1:1],
{1},
{1}7xh[1:1]/8xh[1:1],
{1},
{1}1,
{1}2,
{1}3,
{1}4x/5x,
{1}B5,
{1}B4,
{1}B6,
{1}B3,
{1}B7,
{1}B2,
{1}B8,
{1}C1,
{1}8,
{1}7,
{1}6,
{1}4/5,
{1}4,
{1}3,
{1}2,
{1}1/8,
{1}1-4[4:3],
{1},
{1}8-5[4:3],
{1},
{1}1-5[4:3],
{1},
{1}8-4[4:3],
{1},
{2}1,1,
{1}1/2,
{2}3,3,
{1}3/4,
{2}5,5,
{1}5/6,
{2}7,7,
{1}7x/8x,
{1}B7/B8,
{1}B5/B6,
{1}B3/B4,
{1}B1/B2,
{2}8,8,
{1}7/8,
{2}1,1,
{1}1/2,
{2}8,8,
{2}1,1,
{1}1h[1:1]/8h[1:1],
{1},
{1}1b/8b,
{1},
{4}1,1,1,,
{2}2,2,
{4}3,3,3,,
{2}4/5,4/5,
{4}5,5,5,,
{2}6,6,
{4}7,7,7,,
{2}1/8,1/8,
{4}8,8,8,,
{4}7,7,7,,
{4}6,6,6,,
{2}4/5,4/5,
{4}4,4,4,,
{4}3,3,3,,
{4}2,2,2,,
{1}1/8,
{1}7xh[1:1]/8xh[1:1],
{1},
{1}1xh[1:1]/2xh[1:1],
{1},
{4}1,1,1,,
{2}2,1/2,
{4}8,8,8,,
{2}7,7/8,
{4}1,1,2,2,
{2}3,3/4,
{4}5,5,6,6,
{2}7,7/8,
{4}8,8,7,7,
{4}6,6,5/6,,
{4}4,4,3,3,
{4}2,2,1x/2x,,
{1}1h[1:1]/8h[1:1],
{1},
{4}1/8,1/8,2/7,2/7,
{4}3/6,3/6,4/5,4/5,
{1}4xh[1:3]/5xh[1:3],
{1},
{1},
{1},
{1}B4/B5,
{1}B3/B6,
{1}B2/B7,
{1}C1xh[1:1],
{1},
{1},
{1},
E
&inote_3=
(216){1},
{1},
{1}7h[1:1],
{1}8h[1:1],
{1}1h[1:1],
{2}2,3/4,
{1}3h[1:1],
{1}4h[1:1],
{1}5h[1:1],
{2}6,5/6,
{1}7x-4[2:1]/8x,
{2}3,3/4,
{1}1x/2x-5[2:1],
{2}6,5/6,
{4}7,7,7/8,,
{4}2,2,1/2,,
{8}3,3,3,,4,4,4,,
{4}4x/5x,3x/6x,2b/7b,,
{2}E4,B3,
{1}B2,
{2}E6,B6,
{1}B7,
{2}B4,B3,
{2}B2,B1,
{2}B8,B7,
{1}C1,
{2}7h[2:1],8,
{4}2,2,1,,
{2}7h[2:1],8,
{4}2,2,1,,
{2}7h[4:1]/8h[4:1],7/8,
{2}1h[4:1]/2h[4:1],1/2,
{4}8,8,1,1,
{4}1/8,1/8,2b/7b,,
{1}6<1[2:1],
{4}2,2,1/2,,
{1}3>8[2:1],
{4}7,7,7/8,,
{1}7<4[2:1],
{4}3,3,3/4,,
{1}2>5[2:1],
{4}6,7,1x/8x,,
{4}7,7,7/8,,
{4}2,2,1/2,,
{4}7,7,7/8,,
{4}1,1,2/8,,
{4}3,3,3/4,,
{4}6,6,5/6,,
{4}4,4,5,5,
{4}4/5,4/5,3b/6b,,
{1}B7/B8,
{1}B1/B2,
{1}B3/B4,
{1}B5/B6,
{4}3,3,4,4,
{4}5,5,4/6,,
{4}7,7,8,8,
{4}1,1,2/8,,
{4}3,4,5,6,
{4}7,8,1,2,
{8}3,3,3,,4,4,4,,
{8}5,5,5,,6,6,6,,
{1}4xh[8:7]/5xh[8:7],
{1},
{4}7,7,7/8,7/8,
{4}2,2,1/2,1/2,
{4}3,3,4,4,
{4}5,5,4/6,,
{4}3h[4:1],4,3/4,,
{4}6h[4:1],5,5/6,,
{4}4,4,5,5,
{4}4/5,4/5,3b/6b,,
{4}2,2,1/2,1/2,
{4}7,7,7/8,7/8,
{4}6,6,5,5,
{4}4,4,3/5,,
{4}6h[4:1],5,5/6,,
{4}3/4,3/4,2/5,,
{4}6,6,5,5,
{4}4/5,3/6,2b/7b,,
{1}3x-8[2:1],
{2}7,7/8,
{1}6x-1[2:1],
{2}2,1/2,
{4}3,3b,3/4,3/4,
{4}6,6,5/6,5/6,
{4}7,7,8,8,
{4}1,1,2/8,,
{4}7h[4:1],8,7/8,,
{4}2h[4:1],1,1/2,,
{4}7,7,8,8,
{4}1,1,2/8,,
{4}3,3,2,2,
{4}1,1,8,8,
{4}7,7,6,6,
{4}4/5,3/6,2b/7b,,
{1}E6,
{1}E4,
{8}4/5,4/5,4/5,,3/6,3/6,3/6,,
{8}2/7,2/7,2/7,,1/8,1/8,1/8,,
{1}C1f,
{1},
{1},
{1},
{1}6h[1:1],
{1}5h[1:1],
{1}4h[1:1],
{1}3z7[8:9],
{1},
{1},
{1},
E
&inote_4=
(216){1},
{1},
{1}6h[1:1],
{1}5h[1:1],
{1}4h[1:1],
{1}3h[2:3],
{1}6h[2:3],
{1}5h[2:3],
{1}4h[2:3],
{4}3h[2:1],,,3x/4x,
{8}2x-6[2:1]/5x,,,,,,7x,7xh[2:1],
{8},,,6x,,,5x/6x,,
{8}4x/7x-3[2:1],,,,,,2x,2xh[4:3],
{8},,,3xh[4:1],,,2x/3x,,
{4}3,3/4,5,4/6,
{4}7,5/6,4,3/5,
{8}6,6,2,2,7,7,1,1,
{8},2b/8b,2b/8b,2b/8b,2b/8b,,,,
{4}B3,B4,B5,B6,
{4}E1,C1,E5,E4,
{4}E3,E2,E1,C1,
{4}E3,E4,E5,E6,
{4}7,7,6,5/6,
{4}4,3,3/5h[2:1],3,
{4}4,4/5,6<3[4:3],,
{1},
{4}4/5,6h[2:3],5,5,
{4}4,5,5,5,
{4}4/5,3h[4:7],4,4,
{4}5,4,4,5,
{4}6-3[4:1],,2,2,
{4}3-6[4:1],,7,7>4[4:3],
{1},
{8}5,5,4,,3/6,,,,
{4}3h[2:1]/4,2,4h[2:1],1,
{8}3,,2,2,3/4,,4/5,,
{4}5/6h[2:1],7,5h[2:1],8,
{8}6,,7,7,5/6,,4/5,,
{4}3h[2:1]/4,1,4h[2:1],1,
{8}3,,2,2,3/4,,2/5,,
{4}5/6h[2:1],8,5h[2:1],8,
{8}6,,4/6,,2b/8b,2b/8b,,,
{4}1h[4:1]/7,4,2/8h[4:1],5,
{8}7,7,5,5,6,,3/5,,
{4}2/8h[4:1],5,1h[4:1]/7,4,
{8}2,2,4,4,3,,5/7,,
{4}4h[4:1]/6,1,3/5h[4:1],8,
{8}7,7,5,5,5/6,,2/4,,
{8}3/8,3/8,3/8,,1/6,1/6,1/6,,
{8}2/7,2/7,2/7,2/7,2/7,,4b>5[1:2]/5b,,
{1},
{1},
{1},
{4},,4x/5x,3x/6x,
{4}1>6[2:1]/8b,,7,7,
{4}1/8<3[2:1],,2,2,
{4}2h[1:1],E2,E3,E4,
{4}E5,B3/B6,2/7,2/7,
{4}1x/8x<3[2:1],,2,2,
{4}1x>6[2:1]/8x,,7,7,
{4}7h[4:7],E8,E7,E6,
{4}E5,E4,E3,2b-7[8:1],
{8},,,,,,,4x/5x,
{8},3x/6x,3x/6x,3x/6x,,1b/8b,1b/8b,,
{8}2-5[8:1],,6,6h[4:1],,5,4/7,,
{8}8-4[8:1],,3,3h[4:1],,4,2/5,,
{8}4/7,,5/6,5-1[8:1]/6,,8>6[8:5],,2b,
{8},,,1x,1x,,2x/8x,,
{16}2h[16:3],,,1,,,3/8,,3/8,,,,1/7,,,,
{8}6/7h[4:1],,5,,2/4,2/4,2/4,,
{16}3xh[16:3],,,4xh[16:3],,,5xh[16:3],,,6xh[16:3],,,7x,,,,
{2}7-3[8:1]/8-4[8:1],1b/6b,
{8}6-1[8:1],,2,2h[4:1],,1,3/8,,
{8}4-8[8:1],,7,7h[4:1],,8,1/6,,
{4}2-5[8:1],6-2[8:1],4-8[8:1],7<2[2:1],
{4}1b,,,1x/8x,
{16}2h[16:3],,,3h[16:3],,,4,,4,,,,4/5,,,,
{8}6b/7b,,2b/3b,,4b/8b,,7x,7x,
{16}7xh[16:3],,,6xh[16:3],,,5xh[16:3],,,4x,,,3x/4x,,,,
{4}2-6[8:1]/6,5-1[8:1],4,3b>5[1:1]/7b,
{1}C1f,
{4},,4,3>5[1:1]/5,
{1}C1f,
{4},,3x/6x,4-8[8:1]/5-1[8:1],
{8},,2b/7b,,2/7,,6,6,
{8}5,7h[4:1],,8,,1/6,,2/7,
{8},6,5,7,3,4,2,2-6[8:1],
{8},7-3[8:1],,3,,1x/4x,1b/4b,,
{16}2h[16:3],,,1,,,3/8,,7h[16:3],,,8,,,1/6,,
{16}2h[16:3],,,4,,,4/5,,5-2[8:1]/6-1[8:1],,,,,,,,
{4}3x/8x,5/6,2/3,7/8,
{2}6-2[8:1]/7-3[8:1],1b/4b,
{8}3/4,3/4,2-5[8:1]/5,,8,,6/7,,
{8}5/6,5/6,4/7-4[8:1],,1,,2/3,,
{8}1/2,1/2,3/8,,7/8,7/8,1/6,,
{16}5,,5,,4,,4,,5x,4x,5x,4x,5x,,,,
{1}C1f/B2/B7,
{4},,,1/8,
{16}1x,8x,1x,8x,1x,8x,1x,8x,1x,8x,1x,8x,1x,8x,1x,8x,
{16}1x,2,3,4,5,6,7,8,1,2,3,4,5,6,7,8,
{1}C1f,
{1},
{1},
{4},,,4/5,
{1}4h[4:3]/5h[4:7],
{1}6h[4:7],
{1}7h[4:7],
{1}6h[1:1],
{1}8b,
{1},
{1},
{1},
E
&inote_5=
(216){1},
{16},,,,,,,,,,,,E4,B6,B2,E8,
{8}1h[2:1],,,8,8h[2:1],,,7,
{8}7h[2:1],,,6,6,,,3,
{8}3h[2:1],,,2,2h[2:1],,,1,
{8}1h[2:1],,,8,8,,,2,
{8}2h[2:1],,,3,3h[2:1],,,4,
{8}4h[2:1],,,E7,E6,,,7,
{8}7h[2:1],,,6,6h[2:1],,,5,
{16}5h[2:1],,,,,,E3,,E4,,,,8>4[2:1]*z4[2:1],1,8,1,
{8}8b,,,,,,2/6,2h[8:3]/6h[8:3],
{8},,,7h[4:1]/8h[4:1],,,1<5[2:1]*s5[2:1],,
{8}1b,,,,,,3/7,3h[8:3]/7h[8:3],
{8},,,4/5,4-1[8:1]/5-8[8:1],,,,
{4}2b/7b,7-5[8:1],1-3[8:1],8-4[8:1],
{4}1-5[8:1],8-6[8:1],2-4[8:1],1,
{16}2,,2,,7,,7,,1,8,1,8,1,8,1,8,
{16},,2x/6x,,3x/7x,,4x/8x,,1b/5b,,,,,,B6,B5,
{4}E5,B3/B4,B6/E7,B2/E3,
{8}E8,B8,B1,E2,,E7,C1,E3,
{4}B4/E5,B5/B6,B3/E3,B7/E7,
{8}E2,B1,B8,E8,,E3,C1,E7,
{8},2h[4:1],,3,,7h[4:1],,6,
{8},4,5,4h[8:3],,5,5,,
{8}6h[8:3],,3,3h[4:1],,5h[4:1],,4pp4[2:1]*qq4[2:1],
{16},,,,,,,,,,,,,,B3,B4,
{4}E5,B5/B6/2x,B3/E3,B7/E7/2x,
{8}E2,B1,B8,E8,,E3,C1,E7,
{4}B5/E5,B3/B4/7x,B6/E7,B2/E3/7x,
{8}E8,B8,B1,E2,,E7,C1,E3,
{8},7h[4:1],,6,,2h[4:1],,3,
{8},5,4,5h[8:3],,4,4h[4:1],,
{16}6h[1:1],,,,,,B8,C1,B4,,,,,,,,
{16}1,2,3,4,1,2,3,4,8,7,6,5,8,7,6,5,
{2}4x-8[8:1],4x-1[8:1]*-7[8:1],
{16}6x,,5,,7,,5,5,6,,5,,4/8b,,,,
{2}5x-1[8:1],5x-2[8:1]*-8[8:1],
{16}3x,,4,,2,,4,4,3,,4,,1b/5,,,,
{2}3x-7[8:1],3x-6[8:1]*-8[8:1],
{16}7x,,8,,6,,8,8,7,,8,,1/5b,,,,
{2}6x-2[8:1],6x-1[8:1]*-3[8:1],
{16}2x,,1,,3,,1,,4b/8b,,2b/6b,,,,4,5,
{8}3-8[8:1],4,3x,4,5-8[8:1],4,5x,,
{16}3,5,2,6,1,7,2,8,3,7,4,6,5b,,,,
{8}6-1[8:1],5,6x,5,4-1[8:1],5,4x,,
{16}6,4,7,3,8,2,7,1,6,2,5,3,4b,,,,
{8}3-8[8:1],4,3x,4,5-8[8:1],4,5x,,
{16}3,5,2,6,1,7,2,8,3,7,4,6,5b,,,,
{8}6,6,5/7,5/7,3,3,2/4,2/4,
{32}1,,8,,1,,8,,2/7,,,,2/7,,,,E3,B3,B4,E5,E7,B6,B5,E5,C1hf[4:1],,,,,,,,
{1}8b,
{1},
{1},
{24},,,,,,,,,,,,2/7,,,8x,7x,6x,5x,,,1x,2x,3x,
{8}4x,,7,5/6,5>8[1:1]/6,,E7,,
{4}B5,E3,B4,C1,
{8}6,6h[4:1],7,7h[4:1],2,2h[4:1],3,3,
{8}1,1,2/8,2/8,3/7,3/7,4b/6b,,
{8}1x/5x,,2,3/4,3/4<1[1:1],,E3,,
{4}B4,E7,B5,C1,
{8}3,3h[4:1],2,2h[4:1],7,7h[4:1],6,6,
{16}4,5,4,5,4,5,4,5,2,7,2,7,2-7[8:1],7,2,7,
{8}2x,,,,,,,1b/5b,
{8},1b/8b,2b/7b,3b/6b,,,C1,,
{8}7-3[8:1],3-8[8:1],7,1,,4,4-1[8:1],4,
{8}8-3[8:1],7-4[8:1],8x,7,,2-5[8:1],1,8,
{8}7-3[8:1],3-8[8:1],7,5qq5[4:1],,5x<4[2:1]/7,,C1f,
{16},,,,,,,,7h[8:1],,5,6h[8:1],,4,5h[8:1],,
{16}2h[8:1],,8,1h[8:1],,7,8h[8:1],,6-2[8:1],,,,8-3[8:1]*-5[8:1],,,,
{16}8x,,,,,,2/6,3/7,4-1[8:1]/8-5[8:1],,,,4/8,,,,
{16}2h[8:1],,6,2h[8:1],,4,2h[8:1],,8,2h[8:1],,4,1V35[8:1],,5V71[8:1],,
{24}1,,,,,,,,,2x/8x,3/7,4/6,5,,,,,,3b/7b,,,,,,
{8}2-6[8:1],6-1[8:1],2,4,,5,5-8[8:1],5,
{8}1-6[8:1],2-5[8:1],1x,2,,8,4>1[8:1]/8<5[8:1],,
{16}4/8,,,,,,2/6,3/7,4/8qq8[4:1],,,,2/8x>7[8:3],,,,
{16}C1f,,,,,,,,2h[8:1],,8,1h[8:1],,7,8h[8:1],,
{16}6h[8:1],,4,5h[8:1],,3,4h[8:1],,1-5[8:1],,,,1-3[8:1]/8-3[8:1],,,,
{4}1-6[8:1]/8-6[8:1],1-5[8:1]/8-4[8:1],1b/8b,3x/6x,
{16}7h[8:1],,3,7h[8:1],,5,7h[8:1],,1,7h[8:1],,5,8-4[8:1],,3,,
{4}8,2-5[8:1]/6-1[8:1],2/6,3x>4[1:1]/7x,
{1}C1f,
{4},,,2/6<5[1:1],
{1}C1f,
{2},7-3[16:1]*-3[16:1],
{8}4-1[8:1],,8b,,7-5[8:1],8,7,1,
{8}8-4[8:1],2<7[8:1],8,2,,5x/6x,4/7,3/8,
{8},1-5[8:1],8-6[8:1],1-3[8:1],8-4[8:1],1>8[8:3],8,1,
{2},2-7[8:1]/6-3[8:1],
{4}1-4[8:1]/5-8[8:1],1/5,3-8[8:1]/7-4[8:1],3/7,
{16}2-5[8:1]/6-1[8:1],,,,2/6,,,,3/7,,4,5,4,,8,,
{4}2/7,1/8,7-4[8:1],1-4[8:1],
{8}6-1[8:1],,3-7[8:1],3,8,,2x/6x,,
{8}1/8,2/7,3/6,,2-4[8:1],5-7[8:1],2,5,
{8}1-4[8:1],8-5[8:1],1,8,2,2,8V64[8:1],4V28[8:1],
{24}8,,,,,,,,,1x/7x,2/6,3/5,4,,,,,,2b/6b,,,,,,
{32}1,,5,,1,,5,,2,,6,,2,,6,,3,,7,,3,,7,,3,4,5,6,7,8,1,2,
{1}3-7[2:3]*-7[2:3]/7b,
{1},
{16}1/5,6,7,8,3,4,5,6,1,2,3,4,7,8,1,2,
{24}5h[8:1],,,1,8,7,5h[8:1],,,1,2,3,8h[8:1],,,6,5,4,8h[8:1],,,2,3,4,
{1}8b,
{1},
{1},
{4},,,5h[4:1],
{8}3h[8:15],4,5,6,,4,5,6,
{8},5,6,7,,5,6,7h[4:5],
{8},5,4,3,,5,4,3,
{8},4,3,2,1,8,2,7,
{1}C1/E1/B2/B4/B5/B7,
{1},
{1},
{1},
E
