&title=MOBILYS
&wholebpm=144
&artist=Dachs
&des=はっぴー
&shortid=11335
&genre=ゲームバラエティ
&cabinet=DX
&version=maimai DX UNiVERSE
&chartconverter=Neskol
&lv_2=2
&des_2=
&lv_3=7+
&des_3=
&lv_4=10
&des_4=翠楼屋
&lv_5=13
&des_5=はっぴー
&des_6=
&inote_2=
(144){1},
{1},
{1},
{1},
{1},
{1},
{1}1x,
{1}1,
{1}1,
{1},
{1}8,
{1}8,
{1}8,
{1},
{2}1,1,
{1}2,
{2}3,3,
{1}4,
{2}5,5,
{1}6,
{2}7,7,
{1}1b/8b,
{2}7,7,
{2}6,4xh[4:5]/5xh[4:5],
{1},
{2},4x/5x,
{2},3,
{2}3,2,
{1}1h[1:1]/8h[1:1],
{1},
{1}1-4[4:3],
{1},
{1}8-5[4:3],
{1},
{1}1-5[4:3],
{1},
{1}8-4[4:3],
{1},
{2}1b,1,
{2}2,2,
{2}3,3,
{2}4x/5x,4x/5x,
{2}5,5,
{2}6,6,
{2}7,7,
{2}8,1h[4:3]/8h[4:3],
{1},
{1},
{2}1/8,1/8,
{1}1/8,
{1}1h[1:1]/2h[1:1],
{1},
{1}7h[1:1]/8h[1:1],
{1},
{1}7x/8x,
{1}E8,
{1}E7,
{1}E6,
{1}E5,
{1}E4,
{1}E3,
{1}E2,
{1}C1,
{1}B1/B2,
{1}B3/B4,
{1}B5/B6,
{1}B7/B8,
{1}1h[1:1],
{1},
{1}1h[2:5]/8h[2:5],
{1},
{1},
{1},
{4}8b,8,8,,
{2}7,7,
{4}6,6,6,,
{2}4/5,4/5,
{4}4,4,4,,
{2}3,3,
{4}2,2,2,,
{1}1x/8x,
{4}1,1,1,,
{2}2,3,
{4}4,4,4,,
{2}4/5,4/5,
{4}6,6,6,,
{2}7,1x/8x,
{4}7b,7,7,,
{4}6,6,6,,
{4}5,5,5,,
{4}4/5,4/5,4/5,,
{1}3xh[2:1],
{2}3,3,
{2}2,2,
{1}1x/8x,
{2}B1/B8,B2/B7,
{1}C1hf[8:7],
{1},
{1},
{1},
E
&inote_3=
(144){1},
{1},
{1}4>5[8:17],
{1},
{1},
{1},
{1}C1xh[1:3],
{1},
{1},
{1},
{1}2h[1:1],
{1}1h[1:1],
{1}8h[1:1],
{1}7,
{2}6h[2:1],5,
{2}3h[2:1],4,
{2}6h[2:1],5,
{4}4,4,3/5,,
{4}6,7,8,1,
{4}2,3,4,5,
{8}6,6,6,,7,7,7,,
{1}1b>4[8:3]/8b<5[8:3],
{4}3,3,4,4,
{4}5,5,4xh[16:7]/6xh[16:7],,
{16},,,,,,,3x/5x,,,,,,,,,
{4}2x,1/8,2/7,,
{4}6,6,5,5,
{4}4,4,3/5,,
{4}2,2,1,1,
{1}1x-5[8:3]/8x,
{1}6v1[8:3],
{1}2-6[8:3],
{1}7-3[8:3],
{1}2v5[8:3],
{4}6x,6,5/6,,
{4}3x,3,3/4,,
{4}2x,1,8,7,
{1}6>3[8:3],
{4}2,2,1/2,1/2,
{4}3,4,3/5,,
{4}6,6,5/6,5/6,
{4}7,8,1/8,,
{4}7,7,7/8,7/8,
{4}6,5,4/6,,
{4}3,3,3/4,3/4,
{4}2,1,1/8,1h[4:1]/8h[4:1],
{4},C1f,,,
{2}B3,B4,
{2}B5,B6,
{1}B2/B7,
{2}B6,B5,
{2}B4,B3,
{2}B2/B7,B3/B6,
{1}C1xh[1:1],
{1},
{1}7xh[1:1],
{1}8h[1:1],
{1}1h[1:1],
{1}2,
{1}3h[1:1],
{1}4h[1:1],
{1}5h[1:1],
{1}6,
{1}7p3[8:3],
{1}2q6[8:3],
{1}7pp4[1:1],
{1},
{1}E4,
{1}E6,
{2}B3/B6,E2/E8,
{1}C1xh[1:2],
{1},
{1},
{4}2b,2,1/2,3/8,
{4}7,7,7/8,1/6,
{4}2,2,3,3,
{4}4,4/5,3/6,,
{4}7h[4:1],8,7/8,,
{4}2h[4:1],1,1/2,,
{4}7,7,8,8,
{4}1/8,1/8,2/7,,
{8}6b,6,6,,5/6,,4/7,,
{8}3,3,3,,3/4,,2/5,,
{4}6x,7x,8x,1x,
{4}2x/7x,3/6,4/5,,
{1}4-1[8:3]/5-8[8:3],
{4}1h[4:1]/8h[4:1],,1/8,1/8,
{4}7b,7/8,2,1/2,
{4}3,3/4,6,5/6,
{4}7,8,1,2,
{4}3,4/5,3/6,,
{1}7p3[8:3],
{1}2q6[8:3],
{2}7h[2:1],8h[2:1],
{4}1h[2:1],,2,3,
{8}4x/5x,,6,6,5,,3,3,
{16}4,,,,2/5,,,,3x/6x,,,3x/6x,,,3x>5[8:7]/6x,,
{1},
{1},
{1},
{1},
E
&inote_4=
(144){1},
{1},
{1}3q5[4:3]/6h[1:3],
{1},
{1}4h[4:7],
{4},,5,5,
{4}C1f/B2/B7,,,7,
{4}7h[1:1],,,5,
{4}5h[1:1],,,4,
{4}4h[1:1],,,2,
{4}2h[4:5],,,3,
{2}3h[4:1],3h[4:1]/4h[4:1],
{2}4h[4:1]/5h[4:1],5h[4:1]/6h[4:1],
{8}4h[4:1]/5h[4:1],,,,3/6,3b/6b,,,
{8}5,,4/6h[2:3],,,5,5,,
{8},7,7,,,5,5,,
{8}4,,3h[2:3]/5,,,4,4,,
{8},2,2,,,4,4,,
{4}3/4,4/5,5/6,4/7h[4:3],
{4}5,5,6,5/8qq4[4:3],
{4}4x,,,2-6[8:1],
{4}8b,,,4/5,
{8}4h[4:1]/6x,,5,,3/5,,3/4,2,
{16}2/4h[4:1],,,,3,,,,3/5,,,,4/6,,,3x/7x,
{16},3xh[16:3]/7x,,,5x,,,2x/6x,,2x/6x,,,3x/5x,,,4x/6x,
{8},3x/7x,3x/7x<4[4:1],,,,,,
{4}2,3/4,5h[8:3]/6,7,
{8}8,,6/7,,5/6,5,6,,
{16}3/4,,,,2h[16:3],,,1x,,1x,,,2x/8x,,3x/7x,,
{4}4xh[4:3]/6b,,,7-4[4:1],
{4}3-8[4:1],,,1-4[4:1],
{4}5-8[4:1],,,7-2[4:1],
{4}3-6[4:1],,,8-5[4:1],
{4}4-1[4:1],,,2>5[4:1],
{4}6<1[4:1],,,3>8[4:1],
{4}7<4[4:1],,,1,
{16}2/4,,,,3h[16:3],,,4h[16:3],,,5h[16:3],,,6<3[16:7],,,
{4}C1f,,,4x/5x,
{8}2b/7b,,3,4,5h[4:1],,6,,
{4}4/7h[4:1],8,2h[4:1]/6,1>6[2:1],
{4},,1x,1>6[2:1],
{4}8b,,7x,7x/8x,
{8}2/6,,7,8,1h[4:1],,2,,
{4}3/4,5/6,7/8,1-6[8:1]/2h[4:1],
{4},4-1[8:1]/5h[4:1],,7-4[8:1]/8h[4:1],
{4},1-6[8:1]/2-5[8:1],,4x/7h[2:1],
{4},C1f,,,
{1},
{1}C1xh[1:1],
{4},,1/8,4/5,
{2}2h[2:1]/7b,4h[2:1],
{2}5h[2:1],7h[2:1],
{2}B5/B6,B3/E3/B4,
{1}C1xh[1:1],
{1}B2/B7,
{1}8-5[1:1],
{1}4-1[1:1],
{1}7-4[1:1],
{1}3-8[1:1],
{1}5<8[1:1],
{1}1>4[1:1],
{1}8<5[1:1],
{4}4h[2:1],,5,1/8,
{1}2/7>2[1:1],
{1}3b<6[1:1],
{1}7>2[1:1],
{1}3<6[1:1],
{1}8h[2:3],
{1}1h[1:1],
{4}8,2/7,3/6,4>5[1:2]/5<4[1:2],
{1},
{1},
{2},4-1[8:1]/5-8[8:1],
{4}2b/7b,3/4,5/6,4-8[8:1]/7-4[8:1],
{4},2-5[8:1]/5-1[8:1],,4/8,
{8}3/7,,1/5,,2/4,2V48[8:3]/4,,5,
{4}5h[2:1],,1x,2/4,
{8}3b<6[8:1],,7,7h[4:1],,8,,1/6,
{16}1/6,,,,2,,2,,3x/5x,,,4x/6x,,,3x/7x,,
{4}3x-8[8:1]/7x-4[8:1],,1/5,2qq5[8:5]/6,
{4},,,4x/6x,
{4}3b/7-5[8:1],3,1/4-8[8:1],2,
{4}3/7-5[8:1],3,1/4-8[8:1],3,
{4}5/7,3/4,1/2,7/8,
{4}1b/6b,,3/5,4/6,
{8}8xh[1:1],,,,,,,1,
{4}1,5/7,2/4,1/8,
{4}2b-5[8:1]/6b,1,4-8[8:1]/7,5,
{4}2-5[8:1]/6,1,4-8[8:1]/7,5,
{4}2b/6b-1[8:1],5,3/8-4[8:1],1>6[2:1],
{4}5x,,7,7,
{1}2h[1:1]/8b,
{4}3h[4:1],4h[4:1],5h[4:1],6<3[4:3],
{4},,,8-4[8:1],
{2}3x,2-7[8:1]/6-3[8:1],
{8}1b/5b,,5/6,4b/8b,,3/4,1/5,1b/5b,
{16},,6x/7x,,,4x/5x,,,2b/3x,,,1x/8b,,,2b/6b,,
{1},
{1},
{1},
E
&inote_5=
(144){1},
{32},,,,,,,,,,,,,,,,,,,,,,,,,,,,,,5x,4x,
{1}3xh[1:3],
{32}E6,,,,,,,,,,,,,,,,,,,,,,,,,,,,,,,B4,
{1}E4,
{32},,,,,,,,,,,,,,,5,4,,,,,,,,3-8[16:1]/6-1[16:1],,,,,,,,
{32}3x/6x,B1/C1f/B8,,,,,,,,,,,,,,,,,,,,,,,,,,,,,,,
{1}8h[1:1],
{1}2h[1:1],
{1}4h[1:1],
{1}6>3[4:3],
{1}8<5[4:3],
{1}1>4[4:3],
{8}5h[2:1],,,,4,2b/7b,,,
{16}5,,,,4/6h[16:3],,,5h[16:3],,,4,,3,,,,
{16}4,,,,3h[16:3]/5,,,4h[16:3],,,5,,6,,,,
{16}5,,,,4/6h[16:3],,,5h[16:3],,,4,,3,,,,
{48}4,,,,,,,,,,,,3h[16:3]/5,,,,,,,,,4h[16:3],,,,,,,,,5,,,,,,6,,,,6,,,,5/7,,,,
{16}5/7,,4,,3/5,,6,,5/7,,4,,3/5,,2,2,
{16}4,,5,,4/6,,3,,2/4,,5,,4/6,,7,7,
{32}5,,5,,4,,4,,2,,2,,8,,8,,1,,1,,7,,7,,5,4,3,2,1,8,7,6,
{24}5,,,,,,,,,,,,,5,4,5,4,5,4,6,,,,,
{8}3xh[8:1]/5,6,5/7h[8:1],4,3h[8:1]/5,6,5/7h[8:1],4,
{16}3xh[8:1]/5,,6,,5/7h[8:1],,4,,3h[8:1]/5,,6,,7,7,,B3/E3/B4/E5,
{16},B2/E2/B3/E4,,,8x,,,B5/E5/B6/E7,,B6/E6/B7/E8,,,2xh[16:3],,,4,
{16},,4/5,,2/7,,,,6,6,5,7,3<6[8:1],3,4,,
{8}7>2[8:1],,3,,B4/B5,,1/8,2/7h[4:1],
{8},5,4/6,3,2/8-4[8:1],,3-6[8:1]/8,,
{16}3/7h[4:1],,,,5,,,4/5,,3/6,,,1>4[8:1]/8<5[8:1],,2/7,,
{1}1q4[2:1]/8p5[2:1],
{32}B5,B6,B7,B8,B1,B2,B3,,4x,,,,,,,,4,,,,,,,,4,,,,,,,,
{32}B5/4,B6,B7,B8,B1,B2,B3,,4x,,,,,,,,4,,,,,,,,4,,,,,,,,
{32}B5/4,B6,B7,B8,B1,B2,B3,,4x,,,,,,,,4,,,,,,,,4,,,,,,,,
{32}B5/4,B6,B7,B8,B1,B2,B3,,4x,,,,,,,,4/5,,,,,,,,4/5,,,,,,,,
{32}E6/5,E7,E8,E1,E2,,,,5,,,,,,,,4,,,,,,,,4,,,,,,,,
{32}E4/4,E3,E2,E1,E8,,,,4,,,,,,,,5,,,,,,,,5-8[8:1],,,,,,,,
{16}4/5,,,,3/7,,,2/4,,,6/7,,,1/2,,,
{6}5h[6:1],7h[6:1],8h[6:1],1h[6:1],3h[6:1],4,
{16}2/5<1[4:1],,,,1>5[4:1],,,,5,,,,1,,2,2,
{16}4<8[4:1],,,,8>4[4:1],,,,4,,,,8,,2,2,
{4}5<1[4:1],1>5[4:1],5V71[4:1],1V35[4:1],
{4}5,1,1w5[8:1],,
{32}4x/6<5[8:3],,,,,,,,5,,,,,,,B3,B2,,,,,,,,1,,,,,,4,,
{4}4>5[8:3],5,B3/B4,8,
{32}6>8[8:3],,,,,,,,1,,,,,,,E4,B3,,,,,,,,4,,,,,,,,
{16}3<1[8:3],,,,8,,,4,4,,5,,5,,4/6,,
{4}3-6[8:1]/7-2[8:1],3b/7b,,,
{4}1>4[4:3],,6,7,
{4}8,7,4/6,4/6,
{32}5x,4x,3x,,,,,,E3,,,,E4,,,,E5,,,,,,,,,,,,,,,,
{4}5<8[4:3],,4,3,
{4}2,1/2,3/4,5/6,
{4}7<4[8:1]/8>3[8:1],7b/8b,1<6[8:1]/2>5[8:1],1b/2b,
{1}1>8[4:3]/8<1[4:3],
{1},
{8}5,4,3,2,2h[4:1],4,5,,
{8}5,6,7,7h[4:1],5,5,4,3,
{8}3h[4:1],4,5,,4,5,6h[4:1],,
{8}5,4h[8:3],,,5,,,,
{8}3,3,4,5,6,6,5,4,
{4}3h[4:1],1h[4:1],8h[4:1],6h[4:1],
{2}4>1[4:1],5<8[4:1],
{2}1h[2:1],8b,
{32}E5/E6,E4,E3,E2,E1,,,,,,,,,,,,E4/E5,E6,E7,E8,E1,,,,,,,,,,,,
{32}E5/E6,E4,E3,E2,E1,,,,,,,,,,,,8,,,,,,,,6,,,,,,,,
{32}E4/E5,E6,E7,E8,E1,,,,,,,,,,,,E5/E6,E4,E3,E2,E1,,,,,,,,,,,,
{32}E4/E5,E6,E7,E8,E1,,,,,,,,,,,,1h[2:1],,,,,,,,,,,,,,,,
{1},
{8},,,,4,3,5,6,
{4}2h[4:1],4h[4:1],5h[4:1],7>5[2:3],
{1}1b,
{1},
{4},,4b-2[8:1]/5b-7[8:1],4b-8[8:1]/5b-1[8:1],
{4}4b/5b,2<7[8:1]/7,2/5>2[8:1],5/8<5[8:1],
{4}3>8[8:1]/8,3/6>3[8:1],1<6[8:1]/6,1/4>1[8:1],
{8}4/7<4[8:1],,2/7,,1,1h[4:1],,8,
{16}8-5[8:1],,,,8-3[8:1],,,,8,,,4,4,,3/5,,
{8}2h[4:1]/6,,5,4v7[8:1],,4v1[8:1],,4/7x,
{16}8h[4:1],,,,5,,4,,4,,,3/5,,,2/6,,
{4}2-8[8:1]/6,2/7-3[8:1],4-6[8:1]/7,4/8<2[8:3],
{8}C1f/8,,,8,8,2/7,3/6,,
{4}2-6[8:1]/7,2/8-5[8:1],4-8[8:1]/8,4/6-2[8:1],
{4}3-6[8:1]/6,3/7-2[8:1],4-1[8:1]/7,4/7-5[8:1],
{4}3-1[8:1]/7,3/4-8[8:1],1-5[8:1]/4,1/8x<2[8:3],
{16}4b/8,,,,,,,,8,,,5,5-2[8:1]*-8[8:1],,4/6,,
{8}5,,,3h[8:1]/7h[8:1],,2/6,4-1[8:1]*-7[8:1],3/5,
{16}4,,,,,,5,5,4,,,2/5,,,4/7,,
{8}1>4[8:1],8,7,6<1[8:1],5,4,3<6[8:1],2,
{8}1,8>3[8:1],7,6,5<8[8:1],4,3,2,
{16}1x/8x,,2x/7x,,3x<5[8:1]/6x<8[8:1],,,,3x/6x,,,,8,,,1/7,
{16},,2/6,,3/7h[16:3],,,1,,,2/8,,,3/7,,,
{1}C1xh[1:3]/B4/B5/B6,
{1},
{1},
{4},2x/7x,1>4[8:1]/8<5[8:1],1x/8x,
{16}2/7,,3-7[8:1],4,2,,3,,5,,6-2[8:1],5,7,,6,,
{16},,B4/E4/8,,,B5/E6/1,,,B3/E4/7,,,B6/E6/2>1[16:17],,,B1/C1f/B8,,
{1},
{1},
{1},
{1},
E
