&title=Limits
&wholebpm=140
&artist=舞ヶ原シンセ研究会
&des=ロシアンブラック
&shortid=11317
&genre=オンゲキCHUNITHM
&cabinet=DX
&version=maimai DX UNiVERSE
&chartconverter=Neskol
&lv_2=3
&des_2=
&lv_3=6
&des_3=
&lv_4=10
&des_4=翠楼屋
&lv_5=13
&des_5=ロシアンブラック
&des_6=
&inote_2=
(140){1},
{1},
{1},
{2}1,1,
{1}1,
{2}8,8,
{1}8,
{1}1h[1:1],
{1},
{1}2h[1:1],
{1},
{1}3h[1:1],
{1},
{1}4h[1:1]/5h[1:1],
{1},
{2}5,5,
{1}5,
{2}6,6,
{1}6,
{2}7,7,
{1}7,
{2}8,8,
{1}1/8,
{1}B1/B8,
{1}B2/B7,
{1}B3/B6,
{1}B4/B5,
{1}B6/B7,
{1}B1/B8,
{1}B2/B3,
{1}B4/B5,
{1}B3/B6,
{1}B2/B7,
{1}C1xh[1:1],
{1},
{2}8,8,
{2}7,7,
{2}6,6,
{1}4/5,
{2}4,4,
{2}3,3,
{2}2,2,
{1}1/8,
{4}8x,8,8,,
{1}7/8,
{4}1,1,1,,
{1}1/2,
{2}3,3/4,
{2}6,5/6,
{2}7,7/8,
{4}1,1,1,,
{1}1h[1:1]/8h[1:1],
{2},2x/7x,
{1}1-4[4:3],
{1},
{1}8-5[4:3],
{1},
{1}4-1[4:3],
{1},
{1}8-4[4:3],
{1},
{1}3h[1:1]/4h[1:1],
{1},
{1}5h[1:1]/6h[1:1],
{1},
{1}7h[1:1]/8h[1:1],
{1},
{1}1h[1:1]/2h[1:1],
{1},
{1}3h[1:1]/4h[1:1],
{1},
{1}4-1[4:3]/5-8[4:3],
{1},
{4}8x,8,8,,
{4}7,7,7,,
{4}6,6,6,,
{2}4/5,4/5,
{4}4,4,4,,
{4}3,3,3,,
{4}2,2,2,,
{2}1/8,1/8,
{4}7,7,7,,
{2}7/8,7/8,
{4}1,1,1,,
{2}1/2,1/2,
{2}3,3/4,
{2}6,5/6,
{2}7,7/8,
{2}1,1/8,
{1}1h[1:1]/8h[1:1],
{2},2x/7x,
{4}8b,8,7,,
{4}6,6,5,,
{4}4,4,3,,
{4}2,2,1/2,,
{2}8,8,
{2}1/8,2h[8:13]/7h[8:13],
{1},
{1},
{1},
{1},
E
&inote_3=
(140){1},
{1},
{4},,,4x/5x,
{4}3,3,4,4,
{4}5,5,4/6,,
{4}7,7,8,8,
{4}1,1/8,2/7,,
{4}3h[4:1],4,4,,
{4}6h[4:1],5,5,,
{4}3h[4:1],4,4,,
{2}5h[4:1]/6h[4:1],5/6,
{4}7h[4:1],8,8,,
{4}2h[4:1],1,1,8,
{1}1>4[8:3]/8<5[8:3],
{4}4/5,4/5,3/6,,
{4}7,7,8,8,
{4}1,1,2/8,,
{4}3,3,4,4,
{4}5,5,4/5,,
{4}6,6,5,5,
{4}4,4,3,3,
{1}4>1[8:3]/5<8[8:3],
{4}1/8,1/8,2b/7b,,
{1}C1xh[1:3],
{1},
{1},
{1},
{2}E1,E2,
{2}E3,E4,
{2}E5,E6,
{2}E7,E8,
{1}8x-5[8:3],
{1}4-1[8:3],
{1}8-5[8:3],
{4}3,3,4/5,,
{4}6,6,5/6,5/6,
{4}3,3,3/4,3/4,
{4}2,2,1,1,
{4}8,8,1/7,,
{4}2h[4:1],1,1/2,,
{4}7h[4:1],8,7/8,,
{4}6,6,5,5,
{4}4/5,4/5,3/6,,
{1}1xqq6[1:1]/2xpp5[1:1],
{1},
{1}7xqq4[1:1]/8xpp3[1:1],
{1},
{4}2,2,1/2,1/2,
{4}7,7,7/8,7/8,
{4}6,6,5,5,
{4}4/5,4/5,3/6,,
{1}4qq1[1:1]/5pp8[1:1],
{1},
{1}7-3[8:3],
{1}2-5[8:3],
{1}6-1[8:3],
{4}2,2,1/8,,
{1}2q6[8:3],
{1}7p3[8:3],
{4}2,2,1,1,
{1}1b/8b,
{2}C1,E5,
{2}E4,E3,
{2}E2,E1,
{2}E8,E7,
{2}E6,E7,
{2}E8,E1,
{2}E2,E3,
{2}E4,E5,
{2}6xh[2:1],5h[2:1],
{2}4h[2:1],3x,
{4}2,2,1,8,
{4}2b/7b,,,4x/5x,
{4}3,3/4,3,3/4,
{4}6,5/6,6,5/6,
{4}7,7,8,8,
{4}1,1,2/8,,
{4}7h[4:1],8,1/6,,
{4}2h[4:1],1,3/8,,
{4}3,3,4,4,
{4}4/5,4/5,3/6,,
{1}7xqq4[1:1]/8xpp3[1:1],
{1},
{1}1xqq6[1:1]/2xpp5[1:1],
{1},
{4}7,7/8,7,7/8,
{4}2,1/2,2,1/2,
{4}3,3,4,4,
{4}4/5,4/5,3/6,,
{1}4qq1[1:1]/5pp8[1:1],
{1},
{4}7,7,8,8,
{4}1,1,2/8,,
{4}3,3,4,4,
{4}5,5,4/6,,
{1}6-3[8:3],
{1}2s6[4:5],
{1},
{1},
{1},
E
&inote_4=
(140){1},
{2}4h[1:1],5,
{4}5h[2:1],,4,3/6,
{4}1/8,3/4,1/8,5/6,
{4}1/8,3/4,5/6,4/7,
{4}1/8,3/4,1/8,5/6,
{8}1/8,,3/4,,5,5,4,,
{4}3h[2:3]/5,5,4,4,
{4}6,5,4,3/5,
{4}4/6h[2:3],4,5,5,
{4}3,4,5,4/7,
{4}3h[2:3],5,4,2,
{4}5,4,2,3,
{4}4,2/6,5,4/6-2[4:1],
{2},1b,
{4}3h[4:1]/6,4,1h[4:1]/5,3,
{8}2/4h[4:1],,3,,5,5,4,,
{4}3/6h[4:1],5,4/8h[4:1],6,
{8}5h[4:1]/7,,6,,4,4,5,,
{4}3/4,1h[4:1]/5,3,2/4,
{4}5/6,4/8h[4:1],6,4/7<4[4:1],
{4},1-5[4:1],,8-4[4:1],
{8},,3,,4/5,4/5,3/6,,
{1}C1xh[1:2],
{1},
{1},
{2}C1,E5,
{4}B6,B7/E7,,C1,
{4}B3,B2/E3,,E5,
{4}E4/E6,E3/E7,,4/5<8[2:1],
{1},
{8}3h[4:3],,4,,,5,5,,
{8}6h[4:3],,5,,,4,4,,
{2}5h[2:1],4h[2:1],
{4}5,5,5,2x/7x,
{2}1b-5[8:1]/8b-6[8:1],1-3[8:1]/8-4[8:1],
{4}1-5[8:1]/8-6[8:1],,1/8,2/5,
{2}3/4-8[8:1],5-1[8:1]/6,
{4}3/4-8[8:1],,1/7,3,
{4}2>5[4:1]/4-8[4:1],,,8x,
{4}5-1[4:1]/7<4[4:1],,,1x,
{16}2h[16:3],,,4h[16:3],,,3,,,,4>5[8:5]/5,,,,,,
{4},,,3/6,
{4}2b/4b,1/2,7/8,6,
{4}5/7,7/8,1/2,3,
{4}2/4,1/2,7/8,6,
{4}4/5,2/4,4/5,5/7,
{2}7-5[8:1]/8-4[8:1],1-5[8:1]/2-4[8:1],
{4}7-5[8:1]/8-4[8:1],,4x/5x,2x/4x,
{16}3h[16:3],,,4h[16:3],,,5,,,,5/6<3[8:5],,,,,,
{4},,,4/5,
{1}C1xh[1:1],
{4},,3/6,1b/8b,
{8}2/7,,4,4,5h[4:1],,6-4[8:1],,
{8},,6,6,4h[4:1],,3-5[8:1],,
{8},,3,3,5h[4:1],,6-3[8:1],,
{8},,5,5,2h[4:1],,4-6[8:1],,
{8}3x,,3,4,6h[4:1],,5-2[8:1],,
{8}7x,,6,5,2h[4:1],,4-7[8:1],,
{8}2x,,3,4,7h[4:1],,8bz4[4:3],,
{1},
{1}4h[1:4],
{1}E5,
{1}E5,
{1}E5,
{4}B6,B7/E7,,C1,
{4}B3,B2/E3,,E5,
{4}E4/E6,E3/E7,,4>1[2:1]/5,
{1},
{2}3h[2:1],4h[2:1],
{2}5h[2:1],6h[2:1],
{4}4h[2:1],5,5h[2:1],4,
{4}4,4,4/5,1x/8x,
{2}7b-4[8:1]/8b-3[8:1],1-6[8:1]/2-5[8:1],
{4}7-4[8:1]/8-3[8:1],,2/5,3/4,
{2}5-1[8:1]/6-8[8:1],3-1[8:1]/4-8[8:1],
{4}5-1[8:1]/6-8[8:1],,2x/4x,4/5,
{4}3>8[4:1]/7q4[4:1],,,1x/5x,
{4}2p5[4:1]/6<1[4:1],,,4x/8x,
{16}3h[16:3],,,2h[16:3],,,1,,,,1>7[8:3]/8,,,,,,
{4},,,4/6,
{4}3b/5b,1/2,7/8,5,
{4}4/6,7/8,1/2,4,
{4}3/5,1/2,7/8,5,
{4}4/6,3/5,4/7,1/8,
{2}2-4[8:1]/4-8[8:1],5-1[8:1]/7-5[8:1],
{4}2-4[8:1]/4-8[8:1],,5x/7x,4/5,
{16}3h[16:3],,,2h[16:3],,,1,,,,1/2>8[8:5],,,,,,
{4},,,2/7,
{1}C1xh[1:1],
{4},,3/6,1b/8b,
{4}2h[4:1]/7,4,3/7h[4:1],5,
{8}2h[4:1]/6,,3,,2,2,1,,
{4}2/8h[4:1],5,1h[4:1]/7,4,
{8}2/8h[4:1],,5,,7,7,1/7,,
{2}2h[4:1]/6h[4:1],3h[4:1]/5h[4:1],
{4}4h[4:1],,4q5[4:5],5,
{1},
{1},
{1},
{1},
E
&inote_5=
(140){1},
{1},
{16},,,,,,,,,,,,4,5,4,5,
{4}3b-1[32:3]*-7[32:3],3x,3-6[32:3]*-8[32:3],3x,
{8}3-5[32:3]*-7[32:3],,3x,,2,1,3/8,,
{4}6-2[32:3]*-8[32:3],6x,6-1[32:3]*-3[32:3],6x,
{8}6-2[32:3]*-4[32:3],,6x,,7,8,1/6,,
{8}3h[4:1],5,5h[4:1],4,4h[4:1],6,6h[8:7],,
{16}7,,,5,,,4h[8:3],,,,,,6,,,,
{8}6h[4:1],4,4h[4:1],5,5h[4:1],3,3h[8:7],,
{16}2,,,4,,,5h[8:3],,,,,,3,,,,
{8}4,5h[4:1],4h[4:1],,1b,,7,7,
{16}7h[16:3],,,6h[16:3],,,5h[8:5],,,,3,,2,,1h[4:1],,
{8},7h[8:5],3h[2:1],,,,,,
{16}E6,,E4,,E5,,E3,B3,,E7,B6,,1,1,8,8,
{4}3b-1[32:3]*-8[32:3],3-5[32:3],3-7[32:3]*-8[32:3]/7,3-5[32:3],
{8}3-6[32:3]*-7[32:3]/6,,3,,8,1,2/4,,
{4}6x-1[32:3]*-8[32:3],6-4[32:3],2/6-1[32:3]*-2[32:3],6-4[32:3],
{8}3/6-2[32:3]*-3[32:3],,6,,1,8,5/7,,
{4}1x-6[32:3]*-7[32:3],1-3[32:3],1-5[32:3]*-6[32:3]/5,1-3[32:3],
{8}1-4[32:3]*-5[32:3]/4,,1,,6,7,2/8,1h[8:1]/3h[8:1],
{8},6>3[8:3]/8p1[8:3],6/8,,,,,,
{16}4h[8:1]/5h[8:1],,,,2/7,,1,8,1,,3/6,,4,4,5,5,
{4}3b,2>5[2:1],,6<1[2:1],
{8},,5q2[2:1],,,,1<4[16:9],1p2[16:7],
{8},,,,,,,3>6[8:5],
{1},
{4}C1,7<4[2:1],,3>8[2:1],
{8},,4p7[2:1],,,,8>5[16:9],8q7[16:7],
{8},,,,,,1<3[4:3],1q2[8:5],
{1},
{16}5h[2:1],,,,4,,,4,4h[2:1],,,,5,,,6,
{16}6h[2:1],,,,5,,,3,3h[2:1],,,,4,,,5,
{8}5h[4:3],,E7,E8,E1,E2,E3,,
{64}5-2[32:3],,,,,,,,,,,,,,,,4-7[32:3],,,,,,,,,,,,,,,,8w4[16:1],,,,,,,,,,,,,,,,8b,,C1f,B3/B5,,,,,,,,,,,,,
{16}7/8,,6h[8:1]/8h[8:1],,,6/8,,1/8,1/8,,1h[8:1]/3h[8:1],,,1/3,,4/5,
{16}4/5,,5h[8:1]/7h[8:1],,,5/7,,4/5,4/5,,2h[8:1]/4h[8:1],,,2/4,,1,
{16}1-5[8:1],,6-8[8:1],,,,,,5h[8:1],,1,4h[8:1],,8,3qq8[8:3],,
{8},4<7[8:1],,,,5/6,4,2/3h[8:1],
{8},3/5h[8:1],4,6h[8:1]/7,,4h[8:1]/6,5,2/3h[8:1],
{8},3/5<2[4:1],4,5x/6xh[8:3],,,,6,
{16}1h[8:1]/6h[8:1],,,3h[8:1]/8h[8:1],,,5/6,,,,3>6[8:3]/4p5[8:3],,,,3/4,,
{8},,,,6,5-1[32:3],4,3/5b>2[32:3],
{8},5<8[32:3]/8,,2/5>2[32:3],,5<4[8:3]/8,,2x/5x,
{8},,1b,,3,4-8[32:3],5,4b<7[32:3]/6,
{8},1/4>1[32:3],,4<7[32:3]/7,,1/4>5[8:3],,4x/7x,
{8},,8b,,6,5,4,3h[4:1],
{8},2q7[8:1],1,8,,8,1,2h[4:1],
{8},1pp1[8:3],8,7h[8:3],,,,6,
{16}5h[8:1]/6h[8:1],,,3h[8:1]/4h[8:1],,,1-6[32:3]/8-6[32:3],,,,1>8[16:7]/8q1[16:7],,,,1b/8b,,
{8},,,,,3,4,5,
{16}6h[16:5],,,2h[16:5],,,5h[16:5],,,1h[16:5],,,4h[16:5],,,8h[16:5],
{32},,,,3h[16:5],,,,,,7h[8:1],,,,,,B3/B7,C1f,,,,,,,2,,8,,2,,8,,
{16}1b>5[8:3],,,,6,,7,7,,8,8,,1-5[32:3],,,,
{16}1x/8x<4[8:3],,,,3,,2,2,,1,1,,8-4[32:3],,,,
{16}2x>6[8:3]/8x,,,,7,,8,8,,1,1,,2-5[32:3],,,,
{16}2x/7x<3[8:3],,,,2,,1,1,,8,8,,7-4[32:3],,,,
{16}2x/7x,,,,3,5,3,5,2,6,2,6,1,7,1,7,
{16}8,6,8,6,1,7,1,7,2,8,2,8,3,1,3,1,
{24}2,3,4,8,7,6,1,2,3,7,6,5,2,3,4,8,7,6,1,2,3,7,6,5,
{8}C1xh[8:7],,,,,,,B1/E1/B8,
{8},,6<1[2:1],6,,,2>5[2:1],2,
{8},,1q6[2:1],1,,,5>8[16:9],5p6[16:7],
{8},,,,,,,6<3[8:5],
{1},
{8}C1,,2>5[2:1],2,,,6<1[2:1],6,
{8},,5q2[2:1],5,,,1<4[16:9],1p2[16:7],
{8},,,,,,8>6[4:3],8p7[8:5],
{1},
{8}4h[2:1],B8,B7,B6,5h[2:1],B1,B2,B3,
{8}4h[2:1],B8,B7,B6,5h[2:1],B1,B2,B3,
{32}4h[4:3],,,,,,,,E1,E8,E7,E6,E5,E4,E3,E2,E1,E8,E7,E6,E5,E4,E3,E2,E1,,,,,,,,
{64}4-7[32:3],,,,,,,,,,,,,,,,5-2[32:3],,,,,,,,,,,,,,,,1w5[16:1],,,,,,,,,,,,,,,,1b,,C1f,B4/B6,,,,,,,,,,,,,
{16}1/2,,1h[8:1]/3h[8:1],,,1/3,,1/8,1/8,,6h[8:1]/8h[8:1],,,6/8,,4/5,
{16}4/5,,2h[8:1]/4h[8:1],,,2/4,,4/5,4/5,,5h[8:1]/7h[8:1],,,5/7,,8,
{16}8-4[8:1],,3-1[8:1],,8,,3,,4h[8:1],,8,5h[8:1],,1,6pp1[8:3],,
{8},5>2[8:1],,C1f,,3/4,5,6h[8:1]/7,
{8},4h[8:1]/6,5,2/3h[8:1],,3/5h[8:1],4,6h[8:1]/7,
{8},4>7[4:1]/6,5,3xh[8:3]/4x,,,,3,
{16}3h[8:1]/8h[8:1],,,1h[8:1]/6h[8:1],,,3/4,,,,5q4[8:3]/6<3[8:3],,,,5/6,,
{8},,,,3,2/4-1[32:3],3/5,4bpp6[32:3]/6,
{8},2/4qq2[32:3],,4pp6[32:3]/7,,1/4qq8[8:3],,4x/8x,
{8},,7b,,6,5-8[32:3]/7,4/6,3/5bqq3[32:3],
{8},5pp7[32:3]/7,,2/5qq3[32:3],,5pp1[8:3]/8,,1x/5x,
{8},,2b,,2,3/4,4/5,5/6h[4:1],
{8},7p2[8:1],8,1,,1,8,7h[4:1],
{8},8qq8[8:3],1,2h[8:3],,,,3,
{16}3h[8:1]/4h[8:1],,,5h[8:1]/6h[8:1],,,1-3[32:3]/8-3[32:3],,,,1p8[16:7]/8<1[16:7],,,,1b/8b,,
{8},,,,,6,5,4,
{16}3h[16:5],,,7h[16:5],,,4h[16:5],,,8h[16:5],,,5h[16:5],,,1h[16:5],
{32},,,,6h[16:5],,,,,,2h[8:1],,,,,,B2/B6,C1f,,,,,,,7,,1,,7,,1,,
{4}8b-4[32:3]*-6[32:3],8-2[32:3],5/8-3[32:3]*-5[32:3],8-6[32:3],
{8}4/8-2[32:3]*-4[32:3],,8,,5,6,7h[4:1]/8,,
{4}1x-3[32:3]*-5[32:3],1-7[32:3],1-4[32:3]*-6[32:3]/4,1-3[32:3],
{8}1-5[32:3]*-7[32:3]/5,,1,,4,3,1h[4:5]/2,,
{8}3-5[16:1],3,,,6-4[16:1],6,,,
{16}5h[4:1],,,,7,,4,4,5h[8:1],,3h[8:1],,6-2[8:9],,,,
{4},,,1s5[8:1],
{1},
{1},
{1},
E
