&title=LiftOff
&wholebpm=137
&artist=MAYA AKAI
&des=シチミヘルツ
&shortid=11314
&genre=オンゲキCHUNITHM
&cabinet=DX
&version=maimai DX UNiVERSE
&chartconverter=Neskol
&lv_2=4
&des_2=
&lv_3=8
&des_3=
&lv_4=11+
&des_4=隅田川星人
&lv_5=13+
&des_5=シチミヘルツ
&des_6=
&inote_2=
(137){1},
{1},
{1}1xh[1:1],
{1},
{1}8xh[1:1],
{1},
{1}1-4[4:3],
{1},
{1}8-5[4:3],
{1},
{1}1-4[4:3],
{1},
{1}8h[1:1],
{1},
{2}1,1,
{1}1,
{2}2,2,
{1}2,
{2}3,3,
{1}3,
{2}4,4,
{1}4/5,
{2}5,5,
{1}5,
{2}6,6,
{1}6,
{2}7,7,
{1}7,
{2}8,8,
{1}1/8,
{1}1-4[4:3]/8-5[4:3],
{1},
{1},
{1}C1hf[1:1],
{1},
{1}B7/B8,
{1}B5/B6,
{1}B3/B4,
{1}B1/B2,
{1}B3/B4/E4,
{1}B5/B6/E6,
{1}C1f,
{1}1-5[4:3],
{1},
{1}7-3[4:3],
{1},
{1}2-6[4:3],
{1},
{1}8-4[4:3],
{1},
{1}1b,
{2}8h[4:1],8,
{2}7h[4:1],7,
{2}6h[4:1],6,
{2}4h[4:1]/5h[4:1],4/5,
{2}4h[4:1],4,
{2}3h[4:1],3,
{2}2h[4:1],2,
{2}1h[4:1]/8h[4:1],1/8,
{4}1h[4:1],,1,1,
{2}2h[4:1],1/2,
{4}3h[4:1],,3,3,
{2}4h[4:1]/5h[4:1],4/5,
{4}5h[4:1],,5,5,
{4}6h[4:1],,6,6,
{4}7,7,8,8,
{2}1h[4:1]/8h[4:1],1x/8x,
{4}8,8,7/8,,
{4}6,6,5/6,,
{4}3,3,3/4,,
{4}2,2,1/2,,
{2}7h[4:1]/8h[4:1],7/8,
{2}1h[4:1]/2h[4:1],1/2,
{2}1h[4:1]/8h[4:1],1/8,
{4}2/7,2/7,2/7,,
{1}C1f,
{1},
{1},
{1},
E
&inote_3=
(137){1},
{1},
{1}C1hf[1:3]/B3/B6,
{1},
{1},
{1},
{4}7x,7/8,7,7/8,
{4}6,5/6,6,5/6,
{4}3,3/4,3,3/4,
{4}2,1/2,8,2/7,
{4}6h[4:1],5,6x,5/7,
{4}3h[4:1],4,3x,2/4,
{4}4/5,3/6,2/7,1/8,
{1}1bs5[2:1]/8b,
{4}6,6,5/6,5/6,
{4}7,8,1,2,
{4}3,3,3/4,3/4,
{4}2x,1x/8x,2x/7x,,
{4}7,7,7/8,7/8,
{4}6,5,4,3,
{4}2,2,1/2,1/2,
{1}3/4z8[2:1],
{4}7x,7/8,7,1/6,
{4}2,1/2,2,3/8,
{4}4,3/4,3,2/5,
{4}6x,5x/6x,4x/7x,,
{4}3,3/4,3,2/5,
{4}6,5/6,6,4/7,
{8}8,8,8,,1,1,1,,
{8}2,2,2,,3,3,3,,
{1}4bqq1[4:5]/5bpp8[4:5],
{1},
{1}C1hf[1:1],
{1},
{1}8z4[2:1],
{1}3V15[2:1],
{1}6<3[2:1],
{4}4,4,4/5,,
{1}6-1[8:3]*-2[8:3],
{1}2s6[2:1],
{1}7v5[8:3],
{2}B2/B3/E3,B6/B7/E7,
{1}4z8[2:1],
{1}7V51[2:1],
{1}2>7[2:1],
{1}C1hf[2:1],
{4}8x,1/8,2,1/2,
{4}3,3/4,6,5/6,
{8}7,7,7,,8,8,8,,
{8}1/8,1/8,1/8,,2/7,2/7,2q6[8:3]/7,,
{8},,,,7x,7x,1,1,
{8}7/8,,1/6,,2,2,8,8,
{8}1/2,,3/8,,4,4,6,6,
{4}4/5,6/7,1/8,2/3,
{8}4/5,,3b/6b,,2,2,8,8,
{8}1/2,,3/8,,7,7,1,1,
{8}7/8,,1/6,,5,5,3,3,
{4}4/5,2/3,1/8,6/7,
{8}4/5,,3b/6b,,2,1,8,7,
{8}5/6,,4/7,,3,4,5,6,
{8}7/8,,1/6,,7,6,5,4,
{4}3/5,1/2,7/8,5/6,
{8}3/4,,2/5,,1,1,1,,
{8}2h[4:1]/8h[4:1],,,,7,7,7,,
{8}4h[4:1]/6h[4:1],,,,3,3,3,,
{8}4/5,4/5,4/5,3/6,3/6,3/6,2/7,2/7,
{1}1b/8bz4[2:1],
{4}3x,3/4,3,3/4,
{4}2,1/2,2,1/2,
{4}7,7/8,7,7/8,
{4}6,5/6,4,3/6,
{4}2h[4:1],1,2x,1/3,
{4}7h[4:1],8,7x,6/8,
{8}7/8,7/8,7/8,,5/6,5/6,5/6,,
{8}3/4,3/4,3/4,,1/2,1/2,1/2,,
{1}C1f,
{1},
{1},
{1},
E
&inote_4=
(137){1},
{4},,,3x/6x,
{1}C1hf[4:11]/8x,
{1}7h[2:1],
{4}8,,1,1pp6[16:11],
{1},
{4}7-5[8:1],8,1-7[8:1],2,
{4}3-1[8:1],4,5-3[8:1],6,
{4}7-5[8:1],8,1-7[8:1],2,
{4}3-1[8:1],4,2/5,4/7,
{16}7h[4:1],,,,6x,,,5h[16:3]/7,,,6,,4x/7x,,,,
{16}2h[4:1],,,,3x,,,2/4h[16:3],,,3,,2x/5x,,,,
{8}6,7,8,1,2,3,4/5q4[2:1],,
{4}C1hf[2:1],,,2x/7x,
{16}8h[16:3],,,7h[16:3],,,6h[16:3],,,5,6,,5/7,,,,
{16}1h[16:3],,,2h[16:3],,,3h[16:3],,,4,3,,2/4,,,,
{16}8h[16:3],,,7h[16:3],,,6h[16:3],,,5,6,,5-1[8:1]/7,,,,
{4}7-5[8:1],2<7[8:1],4,4x/5x,
{16}7h[16:3],,,6h[16:3],,,5h[16:3],,,4,5,,4/6,,,,
{16}2h[16:3],,,3h[16:3],,,4h[16:3],,,5,4,,3/5,,,,
{16}7h[16:3],,,6h[16:3],,,5h[16:3],,,4,5,,4-1[8:1]/6,,,,
{4}7-4[8:1],8>5[4:1],5,7b,
{16}6xh[16:3],,,5,6,,4/7,,6,5,,,5/7h[16:3],,,8,
{16}7,,,6,5,,4/7,,6,5,,,5/7h[16:3],,,8,
{16}7,,,6,5,,4/7,,6,5,,,5/7-2[8:1],,,,
{8}3-6[8:1],,1-5[8:1],,4,,2x,2x,
{16}3h[16:3]/5,,,4,3,,2/5,,3,4,,,2h[16:3]/4,,,1,
{16}2,,,3,4,,2/5,,3,4,,,2h[16:3]/5,,,1,
{8}2x,2x,3x/4x,4x/5x,4x/5x,3x/6x,2x/7x,1x/8x,
{16}1,8,1,8,1,8,1,8,1,8,1,8,1,,,,
{1}2b>8[8:11]/7b<1[8:11],
{1},
{4}C1hf[4:3]/1x,,,8xqq3[16:11],
{1},
{16}4h[8:1]/6h[8:1],,,3h[8:1]/5h[8:1],,,4/6,,3>6[4:1]/7,,,,,,,,
{8}5x,5x,4/6,3,2h[4:1],,B2/E3,B4/E5,
{8}6,6,5z1[4:1],4,3x<6[8:1],,,,
{8}8,7,6,5-1[4:1]*V31[4:1],4,,,,
{16}2h[8:1]/8h[8:1],,,1h[8:1]/7h[8:1],,,2/6,,5-8[8:1],,4-1[8:1],,,,,,
{8}7,8,1/7,2,3/6v3[8:1]*v4[8:1],,,,
{16}2xh[8:1]/5xh[8:1],,,3h[8:1]/6h[8:1],,,4/7,,E8,,E6,,E4,,E2,,
{16}6h[16:3],,,5,,,4/7,,4/7v4[8:1],,,,,,,,
{16}3h[8:1]/5h[8:1],,,4h[8:1]/6h[8:1],,,3/5,,2/6<3[4:1],,,,,,,,
{8}4x,4x,3/5,6,7-2[8:1]*v2[8:1],,,,
{16}1xh[8:1]/3xh[8:1],,,2h[8:1]/8h[8:1],,,1/7,,1>4[8:1]/7,,,,6qq2[8:3],,,,
{8}3xh[2:1],,,,,1x,8,7,
{8}5x/6x,7,1x/8x,2,3x/4x,2,1x/8x,7,
{8}5x/6x,7,1x/8x,2,3x/4x,2,1x/8x,7,
{8}5x/6x,5x/6x,7x/8x,7x/8x,1x/2x,1x/2x,3x/4x,3xh[8:1]/4x,
{16}4,3,4,3,4,3,4,3,4,3,4,3,4w8[4:1],,,,
{24},,,,,,,,,,,,E8,B7,B6,E6,,,E2,B2,B3,E4,,,
{24}C1f,,,,,,1x/8x,,,,,,E7,B6,B5,E5,,,E1,B1,B2,E3,,,
{24}C1f,,,,,,1x/8x,,,,,,E3,B3,B4,E5,,,E1,B8,B7,E7,,,
{8}2x-4[8:1],,8,8V62[4:1],,5,5,4,
{24}3,,,,,,1b/8b,,,,,,E2,B2,B3,E4,,,E8,B7,B6,E6,,,
{24}C1f,,,,,,1x/8x,,,,,,E3,B3,B4,E5,,,E1,B8,B7,E7,,,
{24}C1f,,,,,,1x/8x,,,,,,E7,B6,B5,E5,,,E1,B1,B2,E3,,,
{8}7x-5[8:1],,1,1V37[4:1],,4,4,5,
{24}6,,,,,,3b/8h[4:3],,,,,,E8,B7,B6,E6,,,E4,B3,B2,E2,,,
{24}C1f,,,,,,1xh[4:3]/7x,,,,,,E5,B4,B3,E3,,,E1,B8,B7,E7,,,
{24}C1f,,,,,,2x/8xh[4:3],,,,,,E5,B5,B6,E7,,,E1,B1,B2,E3,,,
{8}5x-2[8:1],,7,7V51[4:1],,3,3,4,
{24}4/8,,,,,,1b/6b,,,,,,B8/E8,E7,E6,E5,,,B1/E2,E3,E4,E5,,,
{48}5xh[8:1]/7xh[8:1],,,,,,,,,5/7,,,,,,,,,,,,,,,B1/E2,,E3,,E4,,E5,,,,,,B8/E8,,E7,,E6,,E5,,,,,,
{16}2xh[8:1]/4xh[8:1],,,2/4,,,,,3/5,,6,,7,,1/8,,
{16}8,1,8,1,8,1,7,2,7,2,7,2,6,3,6,3,
{4}5bv8[4:1]*V38[4:1],,,2b/6b,
{4}7-5[8:1],8,1-7[8:1],2,
{4}3-1[8:1],4,5-3[8:1],6,
{4}7-5[8:1],8,1-7[8:1],2,
{4}3-1[8:1],4,2/5,4/7,
{16}2h[4:1],,,,3x,,,2/4h[16:3],,,3,,2x/5x,,,,
{16}7h[4:1],,,,6x,,,5h[16:3]/7,,,6,,4x/7x,,,,
{8}4/5,4/5,3/6,3/6,2/7,2/7,1/8,1/8,
{16}1,8,1,8,1,8,1,8,1,8,1,8,1,,,,
{1}C1f/B2/B3/E3/B6/B7/E7,
{1},
{1},
{1},
E
&inote_5=
(137){1},
{4},,,3<6[8:1]/7>2[4:11],
{1}3b,
{1},
{1}C1xh[1:1],
{48}1,,8,,7,,6,,5,,4,,3,,2,,,,8,,,,6,,,,4,,,,,,,1,,,,,,,,,,,3,,,,
{4}8b-5[8:3],7,6-3[8:3],5,
{4}4-1[8:3],3,2-7[8:3],1,
{4}8-3[8:3],1,2-5[8:3],3,
{4}4-7[8:3],5,6-1[8:3],7,
{16}8,,,,2/8,,,6,5,,5,,1/7,,,,
{16}3/4,,,,2/8,,,6,5,,5,,1/7,6,,,
{16}3,4,3,2,3,1,4,8,5,7,6,7,8,6,1,5,
{16}2,4,3,2/5,,1/4,,2/5,,7,5,6,1b-5[8:1],,,,
{16}1/7,,,7,4-7[8:1],,3,,2/4>1[8:1],,,,8,,,4,
{16}4,,,2,5-2[8:1],,6,,5<8[8:1]/7,,,,1,,,5,
{16}5,,,7,4-7[8:1],,3,,2/4>1[8:1],,,,8,,,4,
{16}4,,,2,5,,4h[8:1]/6h[8:1],,,5/7,,,8-4[8:1],3,8,3,
{16}8,,,2,5-1[8:1],,6,,5<8[8:1]/7,,,,1,,,5,
{16}5,,,7,4-8[8:1],,3,,2/4>1[8:1],,,,8,,,4,
{16}4,,,2,5-1[8:1],,6,,5<8[8:1]/7,,,,1,,,2,
{16}2h[16:7],,1,,3,3,,1,,2/8,2/8,,1,1,1,1,
{16}1b,,,2,4-1[8:1],,3/5,,6<1[8:1],,5,,1,,,5,
{16}5,,,7,5-8[8:1],,4/6,,3>8[8:1],,4,,8,,,4,
{16}4,,,2,4-1[8:1],,3/5,,6<1[8:1],,5,,1,,,5,
{16}5,,,7,5,,4/6,,3h[8:1]/5h[8:1],,,,7,1,6,2,
{16}3/5,,,7,5-8[8:1],,4/6,,3>8[8:1],,4,,8,,,4,
{16}4,,,2,4-1[8:1],,3/5,,6<1[8:1],,5,,1,,,3,
{16}3,4,2,5,1,6,8,7,5,6,4,7,3,8,1,2,
{16}4h[16:3],,,6h[16:3],,,8h[16:3],,,2,,,3<6[4:11]/7>2[8:1],,,,
{1}7b,
{1},
{1}C1xh[1:1],
{24}7,6,5,4,3,2,1,,7,,7,,,,7,,,,,7b,,,,,
{16}3/8,,2-5[8:1],1,,1,2,,8<5[8:1],,1/7,,,,,,
{16}3,3,4,4,5-8[8:1],5,6,,4,,,,E2,,C1,,
{16}3,3,1,2,2,8,1,1,7<4[8:1],8,8,8b,,,,,
{16}3,,3,2,,2,1,,7h[4:1]/8,,E6,,E5,,E4,,
{16}2h[8:1]/5h[8:1],,,1/4h[16:3],,,2,5,3,7,4,8h[16:3],B6/E6,,B4/E5,,
{16}2,1,3,1,2,1,2h[4:1],,B3/B4,,8h[4:1],,E6,,C1,,
{16}1h[8:1]/2h[8:1],,,2h[8:1]/3,,,B3/B4/E5,,1/6,,7,7,8,8,1,1,
{16}2,,,4h[16:3]/6h[16:3],,,,,8,,,3h[16:3]/5h[16:3],,,,,
{16}2/6,,,3h[8:1]/7h[8:1],,,8,8,4>1[8:1],8,8,,5h[4:1],,,,
{16}8,8,6,1,1,7,2,2,8h[4:1],,,,B6/E6,,B4/E5,,
{16}1h[8:1],,,2h[8:1]/8h[8:1],,,3,3,1<6[8:1],2,2,2b,1>4[2:1],,,,
{8}1h[8:3],,,,1,E7,E3,C1,
{16}2h[8:1],8,8,,1h[8:1],7,7,,8h[8:1],6,6,,7h[8:1],5,5,,
{16}6h[8:1],4,4,,5h[8:1],3,3,,4h[8:1],2,2,,3h[8:1],1,1,,
{8}2/8,1/7,6/8,5/7,4/6,3/5,2/4,1/3,
{16}6,5,6,5,,4/7,,2/5,,3,4,3,4>1[8:3]/5<8[8:3],,,,
{24},,,,,,,,,,,,2,3x,4x,5x,6x,7x,2,3x,4x,5x,6x,7x,
{24}2/8x-3[8:1],,,,,,4h[4:1],,,,,,2,1x,8x,7x,6x,5x,2,1x,8x,7x,6x,5x,
{24}4x-8[8:1]/8,,,,,,5h[4:1],,,,,,8,1x,2x,3x,4x,5x,8,1x,2x,3x,4x,5x,
{8}2<7[4:1],,7<4[4:1],,4>1[4:1],,7,6,
{24}5-8[8:1],,,,,,3/5,,,,,,7,6x,5x,4x,3x,2x,7,6x,5x,4x,3x,2x,
{24}1x-6[8:1]/7,,,,,,5h[4:1],,,,,,7,8x,1x,2x,3x,4x,7,8x,1x,2x,3x,4x,
{24}1/5x-1[8:1],,,,,,4h[4:1],,,,,,1,8x,7x,6x,5x,4x,1,8x,7x,6x,5x,4x,
{8}7>2[4:1],,2>5[4:1],,5<8[4:1],,2,3,
{24}4-1[8:1],,,,,,4/8,,,,,,7,6,5,1,2,3,8-3[8:1],7,6,2,3,4,
{24}5-1[8:1],,,,,,7,,,,,,2,3,4,8,7,6,1-6[8:1],2,3,7,6,5,
{24}4-8[8:1],,,,,,2,,,,,,7,6,5,1,2,3,8,7,6,2,3,4,
{8}8>3[4:1],,3<6[4:1],,6<1[4:1],,2-6[8:1],2,
{24}2,,,,,,3/7,,,,,,2,1,8,7h[24:5],,,3,2,1,8,7,6,
{48}5h[16:3],,,,,,,,,3-7[16:5],,,,,,,,,,,,,,,4b,,,,,,,,,,,,1,,2,,3,,4,,5,,6,,
{16}7h[16:3],,,6-2[16:5],,,,,7b,,,,8h[4:1],,,,
{16}1,1,1,1,1,1,3,3,3,3,3,3,4,4,5,5,
{16}6,,3,2/4,,6,5/7,,4>1[8:1]/8<5[8:1],,,,4b/8b,,,,
{4}6-1[8:3],7,8-3[8:3],1,
{4}2-5[8:3],3,4-7[8:3],5,
{4}6-3[8:3],5,4-1[8:3],3,
{4}2-7[8:3],1,8-5[8:3],7,
{16}6,,,,1/7,,,3,4,,4,,2/8,,,,
{16}5/6,,,,1/7,,,3,4,,4,,2/8,3,,,
{16}6,5,6,7,6,8,5,1,4,2,3,2,1,3,8,4,
{16}7,5,6,4/7,,5/8,,4/7,,1,2,3,4-1[1:2],5,6,7,
{1}8b,
{1},
{1},
{1},
{1},
E
