&title=GIGANTØMAKHIA
&wholebpm=190
&artist=BlackYooh vs. siromaru
&des=KOP3rd with 翡翠マナ
&shortid=11374
&genre=maimai
&cabinet=DX
&version=maimai DX UNiVERSE
&chartconverter=Neskol
&lv_2=6
&des_2=
&lv_3=8
&des_3=
&lv_4=13
&des_4=隅田川星人
&lv_5=14+
&des_5=KOP3rd with 翡翠マナ
&des_6=
&inote_2=
(190){1},
{1},
{1},
{1},
{1},
{2}4,4,
{1}4,
{2}5,5,
{1}5,
{1}4xh[1:1]/5xh[1:1],
{1},
{1}3h[1:1]/6h[1:1],
{1},
{1}2h[1:1]/7h[1:1],
{1},
{1}1h[1:1]/8h[1:1],
{1},
{2}1,1,
{2}2,2,
{2}3,3,
{2}3/4,3/4,
{2}5,5,
{2}6,6,
{2}7,7,
{1}1/8,
{2}7,7,
{1}7/8,
{2}6,6,
{1}5/6,
{2}3,3,
{1}3/4,
{2}2,2,
{1}1/2,
{1}3h[1:1]/4h[1:1],
{1},
{1}5h[1:1]/6h[1:1],
{1},
{2}4,4,
{2}5,5,
{2}4/5,4/5,
{1}3/6,
{4}2,2,2,,
{1}1/2,
{4}3,3,3,,
{1}3/4,
{4}6,6,6,,
{1}5/6,
{4}7,7,7,,
{1}7/8,
{4}1,1,1,,
{4}2,2,1/2,,
{4}8,8,8,,
{4}7,7,7/8,,
{4}6,6,6,,
{4}5,5,4/5,,
{4}3,3,3,,
{4}4,4,4/5,,
{1}3b/6b,
{1},
{1}B4/B5,
{1}B3/B6,
{1}B2/B7,
{1}B1/B8,
{1}B2/B7,
{1}C1,
{1}1-5[4:3],
{1},
{1}8-4[4:3],
{1},
{1}4-1[4:3]/5-8[4:3],
{1},
{1}1xh[1:1]/8xh[1:1],
{1},
{4}8,8,8,,
{4}7,7,7,,
{4}6,6,6,,
{4}4/5,4/5,4/5,,
{4}3,3,3,,
{4}2,2,2,,
{4}1,1,1,,
{2}1/8,1/8,
{4}2,2,2,,
{4}3,3,3/4,,
{4}5,5,5,,
{4}6,6,5/6,,
{4}7,7,7/8,,
{4}2,2,1/2,,
{4}8,8,8,,
{4}1/7,1/7,1/7,,
{4}6,6,5,5,
{4}4,4,4/5,,
{4}3,3,2,2,
{4}1,1,1/8,,
{4}7,7,7/8,7/8,
{4}1,1,1/8,,
{4}2,2,1/2,1/2,
{4}8,8,1b/8b,,
{4}7,7,6,6,
{4}5,5,4/5,4/5,
{4}3,3,2,2,
{4}1,1,1/8,1/8,
{4}2,2,3/4,3/4,
{4}5,5,4/5,4/5,
{4}3/6,3/6,2/7,2/7,
{4}1/8,1/8,2/7,3/6,
{1}4b/5b,
{1},
{1},
{1},
E
&inote_3=
(190){1},
{2}7h[2:1],8h[2:1],
{2}1h[2:1],2,
{2}3h[2:1],4h[2:1],
{2}5h[2:1],6,
{1}7pp4[4:5],
{1},
{1}3pp8[4:5],
{1},
{1}7-4[8:3],
{1}3-8[8:3],
{1}7-4[8:3],
{4}3,3,4/5,,
{4}6,7,8,1,
{4}2,3,4,5,
{8}6,6,6,,7,7,7,,
{8}8,8,8,,1,1,1,,
{4}2/7,2b/7b,2/7,,
{4}6,6,5/6,,
{4}3,3,4,4,
{4}5,5,4/6,,
{4}7,7,8,8,
{4}1,1,2/8,,
{4}3,3,4,4,
{4}4/5,4/5,3b/6b,,
{1}7<4[8:3],
{4}3,3,3/4,,
{1}2>5[8:3],
{4}6,6,5/6,,
{1}6-1[8:3],
{4}2,2,1/2,,
{1}3-8[8:3],
{4}7,1/8,1b/8b,,
{2}E2,E3,
{2}E4,E5,
{2}E6,E7,
{2}E8,E1,
{4}1x,2x,3,4,
{4}5,6,7,8,
{4}1/8,2/7,3/6,4/5,
{1}4b-1[8:3]/5b-8[8:3],
{8}7,7,7,,7/8,,7/8,,
{4}6,5/6,4,4/5,
{1}3-8[8:3],
{1}7-3[8:3],
{8}2,2,2,,1/2,,1/2,,
{4}3,3/4,5,4/5,
{1}6-1[8:3],
{1}2-5[8:3],
{8}6,6,6,,5/6,,5/6,,
{4}7,7/8,1,1/8,
{1}2-5[8:3],
{1}6-1[8:3],
{8}2,2,2,,3/4,,3/4,,
{4}2,1/2,8,1/8,
{1}1pp4[8:9]/8qq5[8:9],
{1},
{2}E5,E4,
{1}E3,
{2}E5,E6,
{1}E7,
{2}E4,B3,
{1}B2,
{2}E6,B6,
{1}B7,
{4}2,2,1/2,,
{4}7,7,7/8,,
{4}6,6,5/6,,
{4}4,4,4/5,,
{1}4qq1[8:9]/5pp8[8:9],
{1},
{1}1h[2:1]/8h[2:1],
{1}8-4[8:3],
{4}3,3,3/4,2/5,
{4}6,6,5/6,4/7,
{4}8,8,1/8,2/7,
{4}3,3/4,2/5,,
{4}6h[4:1],5,5/6,5/6,
{4}3h[4:1],4,3/4,3/4,
{4}6,5/6,3,3/4,
{1}2>5[8:3],
{4}6,5/7,6,5/6,
{4}3,2/4,3,3/4,
{4}2,2,1,1,
{4}8,1/8,2/7,,
{4}3,2/4,3,3/4,
{4}6,5/7,6,5/6,
{4}7,7,8,8,
{4}1x/8x,2x/7x,3x/6x,4x/5x,
{4}6,6,5/6,4/7,
{4}3,3,3/4,2/5,
{4}1,1,1/8,2/7,
{4}6,5/6,4/7,,
{4}3,3b/4b,2,1/2,
{4}7,7/8,6,5/6,
{8}4,4,4,,5,5,5,,
{8}4/5,4/5,4/5,,3b/6b,,,,
{8}7/8,7/8,7/8,,6,,6,,
{4}5,4,3,3,
{8}1/2,1/2,1/2,,3,,3,,
{4}4,5,6,6,
{8}7/8,7/8,7/8,,6,,5,,
{4}4,3,2,1,
{8}7/8,7/8,7/8,,5/6,5/6,5/6,,
{8}3/4,3/4,3/4,,1/2,1/2,1/2,,
{1}7b/8bz4[4:5],
{1},
{1},
{1},
E
&inote_4=
(190){1},
{2}4h[2:1]/5b,3h[2:1],
{2}2h[2:1],1h[2:1],
{2}8h[2:1],7h[2:1],
{2}6h[2:1],5,
{1}4v1[8:3]/5-8[8:3],
{1}1<5[2:1]*>5[2:1],
{1}7pp5[2:1],
{1}6xpp7[16:7]*qq5[16:7],
{1}5p8[8:3]/7h[1:1],
{2}8q5[8:3],6,
{1}2h[1:1]/4q1[8:3],
{2}1p4[8:3],3,
{4}2x,1x,8x,7x,
{4}6x,5x,4x,4x/5x,
{8}3,3,6,6,2,2,7,7,
{16}1,8,1,8,1,8,1,8,1,8,1,8,1-5[8:1],,,,
{8},,3x/7xh[4:1],,5,5h[4:1],,3h[4:1],
{8},1h[4:1],,8,8-4[8:1],,3x,,
{8}3/5,,2h[4:1]/6,,4,4h[4:1],,6h[4:1],
{8},8h[4:1],,1,1/8,,3/6,,
{8}7/8,,1h[4:1]/6,,3,3h[4:1],,5h[4:1],
{8},7h[4:1],,8,7/8,,4/5,,
{8}1/2,,3/8h[4:1],,6,6h[4:1],,4h[4:1],
{8},2h[4:1],,1,1-5[8:1],,4b,,
{16}3,4,3,4,3,,5,4,5,4,5,,3,4,3,4,
{1}3qq5[2:1],
{16}6,5,6,5,6,,4,5,4,5,4,,6,5,6,5,
{1}6pp1[2:1],
{16}2,1,2,1,2,,8,1,8,1,8,,2,1,2,1,
{1}2pp8[2:1],
{16}7,8,7,8,7,,1,8,1,8,1,,7,8,7,8,
{4}7-4[8:1],,3xh[8:1]/5xh[8:1],4h[8:1]/6h[8:1],
{1}C1f/B3/B6,
{2}E8,E7,
{2}E6,E5,
{2}E4,E3,
{4}B8,B7,B6,B5,
{4}B4,B3,B2,1x/8x,
{12}7x,8x,7x,2x,1x,2x,7x,8x,7x,2x,1x,2x,
{4}8w4[4:1],,,2b/6b,
{8}7h[4:1],,8,1/6h[4:1],,5,4/7h[4:1],,
{8}8,,5/6,,4,3,2,1,
{1}8V63[8:3]*V64[8:3],
{1}4V27[8:3]*V28[8:3],
{8}6h[4:1],,5,4/7h[4:1],,8,1/6h[4:1],,
{8}5,,7/8,,1,2,3,4,
{1}5pp1[2:1]*qq1[2:1],
{1}1xpp4[2:1]*qq6[2:1],
{8}3h[4:1],,4,2h[4:1]/5,,1,3h[4:1]/8,,
{8}4,,1/2,,8,7,6,5,
{1}4V27[8:3]*V28[8:3],
{1}8V63[8:3]*V64[8:3],
{8}2h[4:1],,1,3h[4:1]/8,,4,2h[4:1]/5,,
{8}1,,3/4,,5,6,7,8,
{1}1pp4[2:1]*qq6[2:1],
{1}C1hf[1:1],
{1},
{1}E3/E7,
{2}E6,E5,
{2}E4,E3,
{2}B2/E2,E1,
{2}B7/E8,E7,
{2}E4/E6,E3/E7,
{2}E2/E8,1x/8x,
{4}7,7h[4:3],E7,,
{4}5,5h[4:3],E5,,
{4}3,3h[4:3],E3,,
{4}1,2/8,3/7,,
{1}C1,
{1},
{1}3>6[4:3],
{1}5w1[8:3],
{16}3b/7b-3[8:1],,,,8,,,,2V48[4:1],,,4,,,6,,
{16}6-2[8:1],,,,5,,,,3V15[4:1],,,1,,,7,,
{16}7-3[8:1],,,,8,,,,2V41[4:1],,,4,,,6,,
{16}7x,,8xh[16:3],,,6h[16:3],,,4h[16:3],,,2h[16:3],,,1,,
{8}1/2,,7/8,1/6,,3/4,2/5,,
{16}3/7,,3/7,,2,1,,1,3,,7,8,,8,6,,
{16}2h[16:3],,,1,,,3/8,,7h[16:3],,,8,,,1/6,,
{4}1>7[8:3]/6,C1f/B8,,,
{8}6-1[8:1],,2h[4:1],,4,4-8[8:1],,1>4[8:1],
{8},7,7h[4:1],,5,5,4/6,,
{8}3-8[8:1],,7h[4:1],,5,5-1[8:1],,8<5[8:1],
{8},2,2V46[16:3],,7b,,,,
{8}1/8,,8,7,6-1[8:1],5-2[8:1],,,
{8},,1x,2,3-8[8:1],4-7[8:1],,,
{16}1b,,,,2/7,,2/7,,3/6,,3/6,,4,5,4,5,
{4}4xh[8:1],3xh[8:1]/5xh[8:1],2xh[8:1]/6xh[8:1],1b/7b,
{16}2-6[8:1]/6,,,,1,,,,7V51[4:1],,,5,,,3,,
{16}3-7[8:1],,,,4,,,,6V84[4:1],,,8,,,2,,
{16}2-6[8:1],,,,1,,,,7V58[4:1],,,5,,,3,,
{16}2x,,1xh[16:3],,,3h[16:3],,,5h[16:3],,,7h[16:3],,,1,,
{8}1>4[8:1],,6b,7,8<5[8:1],3,2,1>4[8:1],
{8}6x,7,8,3x,2/7,2/7,1/8,,
{8}1,2,3,4,5,6,7,8,
{8}1/8,1/8,2/7,2/7,3/6,3/6,4b/5b,,
{16}8,7,6,,1,,1,,7,6,5,,1,,1,,
{16}6,5,4,,1,,1,,2/4,,2/4,,1/5,,,,
{16}1,2,3,,8,,8,,2,3,4,,8,,8,,
{16}3,4,5,,8,,8,,5/7,,5/7,,4/8,,,,
{16}8,7,6,,1,,1,,7,6,5,,1,,1,,
{16}6,5,4,,1,,1,,2/4,,2/4,,1/5,,,,
{16}2,7,2,7,2,7,2,7,1,8,1,8,1,8,1,8,
{16}1x,2,3,4,5,6,7,8,1,2,3,4,5,6,7,8,
{1}C1f/B4/B5,
{1},
{1},
{1},
E
&inote_5=
(190){1},
{48}1b/8b,2x/7x,3xh[24:47]/6x,5x,4x<2[3:8],,,,,,,,,,,,,,,,,,,,,,,,,,,,,,,,,,,,,,,,,,,,
{1},
{1},
{2}3,3,
{1}3xV58[4:5]/7xV14[4:5],
{1},
{1}4h[2:3]/8h[1:1],
{32},,,,,,,,,,,,,,,,E1,E2,E3,E4,E5,E6,E7,E8,8x,1x,2x,3x,4x,5x,6x,7x,
{1}8xw4[4:3],
{8},,,,,,3/5,3/5,
{1}3xV15[1:1]/5xV73[1:1],
{4},,,4/5,
{4}3/4,3/4,4/5,4/5,
{4}5/6,5/6,4/5,4/5h[4:1],
{8}4,3,2/5,6,3/7,2,1/6,1/6,
{16}7,8,7,8,6,1,6,1,8,3,8,3,1,2,1,,
{8}3/4,,2b-6[8:1]/6b,,2/4,5<8[8:1],,2>5[8:1]/5,
{8},2/7-3[8:1],,7/8,1w5[8:1],,1,,
{16}3v8[8:1]/7-4[8:1],,,,3/7,,,,1/5,2/6,3/7-4[8:1],,,,2-7[8:1]/7,,
{8},2/6-2[8:1],,5/6,4-8[8:1],,4/6,,
{16}1b/7b,,1b/7b,,2b/6b,,2b/6b,,3,4,2<7[8:1],,,,2/6>3[8:1],,
{16},,2/6,,,,1/6,,7,8,7,,1/6,,1/6,,
{16}2-5[8:1]/5-1[8:1],,,,2/5,,,,4/8,3/7,2-6[8:1]/6-1[8:1],,,,2/6,,
{8},4/8,,1/5,3v8[8:1]/7-4[8:1],,3/7,,
{16}2b,1,2,1,3h[8:1],,7b,8,7,8,6h[8:1],,2b,4,2,4,
{16}1,8,1,8,5,7,5,7,2,4,3,5,2,,1/6,,
{16}7b,8,7,8,6h[8:1],,2b,1,2,1,3h[8:1],,7b,5,7,5,
{16}6,4,5,3,4,2,8,1,8,,6,5,7,,4/8,,
{16}3b,4,2,5,1h[8:1],,6b,5,7,4,8h[8:1],,2b,1,2,1,
{16}5,6,5,6,8,7,8,7,3,4,3,4,2,1,2,1,
{16}3b,4,2,5,1h[8:1],,6b,5,7,4,8h[8:1],,1b,8,1,8,
{16}4,5,4,5,2,7,2,7,3,3,4,4,5,5,6,6,
{12}C1f,,,8,,,8,,,8,,1,
{12}7,,,7,,,7,,,7,,1,
{12}6,,,6,,,6,,,6,,1,
{4}5h[2:1],2,3,4/5,
{12}3,4,3,5,5,2,6,5,6,4,4,7,
{12}2,1,2,8,8,3,7,8,7,1,1,6,
{12}2,2,4,3,3,5,4,4,6,5,5,7,
{4}C1xh[2:1],,8-4[8:1],1b/8b,
{16}3/5,,3/5,,2,4,3,,1<6[8:1]/2,,8,,4,,3,,
{16}2/5,,3,4,3,,4/5,,5/6,,7,8,6-1[8:1],,4-8[8:1],,
{8}6-4[8:1],4,6,1-6[8:1],2-5[8:1],1,2,7-4[8:1],
{8}1-5[8:1],7-1[8:1],1,7,2w6[8:1],,,,
{16}4/8,,4/8,,7,5,6,,7/8>3[8:1],,1,,6,,7,,
{16}4/8,,7,5,6,,4/5,,3/4,,2,1,3,8,4,7,
{16}5h[4:1],,,,7,4,7,4,6,3,5,2,,7,8,,
{16}6,6,,2,4,3,7,5,6,3,4,2,6,5,7,,
{16}1/8,,1/8,,2,1,3,,2/4<7[8:1],,5,,1,,2,,
{16}3/8,,2,1,3,,4/5,,5/6,,7,8,6,,1/5,,
{8}2/4,2/4,3/5,3/5,2/8,4/6,1/7,3/5,
{8}4/8,2/5,4/7,1/6,3-8[8:1]/7-4[8:1],,,,
{16}1/5,,1/5,,7,8,6,,5>2[8:1]/7,,4,,8,,7,,
{16}6,1,6,1,6,,2/5,,3/4,,2,1,3,,4/8,,
{16}5/7,,4/6,,3h[8:1],,8,2h[8:1],,7,1h[8:1],,6,8h[8:1],,5,
{16}1h[8:1],,4,2h[8:1],,4,3,,E2,E6,E4,E8,B3/E3,B7/E7,B1/E1,B5/E5,
{1}C1f,
{1},
{8}3h[4:3]/6h[4:3],,,,,,,4,
{8}4h[4:3]/6h[4:3],,,,,,,5,
{16}5/6p5[4:3],,,,,,,4,4,,,,,,,,
{16}3q4[4:3],,,,,,,5,5,,,,,,,,
{16}6h[8:3],,,,,,4,5,3h[8:3],,,,,,5,4,
{16}6h[16:7],,,,,,,4,4,,,,3/5,,,,
{8}6,5,4,3,5,6,3,4,
{8}6,5,4,3,6h[4:1],3,4,5,
{8}3h[8:3],6,5,4,3h[8:3],4,5,6,
{8}3,4,5,6,C1/7h[2:7],,,,
{1}2h[1:2],
{1},
{1},
{32}1,2,3,4,5,6,7,8,1,2,3,4,5,6,7,8,1,2,3,4,5,6,7,8,1b/5x,,,,,,,,
{16}4b/7b,,,,3-7[8:1],4,2,5,3,,6,6,8,,1/7,,
{16}2,4,3,7,5-1[8:1],6,4,7,5,,8,8,2,,3/7,,
{16}6,5,7,2,4-8[8:1],3,5,2,4,,1,1,7,,2/6,,
{16}5,4,5,,2,4,,7,5,,1/8,1/8,,2/7,2/7,,
{16}4b/6b,,3b/5b,,4b/7b,,2b/5b,,6,5,7,4,8,,3/8,,
{16}2,1,2h[8:1],,4,2h[8:1],,8,3h[8:1],,6,3h[8:1],,5,5,4,
{16}6,,7/8,7/8,,6,4,5,3,,1/2,1/2,,3/8,3/8,,
{16}C1f/B4/B5/B6/B7,,,,1,8,1,8,2,7,3,6,4,5,4,5,
{8}4>1[8:1],,4/7-3[8:1],,7/8-4[8:1],1,7/8,6,
{16}3v8[8:1]/5v8[8:1],,2,,3/5,,,,1/7,2/6,3/5,,2-6[8:1],,6,,
{8}2/7>2[8:1],,3-7[8:1]/7,,3/4-8[8:1],5,3/4,2,
{8}1-5[8:1],7-3[8:1],1,7,8bw4[8:1],,,,
{16}2/6,,,,4/5,,4/5,,4-8[8:1]/5,3,2-6[8:1],,4,,2,,
{16}7,,,,4/5,,4/5,,4/5-1[8:1],6,7-3[8:1],,5,,7,,
{16}2,2,4,4,3,3,6,6,5,5,7,7,2,2,8,8,
{4}1bw5[8:1],1b,3b-6[8:1]/7b-4[8:1],3b/7b,
{16}2b/8b,,3,7,4,6,3,5,2b,8,4,6,3b,5,1b,8,
{16}4,6,3,5,2,7,4,5,2b,1,3,7b,8,6,4b,5,
{16}2,6,1,8,3,7,5,6,3b,4,1,6b,5,8,1b,7,
{16}2,6,3b,5,4,7b,1,5,2b,8,4,6b,1,5,2b,4,
{8}3-8[8:1],,5b-1[8:1],5,4b-8[8:1]/5,4,4/7b-3[8:1],7,
{8}2b<7[8:1]/7,2,2/5b-3[8:1]*v2[8:1],6,5b-7[8:1]*v8[8:1],,5b,,
{16}1b,2,3,4,6,7,8,1,4b,3,2,1,7,6,5,4,
{48}1b,,,2,,,3,,,4,,,1b/5,,,8,,,7,,,6,,,1b/5,,,2,,,3,,,4,,,7b,,8,,7,,8,,7,,8,,
{8}7b-3[8:1],,1-5[8:1]/7,,1/8-4[8:1],,3/8,2,
{8}1-4[8:1]/6-3[8:1],,1-6[8:1]/6<1[8:1],,1/6,,3/4,2/5,
{8}1b-5[8:1]/6b-4[8:1],,1<6[8:1]*>4[8:1]/6,,1,,3/7,3/7,
{16}2p5[8:1]/8q5[8:1],,,,2/8,,,,4,6,4,6,3,5,3,5,
{32}1-5[8:1],,,,8-4[8:1],,,,1b>4[8:1],,,,8b<5[8:1],,,,1b,,,,8b,,,,1b,2x,3x,4x,8b,7x,6x,5x,
{32}2-6[8:1],,,,1-5[8:1],,,,2b>5[8:1],,,,1b<6[8:1],,,,2b,,,,1b,,,,2b,3x,4x,5x,1b,8x,7x,6x,
{16}3b,5,3,5,4b,6,4,7,3b,8,3,7,2b,6,1,5,
{32}8b,,4,,8b,,4,,8b,,4,,8b,,4,,1x/5x,2x/6x,3x/7x,4x/8x,1b,2x,3x,4x,1x-5[8:1]/5b,2x/6x,3x/7x,4x/8x,1b,2x,3x,4x,
{1}B1/C1f/B5/1xq3[4:9]/5bq7[4:9],
{1},
{1},
{1},
{1},
E
