&title=躯樹の墓守
&wholebpm=211
&artist=隣の庭は青い(庭師+Aoi)
&des=超七味星人
&shortid=11311
&genre=maimai
&cabinet=DX
&version=maimai DX UNiVERSE
&chartconverter=Neskol
&lv_2=6
&des_2=
&lv_3=9+
&des_3=
&lv_4=13
&des_4=はっぴー
&lv_5=14+
&des_5=超七味星人
&des_6=
&inote_2=
(211){1},
{1},
{1},
{1},
{1}1h[1:1],
{1},
{1}1,
{1}1,
{1}8h[1:1],
{1},
{1}8,
{1}1x/8x,
{2}1,1,
{1}2,
{2}3,3,
{1}4,
{2}5,5,
{1}6,
{2}7,7,
{1}1/8,
{1}1h[1:1]/8h[1:1],
{1},
{2}8,8,
{2}7,7,
{1}6,
{1}5/6,
{2}4,4,
{2}3,3,
{1}2,
{1}1/2,
{2}1,1,
{2}2,2,
{2}3,3,
{2}4/5,4-1[4:3]/5-8[4:3],
{1},
{1},
{1}1h[1:1]/8h[1:1],
{2},1x/8x,
{1}1-4[4:3],
{1},
{1}5,
{1}6,
{1}7-3[4:3],
{1},
{1}2,
{1}1/8,
{1}C1xh[4:9],
{1},
{1},
{4},,,1x/8x,
{8},,,,,7xh[8:5],,,
{1},
{8},6xh[8:5],,,,,,,
{2},4b/5b,
{2},B3/B4,
{2},B1/B2,
{2},B7/B8,
{2},B5/B6,
{2},B3/B4,
{2},C1xh[8:7],
{1},
{1},
{4},,1b,1,
{4}1,,2,2,
{4}2,,3,3,
{2}3,4/5,
{4}4/5,,6,6,
{4}6,,7,7,
{4}7,,8,8,
{2}8,1/8,
{4}1x/8x,,8,8,
{4}8,,7,7,
{4}7,,6,6,
{2}6,4/5,
{4}4/5,,4,4,
{4}4,,3,3,
{4}3,,2,2,
{2}2,1x/8x,
{4},,1,1,
{4}2,2,1/2,,
{4}1/2,,3,3,
{4}4,4,4/5,,
{4}4/5,,5,5,
{4}6,6,5/6,,
{4}5/6,,7,7,
{4}8,8,1/8,,
{4}2/7,,8,8,
{4}7,7,6,6,
{4}5/6,,4,4,
{4}3,3,2,2,
{4}1/2,,8,8,
{4}7/8,,1,1,
{2}1/2,8-5[4:3],
{1},
{2},4-1[4:3],
{1},
{1},
{2},1h[1:1]/8h[1:1],
{1},
{4},,1b,1,
{4}2,2,3,3,
{4}4,4,5,5,
{4}6,6,7,7,
{4}8,8,1,1,
{4}1/2,,8,8,
{2}7/8,7h[2:1]/8h[2:1],
{2},7/8,
{2}1,1h[2:1]/2h[2:1],
{2},1/2,
{4}1/2,,8,8,
{4}7,7,6,6,
{4}5,5,4/5,4/5,
{4}3/6,3/6,2/7,2/7,
{4}1/8,1/8,2b/7b,,
{1},
{1},
{1},
E
&inote_3=
(211){1},
{1},
{1}4/5,
{2},4/5,
{2}6h[2:1],5,
{4}3,3,3/4,,
{2}3h[2:1],4,
{4}6,6,5/6,,
{2}6h[2:1],5,
{4}3,3,3/4,,
{1}2h[2:1]/5h[2:1],
{1}C1f,
{8}7,,7/8,,7,7,7,,
{8}6,,5/6,,4,4,4,,
{8}3,,3/4,,2,2,2,,
{4}1,1/8,2/7,,
{8}6,,5/6,,6,6,6,,
{8}7,,7/8,,1,1,1,,
{8}2,,1/2,,8,8,8,,
{4}1/8,2/7,3/6,4z8[8:7]/5,
{1},
{4},,7,7,
{4}5/6,5/6,4/7,,
{4}3xh[4:1],4,2/5,,
{4}6,6,5,5,
{4}4,4,3/5,,
{4}2h[4:1],1,3/8,,
{4}7,7,1,1,
{8}7x/8x,,,1x/2x,,,1/8,,
{1}1>4[2:1]/8,
{4}6xh[4:1],5,4/7,,
{4}3h[4:1],4,2/5,,
{4}6,6,5,5,
{4}4,3,2,1b/8b,
{8},,,3x/6x,,3/6,,5,
{8},4,,3>6[8:5],,,,,
{4},,,5,
{8}4,,4/5,,3x/6x,3x/6x,,,
{1}E5,
{1}E6,
{1}E7,
{1}E8,
{1}E1,
{1}E2,
{1}E3,
{1}E4,
{1}C1xh[1:3],
{1},
{1},
{4},,,1x/8x,
{8},,,,,5x/7x,,,
{4},4x/5x,,,
{8},2x/4x,,,,,1x/8x,,
{2},7h[2:1],
{2}8h[2:1],1h[2:1],
{2}2,3h[2:1],
{2}4h[2:1],5h[2:1],
{4}6,,7,8,
{4}1,2,3,4,
{16}3/5,,,,,,,,4,,,4,,,4,,
{16},5,,,5,,4x/5x,,,,,,,,,,
{2},C1f,
{4},,7h[4:1],8,
{8}6,6,5/6,,3h[4:1],,4,,
{8}2,2,1/2,,7,,7/8,,
{8}6,,5/6,,3,3,3/4,,
{8}2,2,1/8,,7,,6,,
{4}5/7,4/6,3,3,
{8}2/4,,3/5,,6,6,6,,
{8}3,3,3,,4>1[8:3]/5<8[8:3],,,,
{8},,,,2/7,,5/6,5/6,
{8}5/6,,4/7,,3,,3/4,3/4,
{4}3/4,2/5,1,8,
{8}7,,5/6,5/6,,3/4,3/4,,
{4}2/5,1,7x-3[8:3]/8x-4[8:3],,
{2},1x-5[8:3]/2x-6[8:3],
{8},,,,7xh[8:3],,,6xh[8:3],
{4},5xs1[8:5],,,
{4},,1/2,3/8,
{4}4/7,,7/8,1/6,
{4}2/5,,1/2,1/2,
{4}3/4,3/4,5/6,5/6,
{4}7/8,7/8,1-6[8:3]/2-5[8:3],,
{2},7-4[8:3]/8-3[8:3],
{2},2h[4:1]/5h[4:1],
{4}4h[4:1]/7h[4:1],,1/8,1/8,
{4}2/7,2-4[4:1]/7-5[4:1],,,
{4}6,5/6,3,3/4,
{4}2/5,,2,1/2,
{4}7,7/8,6xV82[2:1],,
{4},,3,3/4,
{4}6,5/6,7,7/8,
{4}2,1/2,3qq6[8:9],,
{1},
{4},,7,6,
{8}5,,4,,3/6,3/6,3/6,,
{1}5s1[4:5]*z1[4:5],
{1},
{1},
{2},1b>7[4:3]/8b,
{4},,8,8,
{8}1/2,,3,,4/5,4/5,4/5,,
{8}3/6,,5/7,,1/8,1/8,1/8,,
{4}2/4,3/5,4x-1[8:3]/6x-1[8:3],,
{8},,,,2/8,2/8,2/8,,
{4}3/7,4/6,5<8[8:3],,
{2}1,1>4[8:3],
{4}5,,6,5/6,
{4}3,3/4,5,4/5,
{4}3/6,2/7,1b/8b,,
{8}2,2,1/2,,7/8,,5/6,,
{8}4/7,4/7,,,5/7,5/7,5/7,,
{8}2/4,2/4,2/4,,1,2,3,4,
{8}5,6,7,8,1b>8[4:11],,,,
{1},
{1},
{1},
{1},
{1},
E
&inote_4=
(211){1},
{1},
{1}C1,
{2},C1,
{1}8<2[4:5],
{2}E6,E5,
{1}8<2[4:5],
{2}E6,E5,
{1}8<2[4:5],
{2}E6,E5,
{1}8h[1:1],
{2}1>5[4:1],6h[2:1],
{8}5,5,,4,3h[4:1]/5,,4,4,
{8},2/5,,3/6,,4/7,4/7h[4:1],,
{16}5,,5,,,,1,,2/8,,,3/7,,,4/6p4[8:5],,
{8},3,3h[4:3],,,,,,
{8}4x,4x,,5,4/6h[4:1],,5,5,
{8},4/7,,3/6,,2/5,2h[4:1]/5,,
{16}4,,4,,,,8,,1/7,,,2/6,,,3/5,,
{8},5/6,5/6,,7/8,,1-6[8:1]/2-5[8:1],,
{8},,,E3/E4,,,E6/E7,,
{8}2,2,8,8,1-5[8:1],,6x,,
{8}7h[4:1],,5,5,,4/5,,2/4,
{16},,1,,1,,8h[4:1],,,,E2,E1,E8,E7,E6,E5,
{8}E4,,1/7,1/7,,8,8,2h[4:1],
{8},4,3-6[8:1]/5,,7-4[8:1],,3,,
{8}2h[4:1],,4,4,,3/5,3/5,,
{8}4,4,8,8<4[4:1],,3,2,1,
{16}1x,,,2x/4x,,,4x/5x,,,5x/7x,,,8x,,8x,,
{16}1x,,,,2/7,,,,4,5,4,5,3x/6x,,,,
{8}2h[4:1],,4,4,,4/5,3/6,2h[4:1]/7h[4:1],
{16},,,,1,,1h[4:1],,,,E8,E1,E2,E3,E4,E5,
{8}E6,,2/8,2/8,,1,1,7h[4:1],
{8},5,4/6-3[8:1],,2-5[8:1],,7h[8:5],,
{8},,,5b,,4/5,4/5,,
{8}7,7,1,1>5[4:1],,6,7,8,
{16}8-4[8:1],,,3,,,1,,1-5[8:1],,,6,,,8h[4:1],,
{8},1,1,,3b/6b,3b/6b,,,
{8}2h[8:15]/7,,,,4,4,,6,
{8},3,,7,,1,,8,
{2}8h[2:1],6h[2:1],
{4}5h[4:1],3,2/6,,
{8}3/7h[8:15],,,,5,5,,3,
{8},6,,2,,8,,1,
{2}1h[2:1],3h[2:1],
{4}4h[4:1],5,3/6h[4:1],4>5[1:3],
{1}C1f,
{1},
{1},
{4},,,4-8[8:1]/5-1[8:1],
{8},,,,,4x/7x,4/7,4/7,
{8}4/7,,3x/6x,3/6,3/6,3/6,,,
{16},,2x/5x,,2/5,,2/5,,2/5,,,,4/6,,,3/7,
{8},2h[4:1]/8h[4:1],,,1xh[1:2],,4,,
{4},4,,4,
{4}6x,2x,8xh[4:5],5,
{4},5,,5,
{16}4,,,3/5,,,2/6,,1,,1,,8,,8,,
{8}2,2,4,4,5,5,7,7,
{16}3,,3,,6h[4:1],,,,5,,,7/8,,,1/2,,
{16},3/4,,,4/5,,3h[8:9]/6h[8:9],,,,,,,,,,
{4},,,E3/E7,
{8}4-2[8:1]/5-7[8:1],,,,1x/8x,1x/8x,2x/7xh[2:1],,
{16}E5,E6,E7,E8,E1,,,,3/5,,3/5,,2xh[2:1]/6x,,,,
{16}E5,E4,E3,E2,E1,,,,6,,6,,4,,4,,
{8}8,8,2-5[8:1],,7-4[8:1],,1-5[8:1],,
{8}8h[4:1],,2,,7,7,4/6,3,
{8}3,4/5,6,6,3/5,2,2,3/5,
{8}6,6,4/5,4/5,3,3h[8:1],1,1h[8:1],
{8}8,8h[8:1],6,6h[8:1],4-8[8:1],,,,
{8}1b/7b,,2b/6b,,4/5,3/6,2xh[2:1]/7x,,
{16}E5,E4,E3,E2,E1,,,,4/6,,4/6,,3x/7xh[2:1],,,,
{16}E5,E6,E7,E8,E1,,,,3,,3,,5,,5,,
{8}1,1,7-4[8:1],,2-5[8:1],,8-4[8:1],,
{8}1h[4:1],,7,,2/6,3,4,5h[4:1]/7h[4:1],
{8},,5/7,4,3/5,6,5/7,4/8h[4:1],
{16},,5,,4/7,,,,3x/5x,,,1x/2x,,,7x/8x,,
{16},4x/6x,,,3x,,3,,5,,5,,2-6[8:1],,2,,
{16}7,,,,5/8,,,,7h[16:3],,,6h[16:3],,,5h[16:3],,
{16},4h[16:3],,,3,,,,1>4[8:1]/2-5[8:1],,,,,,,,
{8},4x/6x,4x/6x,,3,3h[4:1],5,5,
{8}6h[8:3],4,4,3h[8:3],8,8,7h[4:1],1,
{8}1,2,3/5,,4/6,,2x/8x,3x/7x,
{16}4x/6x,,,,3/7,,,,1,8,1,8,1-5[8:1],,,,
{12}7,,,7,,,6x,5x,4x,6x,5x,4x,
{16}6x,,6,,3,,3,,5h[16:3],,,4,,,3/6,,
{4}3/6,4/7p2[8:1],,1b,
{8}2,2,3/4,3/4,,5/6,,7<4[4:1]/8p3[4:1],
{8},,,,2,2,8,8,
{16},,5/6,,,,4/7,,,,4/7,,,3/6,,,
{8}2>5[8:1]/5-8[8:1],,,,1,1,2/8,2/8,
{8}3/7,3/7,4/6,,8,8,1/7,1/7,
{8}2/6,2/6,3>5[2:3]/5,,C1f,,,,
{1},
{4},,3h[8:1]/5h[8:1],4h[8:1]/6h[8:1],
{16}3h[8:1]/5h[8:1],,,,5h[8:1]/7h[8:1],,,,4x,3x,2x,1x,8x,7x,6x,5x,
{1}4xh[2:3],
{2},8-4[8:11],
{1},
{8}1-5[8:1],,,,6,6,5,7-3[8:1],
{8},1-4[8:1],,8-5[8:1],,3,3,2/4,
{4}2/4,1/5,6>3[8:1],1,
{4}2<7[8:1],5,6-1[8:1],2-5[8:1],
{8}7-4[8:1],,3-8[8:1],,6h[4:1],,5,5,
{8},7-4[8:1]/8-3[8:1],,,,2xq3[8:5]/5x,,C1f,
{8},,,,7h[4:1],,8,8,
{8},5/6,,3>8[8:1],,5,5,6h[8:5],
{16},,E5,E6,E7,E8,E1,E2,E3,,,,4x/5x,,4x/5x,,
{8}3,3,6,6h[4:1],,8,8h[4:1],,
{4}1h[4:1],3,5<8[8:1],,
{8}3,3,8,8-4[8:1],,2-5[8:1],,7-3[8:1],
{16},,,,,,1,8,1,,6,5,6,5,6,,
{16},,3/4,,,,2/5,,,,4/7,,,,8x,7x,
{16}6x,5x,4x,3x,2x>1[1:4],1x,8x,,C1f,,,,,,,,
{1},
{1},
{1},
{1},
{1},
{1},
E
&inote_5=
(211){1},
{1},
(211){1}4h[8:1]/5h[8:1],
{2},4/5,
{12}4/6h[4:1],,,5,,,4/5,,,3,,3,
{12}4,,4,2,,,1/5h[4:1],,,2,,,
{12}3h[4:1]/4,,,4,,,4/5,,,6,,6,
{24}5,,,,5,,7,,,,,,5/6,,,7x,,,,,,,,,
{12}4/6h[4:1],,,5,,,4/5,,,3,,3,
{12}4,,4,2,,,1/5h[4:1],,,2>7[4:3],,,
{1}C1xh[1:1],
{2}8,2/7,
(211){8}6h[4:1]/8,,1h[8:1],8,2/8,,2,2-4[8:1]/4,
{8},5,5-8[8:1],,4,,5h[4:1],,
{16}7,,4/6,,3,,5,,2h[8:1]/4h[8:1],,,2h[8:1]/4h[8:1],,,3/5h[4:1],,
{8},4,4/5-8[8:1],,5/6h[2:1],,,,
{8}1,2,7,6,1h[8:3]/5,,2,2h[16:7],
{8},3,3h[8:1],,1/4,5/8h[4:1],,1,
{16}1/7,,,,7,8,7,8,1h[8:1]/7h[8:1],,,2h[8:1]/6h[8:1],,,3/5,,
{16}2,4,2,4,1,3,1,3,8,2,8,2,8-4[4:5],,,,
{8}3,,,5,,,3,,
{8}6,6,6,,4/5,,2-5[8:1]/7,,
(211){8}6b,,4/7,4/7h[4:1],,5<8[8:1],4,4,
{8},2,2h[8:1],1>4[8:1],,8,8,,
{8}5/7,6,5,4/6,,3>1[8:1],4,5h[8:3],
{8},8,8-5[8:1],,1,,2,,
{8}3/6-2[8:1],,4,4-1[8:1],,8,8,,
{8}2-5[8:1],7-4[8:1],2,7,,2,2,,
{16}1b-4[16:1],,,5b-8[16:1],,,3b-6[16:1],,,7b-2[16:1],,,4,,4,,
{16}8,,8,,1/7h[4:3],,,,2,3,4,5,4,3,2,1,
{8}8b<5[8:1],,2,2h[4:1],,4>1[8:1],5,5,
{8},7,7h[8:1],8<5[8:1],,1,1,,
{8}2/4,3,4,3/5,,6-2[8:1],5,4,
{16},,4-1[8:1],,5,,6,,,,8,1,2b/7b,,,,
{8},,,4/5,,2-6[8:1]/7,,3,
{8}4,5-1[8:1],6,7,8-4[8:1],1x,2,3-7[8:1],
{8}4x,5,6,7x,8,1/8,2/7,3/6,
{8}4-1[8:1]/5-8[8:1],,,,2b/7b,2b/7b,,,
(211){24}4/5h[4:1],,,,,,,,,,,,E5/6,E4,E3,,,,,,,6h[8:3],,,
{24},,,5,,,5,,,,,,E6/7,E5,E4,,,,,,,,,,
{24}3/5h[4:1],,,,,,4,,,,,,E5/6,E4,E3,,,,,,,6h[8:3],,,
{24},,,5,,,5,,,,,,E6/7,E5,E4,,,,,,,,,,
{24}4h[4:1]/6,,,,,,5,,,,,,E5/3,E6,E7,,,,,,,3h[8:3],,,
{24},,,4,,,4,,,,,,E4/2,E5,E6,,,,,,,,,,
{24}4h[4:1]/6,,,,,,5,,,,,,E5/3,E6,E7,,,,,,,3/4,,,
{24},,,3/4,,,,,,4/5,,,,,,3/6,5,4,3bv6[2:7]/6bv3[2:7],,,,,,
(211){1},
{1},
{1},
{4},,,3x/6x,
{16},,,,7,8,7,8,(211)7,,1b/6,,2/5b,,3b/6,,
{8}4/5b,,3/8b,4b/7,3/6b,4b/5,,,
{16},,4b/7,,3/8b,,2b/7,,1/8b,,,,5b/7,,,2/4b,
{8},1/8b,1b>8[2:1]/8<1[2:1],,(211)1b/8b,,,,
{8},2-5[8:1],,7-3[8:1],,4-8[8:1],,6<3[8:3],
{8},1,,,5,5,4,3-8[8:1],
{8},7-4[8:1],,1-5[8:1],,6q8[8:3],,1,
{8}2,3,4,4,(211)7,7,4,4,
{16}6,,6,5,,3,4,,2/5-1[8:1],,3/6,,4,,,,
{16}2/8,,3/7,,4/6,,,,5h[8:1]/7h[8:1],,,2h[8:1]/4h[8:1],,,6h[8:1]/8h[8:1],,
{16},1h[8:1]/3h[8:1],,,4b/5b,,4b/5bw1[1.2796208530805728##0.2132701421800931],,(26.375),,(211),,,,,,
{24},,,1/8h[4:1],,,,,,(211)7,6,5,4,3,2,1/7b-3[8:1],,,,,,8,,,
{16}8,,1/4,5,6,7,2/8,3,4,5,6/8-4[8:1],,8,,2,,
{16}2,,3/5,6,7,8,1/2,3,4,5,7-4[8:1],,7,,8,,
{16}1,,2-6[8:1],,2,,1,,8h[8:1],,5,4,3,2,1/8,7,
{16}6,5,4/8,7,6,5,1,8,7,6,2/5,,3,4,3,4,
{24}3,,,2/5,,,3/6,,,4/7,,,6,5,6,5,,,4,,,8-4[8:1],,,
{16}3-8[8:1],,8,,3,,6,,6h[4:1],,,,8,7,1,6,
{16}2,5,3,4,2<4[8:3],1,3,8,2,,,,,,,,
{8},1/7b-4[8:1],,3b,,(211)2-4[8:1]/8,,2-6[8:1]/6,
{16},,2,,5,4,3,2,1,8,1/7-5[8:1],,1,,2/7-3[8:1],,
{16}2,,7,,4,5,6,7,8,1,2/5,,6,,3/7,,
{16}3h[8:3],,6-1[8:1],5,4-8[8:1],,6,,4,,,,7,8,7,,
{48}1h[4:1]/6,,,,,,,,,,,,8,,,1,,,2/7,,,,,,,,,,,,3h[24:7]/5,,4,,,,2,,1,,8,,7,,6,,,,
{24}2b/4<2[16:3],,,,,,3,,,3,,,,,,4/6h[24:7],5,,7,8,1,2,3,,
{16}5>7[16:3]/7b,,,,6,,6,,,,1h[8:1]/7h[8:1],,,2h[8:1]/4h[8:1],,,
{48}5h[8:1]/7h[8:1],,,,,,,,,4h[8:1]/8h[8:1],,,,,,,,,3/7,,2/6,,1/5,,,,,,,,2/6,,,,,,2/6,,,,,,4/8,,,,,,
{16}4/8,,1,8,1,8,2b/7b,,,,(211)2h[8:1]/4h[8:1],,,3h[8:1]/4h[8:1],,,
{16}5h[8:1]/7h[8:1],,,5h[8:1]/6h[8:1],,,4,,3v6[8:1]/5v2[8:1],,2V48[16:3]/6V48[16:3],,,,,,
{16},,,,1/7,2/6,3/5,,,,8-4[8:1],,4-7[8:1],,3/8,,
{8},1-5[8:1],8,1,8-3[8:1],4,8,4-8[8:1],
{8}5,4,6,1-6[8:1],6<1[8:1],1b>4[8:1],,5,
{16}6,,7-3[8:1],,,,5h[4:1]/7,,,,2,4,2,4,1-5[8:1],,
{24},,,1/7,,,,,,3,,,2/4,,,1,,7,,5,,1,,3,
{48},,5,,,,1,,,2,,,3,,,4,,,2,,,3,,,4,,,5,,,1h[8:1],,,,,,6,,,2h[8:1],,,,,,7,,,
{32}3h[8:1],,,,8,,,,1/4,,,,1/3,,,,1/2,,,,(211)1p4[8:1]*q6[8:1]/2,3/8,4/7,5/6,,,,,,,,,
{8},3/7,3/7V51[8:3],,2-4[8:1],,2-6[8:1],,
{8}8>7[4:1],,5/8,,,4,3/7,2/6,
{16}1v4[8:1]/5-8[8:1],,,,1/5,,,,3-6[16:1]/7-2[16:1],,,,3b/7b,,,4b/8b,
{8},2b/6b,,1/8,,7<4[8:1],5,7-3[8:1],
{8}1,7,5-2[8:1]*-8[8:1],,5,,3/7,,
{16}2,1,2-7[8:1],,,,4>5[4:3],,,,5b,,,,4,,
{16}4,,3,,3,,3,,3,4,2,,1,,1,,
{48}7,,,8,,,7,,,,,,5/6,,,,,,4/5,,,,,,3/4,,,,,,2,,3,,4,,5,,,,,,7,,6,,5,,
{48}4,,,,,,1/7h[8:1],,2,,3,,4,,,,,,2h[8:1]/8,,7,,6,,5,,,,,,1,,,6,,,1,,,7,,,1z5[4:5],,8,,1,,
{24}8,1,8,1bs5[1:1],,,,,,,,,,,,,,,,,,,,,
{8},,,,,(211),,,
{1},
{32},,,,,,,,,,,,,,,,1/5,2/6,3/7,4/8,(211)1h[8:7]/5b,6,7,8,,2,3,4,5,6,7,8,
{32},2,3,4,5,6,7,8,,2,3,4,5,6,7,8,,2,3,4,C1f/5,,,,,,,,,,,,
{8},1/2,1/8,7/8V25[4:1],,5V31[16:3],6,7,
{8}8h[4:1],,1,1V74[4:1],,4V68[16:3],3,2,
{8}1h[4:1],,8,1/7,2/6,3/5,4,5/6,
{8}6/7-3[8:1],,7/8,1,2-5[8:1]*-7[8:1],,2<3[4:1],,
{8}C1f,,,8-4[8:1],,(211)1/8,,5<1[4:1],
{8},1p3[4:1]/5,2,3,4h[8:3],,2,2<7[8:1],
{8},2/3,,1-5[8:1],,1/8,,4>8[4:1],
{8},4/8q6[4:1],7,6,5h[8:3],,7,7>2[8:1],
{8},6/7,,8<2[4:1],,2b,,,
{8},1/7,5/7,3/5,1/3-7[8:1],,3/4-1[8:1],,
{16}4>6[4:1]/5,,,,2/4,,,,3,4,5-8[8:1],,,,4,3,
{48}2-5[8:1],,,,,,,,,,,,2/5,,,,,,,,,,,,7,,,3,,,8,,,4,,,1,,,5,,,2,,6,,2,,
{96}6,,,,2,,,,6,,,,1/5,,,,4/8,,,,3/7,,,,2/6,,,,1/5,,,,4/8,,,,3b-7[16:1]/7,,,2,,,1,,,8,,,7,,,6,,,5,,,4,,,C1f/1b>8[8:29]/3b<8[8:29],,,,,,,,,,,,,,,,,,,,,,,,,,,,,,,,,,,,
{1},
{1},
{1},
{1},
{1},
{1},
E
