&title=華の集落、秋のお届け
&wholebpm=165
&artist=Umiai
&des=あまくちジンジャー
&shortid=11301
&genre=maimai
&cabinet=DX
&version=maimai DX UNiVERSE
&chartconverter=Neskol
&lv_2=3
&des_2=
&lv_3=7+
&des_3=
&lv_4=11+
&des_4=翠楼屋
&lv_5=13+
&des_5=あまくちジンジャー
&des_6=
&inote_2=
(165){1},
{1},
{1},
{1},
{1},
{1}1,
{1}1,
{1}8,
{1}1x/8x,
{2}1,1,
{1}2,
{2}2,2,
{1}3x,
{2}4,4,
{1}5,
{2}5,5,
{1}4x/5x,
{1}5h[1:1],
{1},
{1}6h[1:1],
{1},
{1}7h[1:1],
{1},
{1}1h[1:1]/8h[1:1],
{1},
{1}8-5[4:3],
{1},
{1}1-4[4:3],
{1},
{1}8h[1:1],
{1},
{2}1/8,1/8,
{1}1b/8b,
{2}1,1,
{2}2,2,
{2}3,3,
{1}4x/5x,
{2}5,5,
{2}6,6,
{2}7,7,
{1}1x/8x,
{2}8,8,
{2}7,7,
{2}6,6,
{2}5/6,5/6,
{2}4,4,
{2}3,3,
{2}2,2,
{1}1b/8b,
{1}1h[1:1]/2h[1:1],
{1},
{1}3h[1:1]/4h[1:1],
{1},
{1}5h[1:1]/6h[1:1],
{1},
{1}7h[1:1]/8h[1:1],
{1},
{4}1b,1,1,,
{2}2,2,
{4}3,3,3,,
{2}4/5,4/5,
{4}5,5,5,,
{2}6,6,
{4}7,7,7,,
{1}1x/8x,
{1}8-4[4:3],
{1},
{1}1-5[4:3],
{1},
{2}8,8,
{2}7,7,
{2}6,6,
{1}4x/5x,
{1}4h[1:1]/5h[1:1],
{1},
{1}B4/B5,
{1}B3/B6,
{1}B2/B7,
{1}B1/B8,
{1}C1hf[1:1],
{1},
{4}1x,1,1,,
{4}2,2,2,,
{4}3,3,3,,
{2}4/5,4/5,
{4}5,5,5,,
{4}6,6,6,,
{4}7,7,7,,
{4}1/8,1/8,1x/8x,,
{1}1-4[4:3]/8-5[4:3],
{1},
{1}E5,
{1}C1xh[8:7],
{1},
{1},
{1},
E
&inote_3=
(165){1},
{1}2-5[2:1],
{4}6,6,5/6,,
{1}6-1[2:1],
{4}2,2,1/8,,
{1}2-5[2:1],
{4}6,6,5/6,,
{1}7-4[2:1],
{4}3,4/5,3b/6b,,
{1}7p3[2:1],
{1}2q6[2:1],
{1}7<4[2:1],
{4}3,3,3/4,,
{1}5<8[2:1],
{1}1>4[2:1],
{1}5<8[2:1],
{4}1,1,2/7,,
{1}6h[1:1],
{1}5h[1:1],
{1}4h[1:1],
{2}3,3/4,
{1}2h[1:1],
{1}1h[1:1],
{1}8h[1:1],
{2}7,7/8,
{4}6,6,5/6,,
{4}3,3,3/4,,
{4}6,6,5/6,,
{4}4,4,3/5,,
{1}2>5[2:1],
{1}6<1[2:1],
{4}2,2,1,1,
{1}1>4[2:1]/8<5[2:1],
{8}6b,6,6,,5/6,,4/7,,
{8}3,3,3,,3/4,,2/5,,
{4}1,8,7,6,
{4}4/5,4/5,3/6,,
{8}6,,5/7,,6,6,6,,
{8}3,,2/4,,3,3,3,,
{4}4/5,6,7,8,
{8}1,1,1,,2b/8b,,,,
{8}3,3,3,,3/4,,2/5,,
{8}6,6,6,,5/6,,4/7,,
{4}8,1,2,3,
{4}4/5,4/5,3/6,,
{8}3,,2/4,,3,3,3,,
{8}6,,5/7,,6,6,6,,
{4}4/5,3/6,2/7,1-4[2:1]/8-5[2:1],
{1},
{2}E7,B6,
{1}B5/E5,
{2}E3,B3,
{1}B4/E5,
{2}E7,E6,
{2}E5,E4,
{2}E3,E2,
{1}C1f/B3/B6,
{4}7x,7x,8,8,
{4}1,1,2/8,,
{4}3,3,4,4,
{4}5,5,4/5,,
{4}6,6,5,5,
{4}4,4,3/5,,
{4}2,2,1,1,
{1}1q5[2:1]/8,
{1}6h[1:1],
{1}5h[1:1],
{1}4h[1:1],
{2}3,2/5,
{1}1>4[2:1],
{1}5<8[2:1],
{4}1,1/8,2/7,3/6,
{1}4>1[2:1]/5<8[2:1],
{1}C1f,
{1}E5,
{1}6<1[2:1],
{1}2q6[2:1],
{1}7p3[2:1],
{4}2,2,1/8,,
{4}2,2,3,3,
{4}4/5,4/5,3/6,,
{8}7b,7,7/8,,2,2,1/2,,
{4}3,4,3/4,2/5,
{8}6,6,5/6,,3,3,3/4,,
{4}2,1,1/8,1/8,
{8}7,7,7/8,,5/6,,3/4,,
{8}2,2,1/2,,3/4,,5/6,,
{2}7h[4:1]/8h[4:1],1h[4:1]/2h[4:1],
{4}8,1/8,2/7,3/6,
{1}4bqq1[4:5]/5bpp8[4:5],
{1},
{1}1pp4[4:5]/8qq5[4:5],
{1},
{1}C1,
{1},
{1},
{1},
E
&inote_4=
(165){1},
{8}6h[8:3],,,4h[8:3],,,5h[8:3],,
{8},3h[8:3],,,4,,3/5,,
{8}6h[8:3],,,4h[8:3],,,5,,
{4}2h[8:5]/6h[8:5],,,2/6,
{8}3h[8:3]/5,,,4h[8:3],,,3,,
{8}4/6h[8:3],,,5h[8:3],,,6,,
{8}5h[8:3]/7,,,6h[8:3],,,5,,
{8}4h[4:3]/7b,,,,,8,8>5[2:1],,
{4}5x,,,2<5[2:1],
{4}5x,,,4x/8x,
{2}7-3[4:1],1-5[4:1],
{8}8b,,7,7,,5/6,5/6,,
{8}3,3,4,2h[4:1],,5,2/5,,
{8}6,6,5,7h[4:1],,4,4/7,,
{8}8,8,1,1,7,7,5,5,
{8}6x,,4/5,4/5,,2x/6x,2x/6x,,
{8}3/5,3p6[8:5]/5,,,,,,,
{4},,5,5,
{8}4/6,4/6h[8:7],,,5,,,,
{1}5>2[2:1],
{8}2/4,2/4h[8:3],,,3h[2:1],,,,
{2}4h[2:1],5h[2:1],
{8}6,5-1[8:5]/6,,,,,,,
{4}8xh[1:1],,1,1>4[2:1],
{4},,6,6<1[2:1],
{4},,3,3<6[2:1],
{4},,8,8-4[8:3],
{2},3x/5x,
{8}2x/6x,2x-5[4:1]/6x,,,8,,8,,
{8}3x/7x,3x/7-4[4:1],,,1,,1>8[1:1],,
{1},
{4}C1f,,,1x/8x,
{8}2,2,4,4,3,5,1,1,
{8}7,7,5,5,6,4/7,4/7,,
{8}2/5,2/5,1,1,7,6,3,3,
{16}2/5,,3,4,3,,2/5,,2/5,,,,4/6,,,,
{8}3,3,4,2,8,7,4,4,
{8}6,6,5,7,1,2,4,4,
{16}2/5,,,,3/6,,5,4,5,,6,,6<4[2:1],,,,
{8}5x,,,,1,1,1/5,,
{8}2,2,4,3,5,6,1,2,
{8}7,7,5,6,4,3/7,3/7,,
{8}2,2,1,3,4/7,4/7,8,8,
{16}3/8,,2,1,2,,3/8,,3/8,,,,1/7,,,,
{8}6,6,3,2,8,7,1,1,
{8}5,5,6,7,1,2,8,8,
{8}3x/7x,3x/7x,,2/6,2-5[8:1]/6-1[8:1],,,,
{1}4x/8bz4[2:1],
{2}3h[1:1],4h[2:1],
{4},3/4,E3/E5,,
{2}6h[1:1],5h[2:1],
{4},5/6,E5/E7,,
{2}2h[4:1]/4h[4:1],2h[4:1]/4h[4:1],
{4}3,3,B2/B4,,
{2}5h[4:1]/7h[4:1],5h[4:1]/7h[4:1],
{4}8,8,1,2b/5b,
{16}3/6,,3/6,,4,5,4,,6,5,6,,4/7,,4/7,,
{16}3/8,,3/8,,2,1,2,,7,8,7,,1/6,,,,
{16}2/7,,2/7,,1,8,1,,2/7,,2/7,,1/6,,1/6,,
{16}7,8,7,,2,1,2,,3/4,,2/5,,1b/6b,,,,
{16}5/6,,5/6,,7,8,7,,1/6,,2/5,,3,4,3,,
{16}4/5,,4/5,,6,5,6,,4/7,,4/7,,3/8,,,,
{16}2,1,2,,7,8,7,,2,3,2,,1p8[4:3]/4,,,,
{1}C1f,
{8}1x/7x,1x/7xh[2:3],,,,8,,8,
{8},6,,6,,5,,4,
{8}3x/5x,3xh[4:5]/5x,,,,4,,4,
{8},2,,1,,1/2,1qq5[4:3]/2h[4:1],,
{4},,,3qq7[4:3],
{4},,,5pp1[4:3],
{4},,,2,
{2}2h[4:1]/8xh[4:1],3h[4:1]/7h[4:1],
{1}4h[2:3],
{4}5h[2:1],,,1/8,
{2}2b/7b>2[2:1],3<6[2:1],
{4}7>2[2:1],,4,4,
{4}3h[1:1],,E4,E3,
{4}E2,E1,E2/E8,E3/E7,
{1}C1hf[1:1],
{8}8b,,,,1/7,1/7,1/7,,
{8}2-4[8:1],2,5-1[8:1],5,2-6[8:1],2,7,7,
{16}7/8,,6,5,6,,3,4,3,,2/5,,2/5,,,,
{8}7-5[8:1],7,4-8[8:1],4,7-3[8:1],7,2,2,
{8}4,4,3,2,1w5[8:1],,,,
{8}3x/7x,,6v1[8:1],6,2>5[8:1],2,8x,8x,
{8}7<4[8:1],7,3v8[8:1],3,6>3[8:1],6,1x,1x,
{8}2x/8x,2x/8x,,3/7,3-8[8:1]/7-4[8:1],,,,
{1}1bV36[2:1]/5bV72[2:1],
{4}4x/8x,5h[8:1]/7h[8:1],4h[8:1]/5h[8:1],2h[8:1]/4h[8:1],
{8}1h[8:1]/8h[8:1],,5h[8:1]/7h[8:1],,3h[8:1]/4h[8:1],,2/5,3/6,
{4}4h[8:1]/7h[8:1],1h[8:1]/6h[8:1],3h[8:1]/8h[8:1],4h[8:1]/6h[8:1],
{8}3h[8:1]/5h[8:1],,4h[8:1]/7h[8:1],,2q6[8:1]/6,,8b,8b,
{1},
{1},
{1},
E
&inote_5=
(165){1},
{8}6h[4:1],,E1,6h[4:1],,E2,6h[4:1],,
{8}E3,6h[4:1],,E4,6,E5,6h[4:1],,
{8}3h[4:1],,E1,3h[4:1],,E8,3h[4:1],,
{16}C1,,,,,,,,,,,,3,5,2,4,
{16}1h[4:3],,E3,B3,B4,B5,B6,E7,,,,,7h[1:1],,,,
{24}E2,B2,B3,B4,,,,,,,,,5,,,,,,5h[1:1],,,,,,
{24}E1,B1,B2,B3,,,,,,,,,4,,,,,,4h[4:1],,,,,,
{4}5pp8[16:5]*qq2[16:5],,,1-5[16:1],
{32}1x/5<4[2:1],C1f,,,,,,,,,,,,,,,,,,,,,,,8-4[16:1],,,,,,,,
{32}4>5[2:1]/8x,C1f,,,,,,,,,,,,,,,,,,,,,,,1-5[16:1],,,,,,,,
{32}1x/5<4[2:1],C1f,,,,,,,,,,,,,,,,,,,,,,,,,,,,,,,
{32}6h[8:1],,,,E2,B2,B3,E4,6,,5,,7,,4,,6,,5,,7,,,,4/8,,,,,,,,
{32}3>6[8:3]/8x,B8,C1f,B4,,,,,,,,,,,,,,,,,,,,,,,,,,,,,
{32}1x/6<3[8:3],B1,C1f,B5,,,,,,,,,,,,,,,,,,,,,,,,,,,,,
{32}3>6[8:3]/8x,B8,C1f,B4,,,,,,,,,,,,,,,,,,,,,,,,,,,,,
{16}3h[8:1],,5,5,4,,3,4,,6,5,,1w5[16:1]/7,,,,
{32}1qq3[4:5],C1f,,,,,,,,,,,,,,,,,,,,,,,,,,,,,,,
{1},
{8}5,5h[8:3],,,6h[2:1],,,,
{2}7h[2:1],8h[2:1],
{16}1,,1h[8:3],,,,2x,3x,4xh[2:1],,,,,,,,
{2}5h[2:1],4h[2:1],
{4}E2,E1,E8,E7,
{4}E6,E5,E4,E3,
{8}E2/5,,B2/6,5,E2,5,B2/6,,
{8}E2/5,5,B2/6,5,E2,5,B2/6,,
{8}E8/4,,B7/3,4,E8,4,B7/3,,
{8}E8/4,4,B7/3,4,E8,4,B7/3,,
{16}1/8,,1/8,,,,2,1,2,,4,3,4,3,4,,
{16}2/8,,1/7,,,,7,8,7,,5,6,5,6,5,6,
{16}5h[4:1],,,,7,5,6,4,5,3,4,2,8-4[16:1],1,7,,
{32}6/8b,C1f,,,,,,,,,,,,,,,,,,,,,,,3x/6x,,,,,,,,
{48}2-5[8:1],E2,B1,B8,E8,,6,,,,,,2,,,,,,6,,,6,,,4,,,,,,3,,,,,,2x/5x,,,,,,,,,,,,
{48}7-4[8:1],E8,B8,B1,E2,,3,,,,,,7,,,,,,3,,,3,,,5,,,,,,6,,,,,,2x/6x,,,,,,,,,,,,
{48}1-4[8:1],E1,B8,B7,E7,,5,,,,,,1,,,,,,5,,,5,,,3,,,,,,2,,,,,,1/7,,,,,,6,,,,,,
{16}4/5,,3,4,3,,2,,1/8,,,,3x/7x,,,,
{48}6-1[8:1],E6,B5,B4,E4,,2,,,,,,6,,,,,,2,,,2,,,8,,,,,,7,,,,,,1x/6x,,,,,,,,,,,,
{48}3-8[8:1],E4,B4,B5,E6,,7,,,,,,3,,,,,,7,,,7,,,1,,,,,,2,,,,,,3x/6x,,,,,,,,,,,,
{48}8-5[8:1],E1,B1,B2,E3,,4,,,,,,8,,,,,,4,,,4,,,6,,,,,,7,,,,,,8,,,,,,8,,,,,,
{8}1/7,2/6,3/5,2/8,3/7,4/6,3x/7x,,
{48}2-5[8:1],E2,B1,B8,E8,,6,,,,,,2,,,,,,7,,,7,,,1,,,,,,3,,,,,,4x/5x,,,,,,6,,,,,,
{48}7-4[8:1],E8,B8,B1,E2,,3,,,,,,7,,,,,,2,,,2,,,8,,,,,,7,,,,,,3x/6x,,,,,,2,,,,,,
{48}1-4[8:1],E1,B8,B7,E7,,5,,,,,,1,,,,,,5,,,5,,,3,,,,,,2,,,,,,1/7,,,,,,6,,,,,,
{16}4/5,,3,4,2,,1/6,,1/6,,,,2x/8x,,,,
{48}7-2[8:1],E7,B6,B5,E5,,3,,,,,,7,,,,,,4,,,4,,,7,E7,B6,B5,E5,,2,,,,,,1x/7x,,,,,,,,,,,,
{48}2-7[8:1],E3,B3,B4,E5,,6,,,,,,2,,,,,,5,,,5,,,2,E3,B3,B4,E5,,7,,,,,,2x/8x,,,,,,,,,,,,
{32}1b>5[8:1],,,,5b<1[8:1],,,,,,,,,,,,E2,E3,E4,E5,E6,E7,E8,E1,C1f,,,,,,,,
{16}1,8,1,8,2/7,,4,5,2,7,3,6,1b,,,,
{2}2>5[2:1],5qq2[4:3],
{4}E7,E8,E1,,
{2}6<1[2:1],1qq6[4:3],
{4}E3,E4,E5,,
{2}3<6[2:1],6qq3[4:3],
{8}E8,,E1,,E2,,1,8,
{16}2/7,,,,,,4,5,4,,3,,1/2,,,,
{4}7/8,5/6,3/4,1x/8x,
{16}4/5h[4:1],,2b,,4,5,3,5,4,5,2,5,4,5,1,5,
{16}4,5,E1,5,4,5,B1,5,4,5,B2,,3/6,,,,
{16}4h[4:1]/5,,7b,,5,4,6,4,5,4,7,4,5,4,8,4,
{16}5,4,E1,4,5,4,B8,4,5,4,B7,,3/6,,,,
{8}3h[4:1],E3,5h[4:1],E2,4h[4:1],E8,6h[4:1],E7,
{8}8h[4:1],E4,6h[4:1],E2,3h[4:1],E8,1h[4:1],E6,
{8}4h[4:1],E3,5h[4:1],E7,1h[4:1],E2,7p2[4:1],,
{16},,,,,,,,8,1,7,2,5,4,6,3,
{1}8b<2[2:3],
{1},
{1}1>7[2:3],
{1},
{8}8qq5[8:5],8,1,1,2,2,3,3,
{8}4qq1[8:5],4,5,5,6,6,7,7,
{16}8,1,7,2,6,3,5,4,6,3,7,2,8,3,6,4,
{48}5,,,,,,3/6,E3,B2,B1,E1,,5,,,,,,4,,,,,,3/6,E7,B7,B8,E1,,4,,,,,,5,,,,,,,,,,,,
{48}4x/5x,E5,B4,C1f,B1/E1/B2/E2/E3/B7/E7/B8/E8,,,,,,,,,,,,,,,,,,,,,,,,,,,,,,,,,,,,,,,,,,,,
{1},
{48}1x/8x,2x/7x,3x/6x,4x<4[16:19]/5x>5[16:19],,,,,,,,,,,,,,,,,,,,,,,,,,,,,,,,,,,,,,,,,,,,,
{1},
{4}2v4[8:1]/6v4[8:1],2<6[4:1]/6<2[4:1],,,
{4}3v5[8:1]/7v5[8:1],3>7[4:1]/7>3[4:1],,,
{16}4,,4,,3/5,,2,4,1,,1,,2/8,,3,8,
{16}4,7,4,7,3,6,3,6,2,5,2,5,1b,,,,
{48}1-4[8:1],E1,B8,B7,E7,,5,,,,,,1,,,,,,5,,,,,,2-5[8:1],E2,B1,B8,E8,,6,,,,,,2,,,,,,6,,,,,,
{48}3-6[8:1],E3,B2,B1,E1,,7,,,,,,3,,,,,,7,,,,,,8,,,,,,1,,,,,,2/6b,,,,,,,,,,,,
{48}8-5[8:1],E1,B1,B2,E3,,4,,,,,,8,,,,,,4,,,,,,7-4[8:1],E8,B8,B1,E2,,3,,,,,,7,,,,,,3,,,,,,
{48}6-3[8:1],E7,B7,B8,E1,,2,,,,,,6,,,,,,2,,,,,,1,,,,,,8,,,,,,3b/7,,,,,,,,,,,,
{48}1-4[8:1],E1,B8,B7,E7,,5,,,,,,1,,,,,,5,,,,,,2-5[8:1],E2,B1,B8,E8,,6,,,,,,2,,,,,,6,,,,,,
{48}8-5[8:1],E1,B1,B2,E3,,4,,,,,,8,,,,,,4,,,,,,3x/7-4[8:1],E8,B8,B1,E2,,3x,,,,,,3x/7,E3,B2,B1,E1,,,,,,,,
{16}2x/6x,,2x/6x,,,,3,4,3,,2,,1/5,,,,
{16}5/7,,6,,2/4,,3,,3,5,4,6,2b,,,,
{48}1-4[8:1]/5,E1,B8,B7,E7,,5,,,,,,1/5,,,,,,5,,,,,,2-5[8:1]/6,E2,B1,B8,E8,,6,,,,,,2/6,,,,,,6,,,,,,
{48}4/8-5[8:1],E1,B1,B2,E3,,4,,,,,,4/8,,,,,,4,,,,,,3/7-4[8:1],E8,B8,B1,E2,,3,,,,,,3/7,,,,,,3,,,,,,
{48}1-4[8:1]/5,E1,B8,B7,E7,,5,,,,,,1/5,,,,,,5,,,,,,3-6[8:1]/7,E3,B2,B1,E1,,7,,,,,,3/7,,,,,,7,,,,,,
{96}2/6-3[8:1],,E7,,B7,,B8,,E1,,,,2,,,,,,,,,,,,2/6,,,,,,,,,,,,2,,,,,,,,,,,,5>5[8:3]*<5[8:3],,,B5,,,C1,,,B1,,,,,,,,,,,,,,,,,,,,,,,,,,,,,,,,,,,,,,,
{1},
{1},
{1},
E
