&title=脳天直撃
&wholebpm=145
&artist=黒沢ダイスケ VS 穴山大輔
&des=小鳥遊さん vs 華火職人
&shortid=11295
&genre=オンゲキCHUNITHM
&cabinet=DX
&version=maimai DX UNiVERSE
&chartconverter=Neskol
&lv_2=5
&des_2=
&lv_3=8+
&des_3=
&lv_4=12+
&des_4=はっぴー
&lv_5=14+
&des_5=小鳥遊さん vs 華火職人
&des_6=
&inote_2=
(145){1},
{1},
{1},
{1},
{1},
{4},,,1x,
{4},,,1,
{4},,,8,
{4},,,8,
{4},,,1xh[4:7]/8xh[4:7],
{1},
{1},
{8},,,1x/8x,,,,,
{8},,,1x,,1,,2,
{8},2,,3,,3,,4,
{8},4,,5,,5,,4xh[8:5]/5xh[8:5],
{1},
{4}5x,5,6,6,
{4}7,7,8,8,
{4}1,1,1h[8:5]/8h[8:5],,
{8},,,,,8,,8,
{8},7,,7,,6,,6,
{8},5,,5,,4,,4,
{8},4xh[8:5]/5xh[8:5],,,,,,,
{4},4,,4/5,
{4},3,,3/4,
{4},2,,1/2,
{4},1,,1/8,
{4},1,,2,
{4},3,,4,
{4},5,,6,
{4},7,,1/8,
{4},8x-5[2:1],,,
{1},
{1}1x-4[2:1],
{4},,,8x-4[2:1],
{1},
{2},1x-5[2:1],
{1},
{4},8,8,1/8,
{4},7,7,7/8,
{4},2,2,1/2,
{4},1,1,1h[2:1]/8h[2:1],
{4},,,1x,
{4}1,2,2,3,
{4}3,3/4,,5,
{4}5,6,6,7,
{4}7,7/8,,8,
{4}8,7,7,6,
{4}6,4/5,4/5,4,
{4}4,3,3,2,
{4}2,1,1,1x/8x,
{1},
{4},,,1h[2:1]/2h[2:1],
{4},,,7h[2:1]/8h[2:1],
{4},,,B7/B8,
{4},,,B5/B6,
{4},,,B3/B4,
{4},,,B1/B2,
{4},,,E1,
{4},,,E2/E8,
{4},,,C1xh[1:1],
{1},
{4},,,B1/E1/B8,
{4},,,B6/B7/E7,
{4},,,B4/B5/E5,
{4},,,B2/B3/E3,
{4},,,E1/B7/B8/E8,
{4},,,B2/E2/B3/E3,
{4},,,B5/E5/B6/E6,
{4},,,C1f/B2/B3/B6/B7,
{4},,,1,
{8}1,,2,2,2,,3,,
{4}3,3/4,,5,
{8}5,,6,6,6,,7,,
{4}7,7/8,,8,
{8}8,,7,7,7,,6,,
{8}6,,5,5,5,,4,,
{8}4,,3,3,3,,2,,
{8}2,,1/2,1/2,1/2,,8,,
{8}8,,7/8,7/8,7/8,,1,,
{4}1,1b/8b,,1/8,
{4}1/8,2,2,3,
{4}3,4/5,4/5,6,
{4}6,7h[8:5]/8h[8:5],,,
{8},,,1x/8x,,1/8,,7,
{8},7,,6,,6,,4/5,
{8},4/5,,3,,2x-6[2:1],,,
{1},
{1}1xh[2:1]/8xh[2:1],
{1}1-4[8:11]/8-5[8:11],
{1},
{16},,,,,,,,,,,,,,,4-1[8:13]/5-8[8:13],
{1},
{1},
{16},,,,,,,,,,,1x/8x,,,,,
{16},,,,,,,,,,,B1/B8,,,,,
{16},,,B2/B7,,,,,,,,B3/B6,,,,,
{16},,,B4/B5,,,,,,,,B3/B6,,,,,
{16},,,B2/B7,,,,,,,,B1/B8,,,,,
{16},,,C1hf[1:1],,,,,,,,,,,,,
{1},
{1},
{1},
E
&inote_3=
(145){1},
{1},
{4}3,3,3h[8:3]/4h[8:3],,
{4},6,5h[8:3]/6h[8:3],,
{4},3,4-8[2:1]/5-1[2:1],,
{4},,,2x/7x,
{4},6,6,5,
{4}5,4,4,3x/5x,
{4},2,2,1,
{4}1,8,8,1/8-5[8:3],
{8},,,,,4-1[8:3],,,
{2},8-5[8:3],
{8},,,4,,4/5,,3/6,
{8},2/7,,1x/8x,,7,7,7,
{8},7/8,7x/8x,,2,2,2,,
{8}1/2,1x/2x,,7,7,7,,7/8,
{4}7x/8x,1/6,2/5,3/4,
{8}2b/5b,,6,6,6,,5/6,5x/6x,
{8},3,3,3,,3/4,3x/4x,,
{8}6,6,6,,5/6,5x/6x,,4/7,
{8},3/8,,1/2,,3x/8x,,7,
{8}7,7,,5/6,5x/6x,,3,3,
{8}3,,1/2,1x/2x,,7,7,7,
{8},5/6,5x/6x,,7/8,,1/2,,
{4}3/4,5<8[8:3],,,
{4},1>4[8:3],,,
{4},5pp8[8:9],,,
{1},
{4},2>5[8:3],,,
{4},6<1[8:3],,,
{4},2pp6[8:9],,,
{1},
{4},7h[16:3]/8h[16:3],,1/2,
{4}1h[16:3]/2h[16:3],,1/2,3/4,
{4}3h[16:3]/4h[16:3],,5/6,5h[16:3]/6h[16:3],
{4},5/6,7/8,1h[16:3]/6h[16:3],
{4},1/2,3h[16:3]/8h[16:3],,
{4}3/4,5/6,4h[16:3]/7h[16:3],,
{4}3/4,2h[16:3]/5h[16:3],,1,
{4}1/8,B5/B6,,B7/B8,
{4},B1/B2,,B3/B4,
{4},B5/E6,,B8/E8,
{4},B1/E2,,C1f/B3/B6,
{4},,,7b,
{4}7/8,7,7/8,2,
{4}1/2,2,1/2,3,
{4}3,4,4,4/5,
{4}3/6,2/7,1/8,2,
{4}1/2,3,3/4,6,
{4}5/6,7,7/8,1b>4[8:3]/8b<5[8:3],
{8},,,,,,4,4,
{8}4,,5,5,5,,4bqq1[4:5]/5bpp8[4:5],,
{1},
{8},,,,,,7,7,
{8}7,,7/8,,1/6,,2,2,
{4}2,1/2,3/8,8<3[4:3],
{1},
{4},2,,1>6[4:3],
{1},
{4},7,,8-4[8:3],
{4},,,3-6[8:3],
{4},,,7,
{4},6,,4-1[8:3]/5-8[8:3],
{4},,,7xh[2:1],
{4},8,,2h[2:1],
{4},1,,7h[2:1],
{4},8,,1h[4:1]/2h[4:1],
{4},1/2,,7,
{4}7,8,8,1,
{8}1,,2,,2,,3,3,
{8}3,,4,4,4,,5,5,
{4}5,4b/5b,,E7,
{4}B6,B5,,E3,
{4}B3,B4,,E7,
{4}B6,B5,B4,B3,
{4}E3,E2,,7xh[4:1],
{4}8h[4:1],1h[4:1],2,3h[4:1],
{4}4h[4:1],5h[4:1],6,7/8,
{8}5/6,,3/4,,1/2,,3,3,
{8}3,,4,4,4,,5,5,
{8}5,,6,6,6,,4/5,4/5,
{4}4/5,2b/7b,,1x/8x,
{8}7,7,7,,7/8,7x/8x,,2,
{8}2,2,,1/2,1x/2x,,7,7,
{8}7,,7/8,7x/8x,,1/6,,2/5,
{8},3/4,,2b/5b,,6,6,6,
{8},5/6,5x/6x,,3,3,3,,
{8}3/4,3x/4x,,6,6,6,,5/6,
{4}5x/6x,4/7,3/8,1/2,
{4}3/4,2/5,1/6,7/8,
{4}6h[4:1],5h[4:1],4h[4:1],3,
{4}2h[4:1],1h[4:1],8h[4:1],7,
{16}5/6,,,,4x/7x,,,4xh[4:1]/7xh[4:1],,,,,,,,3,
{16},,,3,,,,3h[8:3]/4h[8:3],,,,,,,,,
{16},,,6,,,,5h[8:3]/6h[8:3],,,,,,,,,
{16},,,3,,,,4-8[2:1]/5-1[2:1],,,,,,,,,
{16},,,,,,,,,,,2x/7x,,,,,
{16},,,6,,,,6,,,,5,,,,5,
{16},,,4,,,,4,,,,3x/5x,,,,,
{16},,,2,,,,2,,,,1,,,,1,
{16},,,8,,,,1/8,,,,,,,,,
{16},,,C1hf[1:1]/B2/B3/B6/B7,,,,,,,,,,,,,
{1},
{1},
{1},
E
&inote_4=
(145){1},
{1},
{8}C1f/B3/B4/B5/B6,,,,,,,7h[1:1],
{8},,,,,,,5h[2:1],
{8},,,4h[8:3],,,2h[2:1],,
{4},8b,,4h[4:1]/7h[4:1],
{16},,5/6,,5/6,,,4/5,,,3/4,,3/4,,,4/5,
{8},5/6,5/6,,4/7,,2h[4:1]/5h[4:1],,
{16},,3/4,,3/4,,,4/5,,,5/6,,5/6,,,4/5,
{16},,3/4,,3/4,,,,2/5,,,,6,5,6,5h[16:11],
{16},,,,,,,,,,7,5,7,5h[16:11],,,
{16},,,,,,,,8,5,8,5h[16:11],,,,,
{16},,,,,,1,,,2/8,,2/8,,3/7,,3/7,
{16},4,5h[4:1],,,,4,,4,,3,,5,,6,,
{8}6,5/7,4,3/5,2,1,8,4/7,
{8}6,4/5,5,6,4,3,3,2/4,
{8}1,1,8,8,2/7,3/6,4/5,4/5,
{8}6,6h[2:7],5,5,4,3,4,2,
{8}3,4,5,4,3,4,5,5,
{8}4,3,4,3,4,2,1,1,
{8}8,8,7,5,4,3,3h[4:13],4,
{8}4,5,6,5,7,6,5,4,
{8}5,6,5,4,4,5,6,5,
{8}6,5,7,8,8,1,1,2,
{8}4,5,2-6[4:3],,7,7,,8,
{8}8,,7-3[4:3],,2,2,,1,
{8}1,,2-6[4:3],,7,7,,8,
{8}8,,7-4[2:1],,1,1,,2,
{8}2,,3-7[4:3],,5,5,,4,
{8}4,,6-2[4:3],,4,4,,5,
{8}5,,3-7[4:3],,5,5,,4,
{8}4,,6-1[2:1],,2,2,,3,
{16}3,,,,2/3,,,1/4,,,5,,6,,7,,
{16}6/7,,,5/8,,,5,,4,,3/5,,3/5,,2,,
{16}2/3,,,1/4,,,5,,6,,7,,6/7,,,5/8,
{16},,5,,4,,3/5,,3/5,,2,,2/3,,,1/4,
{16},,2,,1,,8,,6/7,,,5/8,,,7,,
{16}7,,1/8,,1/8,,2,,2/3,,,1/4,,,2,,
{16}1,,8,,6/7,,,5/8,,,7,,7,,1,8,
{16}1,8,1,,7h[16:3],,,6h[16:3],,,5,,2h[16:3],,,3h[16:3],
{16},,4,,7h[16:3],,,6h[16:3],,,5,,4h[16:3],,,3h[16:3],
{16},,2,,6h[16:3],,,7h[16:3],,,8,,1h[16:3],,,2h[16:3],
{16},,3,,8h[16:3],,,7h[16:3],,,6,,4b/5b,,,1b/8b,
{8},2b/7b,,,,,C1f/B3/B4/B5/B6,,
{16},,1,8,1,,,2/4,,,4/6,,7-3[8:1],,,,
{8}2,2-6[8:1],,8,8<3[4:1],,C1f,,
{16},,1,8,1-5[8:1],,,,6,,6,,7,,7h[8:1],,
{8}5,5h[8:1],4,4h[8:1],2<5[4:1],,C1f,,
{16},,8,1,8,,,2/7,,,1/6,,1/6,,,2/7,
{16},,3/8,,3/8,,,2/7,,,1/6,,1/6,,,,
{8}3,2/4,,6,5/7,,1h[8:1],2h[8:1],
{8}3h[8:1],4h[8:1],5h[8:1],6h[8:1],7<8[4:3],8,C1f,,
{8},,,,,,3h[1:1],4,
{8}4,5,6,5,4,5,6h[1:1],5,
{8}5,4,3,4,5,4,3h[4:3],4,
{8}4,5,6,5,5,,6<1[4:7],,
{4},E4,,,
{4},E5,,2>5[4:7],
{4},C1,,,
{4},E1,,6<1[4:7],
{4},B2/B3,,,
{4},B4/B5,,2>5[4:7],
{4},C1,,,
{4},B1/B8,,7-4[1:1],
{4},8,,1-6[1:1],
{4},2,,3-8[4:3],
{4},4,,5-2[1:1],
{4},6,,7,
{4}7<4[2:1],8,8,1,
{4}1<6[2:1],2,2,3,
{4}3>8[2:1],5,5w1[4:1],,
{8},,3b/7b,,1x,2x/8x,3x/7x,4,
{8}5,6,3/7,2,8x,1x/7x,2x/6x,5,
{8}4,3,2/7,6,5,4,3/6,4,
{8}5,6,2/7,3,4,5,3h[8:1]/6h[8:1],,
{16}4h[8:1]/7h[8:1],,,,2h[8:1]/5h[8:1],,,,3h[8:1]/6h[8:1],,,,4,5,4,5,
{16}4,5,4,5,3,6,3,6,4,5,4,5,2,7,2,7,
{48}3,,,6,,,3,,,6,,,2,,,7,,,2,,,7,,,1,,,8,,,1,,,8,,,1,,2,,3,,4,,5,,6,,
{24}7,8,1,2,3,4,5,6,7,8,1,2,3,4,5,6,7,8,1x,,,1x,,,
{8}1x,1x,2/8,2/8,2/8,2/8,3/7,3/7,
{16}3/7,,3/7,,4/6,,4/6,,4/6,,4/6,,5x,5x,5x,5x,
{8}5x<4[8:3],,,,,,2,2,
{16}3/5,,6,5,6,,4,,4,5,4,,3/6,,7,,
{16}1/8,,2,,3/5,,6,,7,,7,,4/6,,3,4,
{16}3,,5,,5,4,5,,6,,5/7,,3,,2/4,,
{8}5,4/6,3/7,2,2,2/4,2/4,2,
{8}2/5,2/6,7,7,5/7,5/7,7,1/7,
{8}2/7,3,3,3/6,3/6,3,3/4,3/5,
{8}6,7,8,1,2,3,4/6,3/7,
{8}8h[8:1],7h[8:1],6h[8:1],5h[8:1],4h[8:1],3h[8:1],2h[8:1],1h[8:1],
{16}8,8,,5/7,,4/8,,5/7,,4/8,,5/7,,3,3,,
{8}2/4,1/5,2/4,1/5,2/4,1/5,6,7,
{16}3,,2,,5,4,5,4-1[8:1],,,,5-8[8:1],,,,1>7[16:5],
{16},,,,,,,,,,,8,,8<2[16:5],,,
{16},,,,,,,,,1,,1,,1-4[8:1]/8-5[8:1],,,
{16},,,,,3/6,,,,2/7,,2/7,,,,4/6,
{16},,,3/5,,,,2/7,,,,3h[48:23]/6,,,,,
{12}4,4,4,,3/4,,1/2,,7/8,,5/6,,
{48}3/4,,,,,,,,1-5[8:1]/2,,,,,,,,,,,,1x,,,,,,,,,,,,,3/6h[16:5],,,,,,,,,,,,,,,
{24}5,,,3,4,,,6,5,,,7,8,,,2,1,,,3,4,,,6,
{24}5,,,1,8-4[8:1],,,,,,8x,,,,,,,,,,,,,,
{16},1,7h[16:17],3h[16:13],,,,,,,,,,,,,
{16},E4,E5,E6,,,,,,,,,,,,,
{1},
{1},
{1},
E
&inote_5=
(145){1},
{24},,,,,,,,,,,,,,,,,,,,,1x/8x,2x/7x,3x/6x,
{96}4b/5b,,,,,,,,,,,,,,,,,,,,,,,,5x,4x,,,,,,,,,,,,,,,,,6,,,,,,6,,,,,,,,,,,,4,,,,,,,,,,,,3,,,,,,,,,,,,2b/5b,,,,,,,,,,,,
{16},,3,4,2,,6,5,7,,1/8,,2/7,,3b/6b,,
{48},,,,,,5,,,5,,,4,,,,,,2b/7b,,,,,,,,,,,,3/6,,,,,,4/5,,,,4,,,,4,,,,
{12}3/4,4,4,4/6,4,4,3/4-8[48:5],4,4,4x/7xh[8:3],,,
{16},,5,4,4,,,B3/E3/E5,,,E5/B7/E8,,B1/E2/E5,,,E5/B6/E7,
{24},,,B3/E4/E5,,,1,,8,,1,,2x/7x,,,,,,3xh[8:3],,,,,,
{16},,4,5,5,,,E1/B2/E3,,,E1/B6/E6,,E1/B4/E4,,,E1/B6/E7,
{16},,E1/B3/E3,,C1/B2/B6,,,,1b/8b,,,,1s5[8:3],1,5,5,
{16},,,,,,,,,,4z8[8:3],4,8,8,,,
{16},,,,,,,,1s5[8:3]/8,1/8,1/8,1/8,,,,,
{16},,,,,,1,1,8,2/7,,3/6,,4/5,,2,
{16}4,3,5,4,6,,1b/8b,,7,,5/6,5h[8:1]/6,,4,4h[8:1],,
{16}3,3,5,,4/6,,3,,1,1h[8:1],,2,2h[8:1],,3,3,
{16}4,,1/5,,2,,3/4,3/4h[8:1],,5,5h[8:1],,6,6,4,,
{16}1/8,,6,5/7,,3,2/4,,2<7[8:1],4,3,5,2,,,,
{16}2b/7b,,3/6,,7,8,,2,1,3,3,4,2,,6,,
{16}5/7,,2,1,,7,8,6,6,4,5,3,4,,3/5,,
{16}2,1,,7,8,6,6,5,6,,3h[8:1]/4h[8:1],,,2/5,,4/7,
{16},1/6,,8,5,6,1,4,3,5,4/5,,3/6,,7,8,
{16},2,1,3,3,4,2,,6,,5/7,,2,1,,7,
{16}8,6,6,4,5,3,4,,3/5,,2,1,,7,8,6,
{48}6,,,5,,,6,,,4,,,7,,,7,,,5,,,5,,,3,,,3,,,1,,,1,,,8x,,7x,,6x,,3x,,4x,,5x,,
{48}7x,,6x,,5x,,2x,,3x,,4x,,5x/6x<2[2:1],,,,,,4,,,,,,5,,,5,,,,,,3h[16:3],,,,,,,,,,,,,,,
{16}4,,,,3x>7[2:1]/4x,,5,,4,4,,6h[16:3],,,,,
{16}4,,,,1x/2x>6[2:1],,8,,1,1,,7h[16:3],,,,,
{16}1,,,,7x<3[8:3]/8x,,1,,8,8,,2h[16:3],,,,,
{16}1,1,7,5,6xpp2[2:1],,5,,4,4,,3h[16:3],,,,,
{16}5,,,,3xqq7[2:1]/5,,4,,5,5,,6h[16:3],,,,,
{16}4,,,,1/7xqq3[2:1],,8,,1,1,,2h[16:3],,,,,
{16}8,,,,2h[4:1]/8,,1,,7,7,,5/6,,3,2/4,,
{16}1,8,1,,4/5-8[8:1],,,5/6,,,7,,6/8,,5,,
{16}6-1[8:1]/7-4[8:1],,,6/7,,,,,2,4,3,5,4h[4:1],,,,
{16}5-8[8:1],,,5/6,,,7,,6/8,,5,,6-1[8:1]/7-4[8:1],,,6/7,
{16},,,,1/2,,3/4,,6,5,6h[8:1],,4-1[8:1],,,3/4,
{16},,2,,1/3,,4,,2-5[8:1]/3-8[8:1],,,2/3,,,,,
{16}7,5,6,4,5h[4:1],,,,4-1[8:1],,,3/4,,,2,,
{16}1/3,,4,,2-5[8:1]/3-8[8:1],,,2/3,,,,,7,5,6,4,
{16}5,3,4,,1h[8:1]/2h[8:1],,,3h[8:1]/8,,4,4,,7h[8:1]/8h[8:1],,,1/6h[8:1],
{16},5,5,,2,1,2,3h[8:1]/8,,4,4,,7,8,7,1/6h[8:1],
{16},5,5,,1,4,3,8,5,6,2,2,6,5,8,3,
{48}4,,,1,,,7,,,7,,,1x,,2,,3,,7x,,6,,5,,2x,,3,,4,,8x,,7,,6,,4x/5x,,,,,,,,,2x/6x,,,
{64},,,,,,,,4x/8h[8:3],,,,,,,,,,,,,,,,,,,,,,,,1s5[32:1]*s5[32:1],,,,,,,,,,,,,,,,1b/8b,C1f,,,,,,,,,,,,,,,
{48}6,,,,,,1/2,,3/8,,4/7,,5/6h[8:1],,,,,,4,,,4h[8:1],,,,,,7,,,7h[48:11],,,,,,4x,3x,2x,1x,8x,,6x,5x,,,,,
{96}8h[24:5],,,,,,,,,,,,4x,,3x,,2x,,1x,,,,7x,,6x,,5x,,,,,,,,,,8,,,,,,8,,,,,,4,,,,,,,,,,,,5/7,,,,,,,,,,,,5x/7x,,,4x/6x,,,3x/5x,,,2x/4x,,,1xh[4:1]/3x,,,,,,,,,,,,
{96}4,,,,,,,,,,,,4,,,,,,1,,,,,,2x/4x,,,3x/5x,,,4x/6x,,,5x/7x,,,6x/8x,,,,,,,,,,,,8,,,,,,,,,,,,2/6,,,,,,,,,,,,3,,,,4,,,,3,,,,4,,,,3,,,,4,,,,
{24}2,5,2,5,2,5,1,6,1,6,1,6,8z4[8:1],7,8,7,8,7,8b,,,,,,
{48}3,,,,,,7/8,,1/6,,2/5,,3h[8:1]/4,,,,,,5,,,5h[8:1],,,,,,2,,,2h[8:1],,,,,,8x,7x,6x,5xh[8:1],,,,,,7x,6x,5x,
{48}4xh[8:1],,,,,,7h[16:3],,,,,,1x,2x,3x,4xh[8:1],,,,,,2x,3x,4x,5xh[8:1],,,,,,2,,,,,,4x>6[24:7],,,,,,,,,,,,
{24}6,,,5p8[8:1],,,,,,1x,2x,3x,4x,,,,,,7,5,7,5,7,5,
{24}8,4,8,4,8,4,1,3,1,3,1,3,2<3[1:1],2,2,2,2,2,C1f,,,,,,
{1},
{16},,,,4-1[8:1]/5-8[8:1],,,,4/5,,,,2x/7x,,E4,E6,
{16}E3,E7,E2,E8,,3x/6x,,B4,B5,B1,B8,,3x/6x,,E4,E6,
{96}E3,,,,,,E7,,,,,,E2,,,,,,E8,,,,,,4,5,,,,,,,4,5,,,,,,,4,5,,,,,,,3b/6b,,,,,,,,,,,,,,,,,,,,,,,,4x/5x<4[4:11],,,,,,,,,,,,,,,,,,,,,,,,
{4},1h[4:1],,B1,
{4},B3,,B5,
{4},B7,,1h[2:1],
{12},,,5h[4:1],,,4,4,4,4x>5[4:11]/5x,,,
{4},8h[4:1],,B8,
{4},B6,,B4,
{4},B2,,8h[2:1],
{12},,,4h[4:1],,,5,5,5,2x/6h[8:3],,,
{8},4,2h[8:3],,,4,6h[4:1],,
{12}5,5,5,4/7h[4:1],,,8h[4:1],,,1h[4:1],,,
{12}2,2,2,1/3h[4:1],,,4z8[2:1],,,,,,
{8}8w4[4:1],,,,,,B2/E2/7,7,
{8}B3/E4/7,7,B1/E1/7,7,B4/E5/7,7,B6/E6/2,2,
{8}B7/E8/2,2,B5/E5/2,2,E1/B8/2,2,1/2,1/2,
{16}2/3,,3/4,,4/5,,5/6,,6/7,,7/8,,1,8,2,7,
{16}4w8[8:1],5,3,6,,,,,4/5,6,7,8,1<5[4:1]/2,,2,,
{16}3,,3,,2,,2,,3/5,6,3/7,8,1-5[8:1]/2,,2,,
{16}3,,3,,2/4,,2,4,3,,3/6,,2/8,,2,4,
{8}3,3/5,2/6,2,3/8,3/8,2/7-3[8:1],8,
{16}1-5[8:1]/7,,2,,1/8w4[8:1],,7,,8,,,,3,5,4,5,
{16}3,6,5,6,2,1,3,8,2,4,3,5,1,8,4,6,
{48}5,,,8,,,4,,,7,,,1,,,4,,,2,,,8,,,5,,,7,,,4,,,6,,,2x,,3,,4,,1x,,2,,3,,
{24}7x,6,5,8x,7,6,3x,4,5,1x,2,3,7x,8,1,5x,6,7,2x,1,2,1,2,1,
{24}3x,8,3,8,3,8,4x,7,4,7,4,7,5x,6,5,6,5,6,8x,7,8,7,8,7,
{24}1x,6,1,6,1,6,2x,5,2,5,2,5,3x,4,3,4,3,4,1x,2,3,7x,6,5,
{192}2x,,,,,,,,3,,,,,,,,4,,,,,,,,8x,,,,,,,,7,,,,,,,,6,,,,,,,,B1,,,B2,,,B3,,,B4,,,B5,,,B6,,,B7,,,B8,,,E2,,,E3,,,E4,,,E5,,,E6,,,E7,,,E8,,,E1,,,C1f,,,,,,,,,,,,,,,,,,,,,,,,,,,,,,,,,,,,,,,,,,,,,,,,8b,,,,,,,,,,,,,,,,,,,,,,,,1/7,,,,,,,,,,,,,,,,,,,,,,,,
{16}3,4,4,3,5,5,3,6,6,5,4,3,5,2,2,4,
{16}3,7,5,6,3,4,5,6,3,5,4,6,3,4,4,3,
{32}5,,5,,3,,6,,6,,5,,4,,3,,3,,7,,4,,4,,6,5,6,,3,,5,4,
{16}5,3,4,4,2,5,3/6,,2b/7b,,6,5,5,6,4,4,
{16}6,3,3,4,5,6,4,7,7,5,6,2,4,3,6,5,
{16}4,3,6,4,5,3,6,5,5,6,4,4,6,3,3,7,
{32}1,,1,,8,,5,,5,,8,,3,,3,,4,,2,,3,,2h[32:7],,1,8,7,6,5,4,,,
{32}1,,1,,8,,2,,5,,5,,4,,6,,5,,7,,6,,7h[32:7],,8,1,2,3,4,5,,,
{16}8x,2,2,B6/B7,1,B5/E5,1,E7,1,E6,2,C1,1,1x,7,7x,
{16}B2/B3,8,B4/E5,8,E3,8,E4,7,C1,8,8x,2,2x,B6/B7,1,B5/E5,
{16}1,E7,1,E6,2,C1,1,1s5[8:1],,,,1b/5b,,,,2b/6b,
{96},,,,,,,,,,,,,,,,,,5x,4x,,,,,,,,,,,,,,,,,6,,,,,,5,,,,,,,,,,,,4,,,,,,,,,,,,3,,,,,,,,,,,,2b/5b,,,,,,,,,,,,,,,,,,
{16},3,3,4,,6,6,5,7,5,,8,,1b/8b,,,
{48},,,5,,,5,,,4,,,,,,2b/7b,,,,,,,,,,,,3/6,,,,,4/5h[6:1],,,,4,,,,4,,,,3h[6:1]/4,,,,
{12}4,4,4/6h[6:1],4,4,2h[6:1]/4-8[8:1],4,4,4x/7xh[48:17],,,,
{48},5,,,,5,,,,4,,,,,,,,B7/E7/1xh[12:1],,,,,,,,B3/E3/8xh[12:1],,,,,,,,B6/E6/4xh[12:1],,,,,,,,B2/E2/5xh[12:1],,,,,,,
{48},B7/E8/1xh[12:1],,,,,,,B4/E4/8x,,,,,,,,,,,,3x/6x,,,,,,,,,,,,7xh[48:17],,,,,,,,,,,,,,,,
{48},2,,,,2,,,,8,,1,,7,,5,,6,,4,,5,,3,,4,,2,,8,,1,,7,,2,,8,,1,,7,,5,,6,,4,
{48},5,,3,,4,,2,,1x/8x,,,,,,,,5,,4,,3b/6b,,,,,,,,,,,,,,,,,,,,,,,,,,,
{32},,1/5,2/6,3/7,4/8,1s5[2:1]/5s1[2:1],,,,,,,,,,,,,,,,,,,,,,,,,,
{48},,,2,,4,,5,,7b,,,,,,,,,,,,,,,,,,,,,,,,,,,,,,,,,,,,,,,
{1},
{1},
{1},
E
