&title=泥の分際で私だけの大切を奪おうだなんて
&wholebpm=225
&artist=ツユ
&des=はっぴー
&shortid=11347
&genre=POPSアニメ
&cabinet=DX
&version=maimai DX UNiVERSE
&chartconverter=Neskol
&lv_2=2
&des_2=
&lv_3=7+
&des_3=
&lv_4=10+
&des_4=翠楼屋
&lv_5=13+
&des_5=はっぴー
&des_6=
&inote_2=
(225){1},
{1},
{1},
{1},
{1},
{1},
{1},
{1},
{1},
{1},
{1}1,
{1},
{1}8,
{1},
{1}1/8,
{1},
{1}1b,
{1}1,
{1}2,
{1}2,
{1}3,
{1}3,
{1}4/5,
{1},
{1}5,
{1}5,
{1}6,
{1}6,
{1}7,
{1}7,
{1}8,
{1}8,
{1}1/8,
{1}1h[1:1]/8h[1:1],
{1},
{1}8-5[4:7],
{1},
{1},
{1},
{1}1-4[4:7],
{1},
{1},
{1},
{1}8,
{1}8,
{1}7,
{1},
{1}6,
{1}6,
{1}5,
{1},
{1}4,
{1}4,
{1}3,
{1},
{1}2,
{1}2,
{1}1/8,
{1},
{1}1,
{1}1,
{1}1/2,
{1},
{1}3,
{1}3,
{1}3/4,
{1},
{1}4x/5x,
{1},
{1}B5,
{1},
{1}B4,
{1},
{1}B6,
{1},
{1}B3,
{1},
{1}B7,
{1},
{1}B2,
{1},
{1}C1xh[1:1],
{1},
{1},
{2}8b,8,
{1}8,
{1}7,
{1}7,
{2}6,6,
{1}6,
{1}5,
{1}4/5,
{2}4,4,
{1}4,
{1}3,
{1}3,
{2}2,2,
{1}1x/8x,
{2}1b,1,
{1}1,
{2}2,2,
{1}2,
{2}3,3,
{1}3,
{2}4,4,
{1}4/5,
{2}5,5,
{1}5,
{2}6,6,
{1}6,
{2}7,7,
{1}7,
{2}8,8,
{1}8,
{1}1/8,
{1}1xh[1:1]/8xh[1:1],
{1},
{1}1b/8b,
{2}2,2,
{2}1,1,
{2}8,8,
{2}1x/8x,1x/8x,
{1}1xh[4:3]/8xh[4:3],
{1},
{1},
{1},
E
&inote_3=
(225){1},
{1},
{1}6xh[1:1],
{1}5h[1:1],
{1}4h[1:1],
{1}3,
{1}2h[1:1],
{1}1h[1:1],
{1}8h[1:1],
{1}7,
{1}6-1[8:3],
{1}2,
{1}3-8[8:3],
{1}7,
{2}1/8,2/7,
{1}3x/6x,
{4}7b,7,7/8,,
{4}2,2,1/2,,
{4}7,7,8,8,
{4}1,1,2/8,,
{4}3,3,3/4,,
{4}6,6,5/6,,
{4}3,3,4,4,
{4}5,5,4/6,,
{1}7<4[8:3],
{1}3>8[8:3],
{4}7,7,7/8,,
{4}2,2,1/2,,
{2}3h[4:1]/4h[4:1],3/4,
{4}6h[4:1],5,5,,
{2}5h[4:1]/6h[4:1],5/6,
{4}3h[4:1],4,4,,
{4}2,2,1,1,
{4}1x/8x,1x/8x,2x/7x,2x/7x,
{4}3x/6x,3x/6x,4x/5x,4x/5x,
{1}3b/6b,
{1}E6,
{1}E5,
{1}E4,
{1}E3,
{1}E2,
{1}E1,
{1}C1,
{2}7h[2:1],8,
{2}2h[2:1],1,
{2}7h[2:1],8,
{2}1h[4:1]/2h[4:1],1/2,
{2}3h[2:1],4,
{2}6h[2:1],5,
{2}3h[2:1],4,
{2}4h[4:1]/5h[4:1],3/6,
{4}7,7,8,,
{4}2,2,1,,
{4}7,7,8,,
{4}1,1,2/8,,
{4}3,3,4,,
{4}6,6,5,,
{4}3,3,4,,
{4}4/5,4/5,3/6,,
{1}7-3[8:3],
{1}2-5[8:3],
{1}6-1[8:3],
{2}2,1/2,
{1}8-5[8:3],
{1}4-1[8:3],
{2}8,8h[2:1],
{4}1x,1xpp4[2:3]/8xqq5[2:3],,,
{1},
{1},
{1}3xh[1:1],
{1}4h[1:1],
{1}5h[1:1],
{1}6,
{1}7h[1:1],
{1}8h[1:1],
{1}1h[1:1],
{1}2,
{1}E4,
{1}E5,
{1}E6,
{1}E7,
{1}E8,
{1}C1,
{1}1xh[2:1]/8xh[2:1],
{4}7b,7,7/8,7/8,
{4}2,2,1/2,1/2,
{4}3,3,4,4,
{4}5,5,4/6,,
{4}3h[4:1],4,3/4,,
{4}6h[4:1],5,5/6,,
{4}4,4,5,5,
{4}4,4,3/5,,
{1}2>5[8:3],
{1}6<1[8:3],
{4}2,2,1/2,,
{4}7,7,7/8,,
{4}6,6,5,5,
{4}4/5,4/5,3/6,,
{4}2b,2,1/2,1/2,
{4}7,7,7/8,7/8,
{4}6,6,5,5,
{4}4,4,3/5,,
{4}6h[4:1],5,5/6,,
{4}3h[4:1],4,3/4,,
{4}5,5,4,4,
{4}5,5,4/6,,
{1}7<4[8:3],
{1}3>8[8:3],
{4}7,7,7/8,,
{4}2,2,1/2,,
{1}3>8[8:3],
{4}7,7,7/8,,
{1}6<1[8:3],
{4}2,2,1/2,,
{4}3,3,4,4,
{4}4x/5x,4x/5x,3x/6x,3x/6x,
{4}2x/7x,2x/7x,1x/8x,1x/8x,
{1}1b-4[8:3]/8b-5[8:3],
{4}6,6,7,7,
{4}8x,1x,2x,3x,
{1}4h[2:1]/5h[2:1],
{4}6,5,4,3,
{4}4/5,4/5,3/6,3/6,
{1},
{1},
{1},
E
&inote_4=
(225){1},
{1},
{4}4,4,4,4,
{4}5,5,5,5,
{4}3,3,3,3,
{4}5,5,5,5,
{4}4,4,4,4,
{4}6,6,6,6,
{4}5,5,5,5,
{4}4,4,4,4,
{4}3,3,5,5,
{4}4,4,6,6,
{4}3,3,4,4,
{4}5,5,6,6,
{4}5,5,4,4,
{1}4/5,
{4}1b,5/7,8,2/4,
{4}1,5/6,8,3/4,
{4}5/6,7/8,1/2,3>6[2:1]/4,
{1},
{4}5/7,4/6,3/5,1,
{4}2/4,3/5,4/6,8,
{4}5/7,6,4/5,3,
{8}2,,1/7,1/7,,2/8,2-5[4:1]/8,,
{4},8-4[4:1],,1-5[4:1],
{4},7-4[4:1],,2-6[4:1],
{4},7-3[4:1],,1,
{4}2/4,3/4,5/6,5/7,
{4}4x/8x,4/8,5/7,4/6,
{8}3,3,4,,2/5,,1,,
{4}2/8,2/8,3/7,3/7,
{8}6,6,5,,4/5,,2/4,,
{4}1/5,2/4,3/5,6,
{4}7/8b,3,1b/2,6,
{4}7b/8,4,1/2b,5,
{1}C1f/B2/B7,
{1},
{1}1-4[4:3],
{1}8-5[4:3],
{1}1-4[4:3],
{1}8-5[4:3],
{1}4h[1:1],
{1}5x,
{2}6h[2:1],5,
{4}5,5,4/6,,
{2}3h[2:1],4,
{4}4,4,3/5,,
{2}4/6h[2:1],5,
{4}6,5,4/6,,
{2}3h[2:1]/5,4,
{4}3,4,3/5,,
{2}6h[2:1],5h[2:1],
{4}6,5,4/7,,
{2}3h[2:1],4h[2:1],
{4}3,4,2/5,,
{2}7h[2:1],5h[2:1],
{4}6,5,4/7,,
{2}8h[2:1],1h[2:1],
{4}8,1/8,2/7,,
{4}3x/5x,3/5,4/6,4/6,
{4}3/5,3/5,2/6,2/6,
{4}1/7,1/7,2/8,2/8,
{4}1x/7x,2/8,3/7,,
{4}3/4,3/4,5/6,5/6,
{4}4/7,4/7,2/5,2/5s1[4:3],
{1},
{4}2x,2xh[4:3],,,
{1}1s5[4:3],
{2},3x/6x,
{4}4h[1:1],5,5,5,
{4}5h[1:1],4,4,4,
{4}3h[1:1],4,4,4,
{4}5h[1:1],4,4,4,
{4}4h[1:1],5,5,5,
{4}6h[1:1],5,5,5,
{4}5h[4:3],6,6,6,
{4}6,6,5,4,
{4}3h[1:1],5,4,4,
{4}6h[1:1],4,5,5,
{4}3h[1:1],5,4,4,
{4}6h[1:1],4,5,5,
{4}4,4,5,5,
{1}C1xh[1:1],
{1},
{4}1b,5/6,8,3/4,
{4}1,4/6,8,3/5,
{4}1/2,7/8,5/6,3qq6[8:5]/4,
{1},
{8}5/7,,5/7,,4/5,,3,3,
{8}3/4,,2/5,,1/6,,7,7,
{4}7/8,1/6,2,3/8,
{8}7,,4/6,4/6,,3/5,3-8[4:1]/5,,
{4},6-2[4:1],,4-8[4:1],
{4},5-1[4:1],,3-7[4:1],
{4},6-2[4:1],,4,
{4}3/4,2/5,5/6,4/7,
{4}2h[4:1],4h[4:1],5h[4:1],6,
{4}3x/7x,,4/6,3/5,
{4}1b,4/6,8,3/5,
{4}1/8,5/7,1/8,2/4,
{4}7/8,5/6,3/4,1qq6[16:11]/2pp5[16:11],
{1},
{8}3/8,,3/8,,5/6,,7,7,
{8}7/8,,1/6,,2/5,,3,3,
{4}3/4,5/6,4/7,5/6,
{8}3/4,,1/2,1/2,,7/8,7<4[4:1]/8,,
{4},1>4[4:1],,6<1[4:1],
{4},2>5[4:1],,7>2[4:1],
{4},3<6[4:1],,8x,
{4}7,5/6,4/5,3/4,
{2}1-4[4:1]/6x,8-5[4:1],
{4}3,3/4,2/5,3/6,
{2}4x-1[4:1]/7x,5-8[4:1],
{4}2,1/2,3/8,2/7,
{4}3/6,4/5,5/6,4/5,
{4}3b/4x,7/8b,5x/6b,1b/2,
{4}4b/5x,7b/8,4b/5b,1bs5[2:1]/2b,
{4},,,4x/6x,
{4}7h[4:1],5h[4:1],4h[4:1],2,
{8}1/8,,5/7,5/7,,3/4,3-8[8:1]/4-7[8:1],,
{4},,1b/6b,3b/4b,
{8}5b/6b,5b/6b,4b/7b,,1b/8b,,2b/4b,,
{4}5b/6b,7b/8b,1bw5[8:1]/2b,,
{1},
{1},
{1},
E
&inote_5=
(225){1},
{1},
{4}6h[2:1],E5,3h[2:1],B5,
{4}6h[2:1],B4,3h[2:1],E6,
{4}7h[2:1],E5,2h[2:1],E6,
{4}7h[2:1],E4,2h[2:1],E5,
{4}6h[2:1],B4,3h[2:1],B5,
{4}6h[2:1],B4,3h[2:1],E6,
{4}7h[2:1],E5,2h[2:1],E6,
{4}7h[2:1],E4,2,2,
{8}5,6,4,3,5,6,4,3,
{8}5,6,4,3,3,4,5,6,
{8}4,3,5,6,4,3,5,6,
{8}3x,4,5,6,4,3,5,6,
{8}6,5,4,3,3,4,5>6[2:1],6,
{4},,,2x-5[8:1]/7x-4[8:1],
{4}2x/7x,1x-5[8:1]/8x-4[8:1],1x/8x,2/7,
{4}1/8,2/4,4/5,5/7-4[8:1],
{4}2-5[8:1],8-4[8:1],1-5[8:1],7-4[8:1],
{4}2-5[8:1],8<5[8:1],1>4[8:1],7-3[8:1],
{4}2b,1-5[8:1]/2-4[8:1],1x/2x,3h[8:1]/6h[8:1],
{8}4h[8:1]/6h[8:1],,3h[8:1]/5h[8:1],,2h[8:1]/6h[8:1],,1,1h[4:1],
{8},4,4-8[8:1],,2-6[8:1],,7-3[8:1],,
{8}1h[4:1],,8,8-4[8:1],,3-6[8:1],,7,
{4}7,8<5[8:1],2,1>4[8:1],
{8}7,,8<5[8:1],,3,,2,2h[4:1],
{8},5x,5x,4x,4x,7x,7x,2x,
{4}2x-4[8:1],8-6[8:1],1-5[8:1],7,
{4}8-4[8:1],2h[4:1],5-8[8:1],1,
{4}1-5[8:1],7h[4:1],4-1[8:1],6,
{4}5-1[8:1],2h[4:1],8-3[8:1],3,
{4}4-8[8:1],7h[4:1],1-6[8:1],6,
{4}5,4,4/5,1x-3[8:1]/8x-4[8:1],
{4}1b/8b,1x-5[8:1]/8x-6[8:1],1b/8b,1x-3[8:1]/8x-4[8:1],
{4}1b/8b,1x-5[8:1]/8x-6[8:1],1b/8b,1x>4[8:1]/8x<5[8:1],
{1}1b/8b,
{1}3h[2:1]/6h[2:3],
{1}2h[2:3],
{1}8h[2:3],
{1}1h[2:3],
{1}7h[1:1],
{2}4h[2:1],5,
{2}3/6,E5,
{4}5,6-3[8:1],2/6,2,
{8}4,,4,,3/5h[4:1],,4,4,
{4}5,6-4[8:1],2/6,2,
{8}4,,4,,3/5h[4:1],,4,4,
{4}5,6v3[8:1],2/6,2,
{8}4,,4,,3/5h[4:1],,4,4,
{4}5,6>4[8:1],2/6,2,
{4}4,4,3/5,4/6,
{4}4/6,3-6[8:1],3/7,7,
{8}5,,5,,4h[4:1]/6,,5,5,
{4}4,3<5[8:1],3/7,7,
{8}5,,5,,4h[4:1]/6,,5,5,
{4}4,3-5[8:1],3/7,7,
{8}5,,5,,4h[4:1]/6,,5,5,
{4}4,3<6[8:1],3/7,8-4[8:1],
{4}1-5[8:1],7-3[8:1],2b,1b,
{8}2/6,,3/5,3/5,3/5,,4/6,4/6,
{8}4/6,,1/8,1/8,1/8,2,1/8,7,
{8}1/8,,4/6,4/6,4/6,,3/5,3/5,
{8}3/5,,1/8,1/8,1/8,7,1/8,2,
{8}1/8,,2/5,2/5,2/5,,4/7,4/7,
{8}4/7,,1/8,1/8,1/8,2,1/8,7,
{8}1/8,,4/7,4/7,4/7,,2/5,2/5,
{4}2/5<4[2:1],C1f,,,
{1},
{2},B2/E2/B7/E8,
{4}3h[2:1],E5,6h[2:1],B4,
{4}3h[2:1],B5,6h[2:1],E4,
{4}2h[2:1],E5,7h[2:1],E4,
{4}2h[2:1],E6,7h[2:1],E5,
{4}3h[2:1],B5,6h[2:1],B4,
{4}3h[2:1],B5,6h[2:1],E4,
{4}2h[2:1],E5,7h[2:1],E4,
{4}2h[2:1],E6,7,7,
{8}4,3,5,6,4,3,5,6,
{8}4,3,5,6,6,5,4,3,
{8}5,6,4,3,5,6,4,3,
{8}6x,5,4,3,5,6,4,3,
{8}3,4,5,6,6,5,4q5[2:1],3h[8:9],
{1},
{4},,,2v5[8:1]/7-4[8:1],
{4}2b/7b,1v4[8:1]/8q5[8:1],1b/8b,2/7,
{4}1/8,5/8,4/6,2-6[8:1]/5,
{4}1-5[8:1],8-4[8:1],7-3[8:1],6-2[8:1],
{4}5-1[8:1],4-8[8:1],3-7[8:1],2-6[8:1],
{8}1b,,1-4[8:1]/8-5[8:1],,1x/8x,,3h[8:1],5h[8:1],
{8}2h[8:1],6h[8:1],3h[8:1],7h[8:1],4h[8:1],5h[8:1],3,3,
{8},6,6-2[8:1],,1-7[8:1],,5-3[8:1],,
{8}2,2,8,8h[4:1],,6-2[8:1],,7,
{4}7h[4:1],5>1[4:1],6,4<8[4:1],
{8}3,,5>1[4:1],,6,,7,7h[4:1],
{8},5,5,4,4,2,2,8,
{4}8-4[8:1],3,B2/E2/E3,B7/E7/E8,
{4}3<6[8:1],6,7p2[8:1],2,
{4}C1,1/8,3/7,2v5[8:1]/8q4[8:1],
{4}2b/8b,1v4[8:1]/7qq5[8:1],1b/7b,1-3[8:1]/8-6[8:1],
{8}1b-5[8:1]/8b-4[8:1],,1b/8b,,2b/7b,,3,3<6[8:1],
{8},8,8h[4:1],,5-2[8:1],,5-8[8:1],,
{4}5-1[8:1],5<4[8:3],C1f,,
{8}1x,,2-6[8:1]/8-4[8:1],,2/8,,3/7,3h[4:1]/7,
{8},4,4-8[8:1],,2-6[8:1],,7,7h[4:1],
{8},5,5-1[8:1],,8-4[8:1],,2-6[8:1],,
{8}7-3[8:1],,1,1pp5[2:1],,6,6,,
{4}7,8-4[8:1]*-5[8:1],8x,1-4[8:1]*-5[8:1],
{8}1x,,7,7,1,1h[4:1],,5<8[8:1],
{8},2,2>5[8:1],,7,,8<5[8:1],,
{4}1>4[8:1]/8,1/8-4[8:1],1-5[8:1]/8,1/8h[4:1],
{4}1,B3/E4/B6/E6,2/7,B4/E4/B5/E6,
{8}8h[4:1],,1,1,2/6,,3qq4[2:1]/4pp4[2:1],,
{4},,,3x/5x,
{8}6,6,4,4,7,7,5qq5[2:1]/6pp5[2:1],,
{4},,,2-6[8:1],
{4}2b/7-3[8:1],1-5[8:1]/7b,1b/8-4[8:1],2-6[8:1]/8b,
{24}2b/7-3[8:1],,,,,,1/7b,,,,,,1b,2x,3x,4x,5x,6x,7x,8x,1x,2x,3x,4x,
{4}5x,3/7qq4[4:3],3,2,
{4}2,1,1,1>4[8:1],
{4}6x<1[8:1],3x<6[8:1],8x>3[8:1],5x<8[8:1],
{4}2x,2x,3/7,4-2[8:1]/8-6[8:1],
{4}4v1[8:1]/8v5[8:1],4x/8x,2x/6x,4/8,
{8}2/6,3,4/5,6,7-4[8:1]/8-3[8:1],,7b/8b,,
{1},
{1},
{1},
E
