&title=悪魔の踊り方
&wholebpm=106
&artist=キタニタツヤ
&des=はっぴー
&shortid=11350
&genre=niconicoボーカロイド
&cabinet=DX
&version=maimai DX UNiVERSE
&chartconverter=Neskol
&lv_2=2
&des_2=
&lv_3=6
&des_3=
&lv_4=9+
&des_4=シチミヘルツ
&lv_5=13
&des_5=はっぴー
&des_6=
&inote_2=
(106){1},
{1}1,
{1}1,
{1}8,
{1}8,
{2}1,2,
{2}3,4,
{2}5,6,
{2}7,1/8,
{1}8h[1:1],
{1},
{1}7h[1:1],
{1},
{1}6h[1:1],
{1},
{1}4h[1:1]/5h[1:1],
{1},
{1}B4/B5,
{1}B3/B6,
{1}B2/B7,
{1}C1f,
{4}1b,1,1,,
{2}2,2,
{4}3,3,3,,
{2}4/5,4/5,
{4}5,5,5,,
{2}6,6,
{4}7,7,7,,
{2}8,1/8,
{1}8-5[4:3],
{1},
{1}1-4[4:3],
{1},
{2}8x,8,
{1}7/8,
{2}6,6,
{1}5/6,
{2}3,3,
{1}3/4,
{2}2,2,
{1}1/2,
{1}8b,
{1}7h[1:1]/8h[1:1],
{1},
{1}1h[1:1]/2h[1:1],
{1},
{4}1,1,1,,
{4}2,2,2,,
{4}3,3,3,,
{4}4,4,4/5,,
{4}5,5,5,,
{4}6,6,6,,
{4}7,7,7,,
{4}8,8,1/8,,
{4}2,2,1/2,,
{4}7,7,7/8,,
{1}1h[2:1]/8h[2:1],
{1}1-4[4:3]/8-5[4:3],
{1},
{1},
{1},
E
&inote_3=
(106){1},
{4}4,4,4/5,,
{4}6,6,5/6,,
{4}3,3,3/4,,
{4}5,5,3b/6b,,
{4}6,6,5,5,
{4}4,4,3/5,,
{4}2,2,1,1,
{4}8,8,2/7,,
{1}6>3[8:3],
{4}3,3,4,4,
{4}5/6,5/6,4h[4:1]/7h[4:1],,
{4}3,3,2/4,,
{4}6,6,5,5,
{4}3/4,3/4,2h[4:1]/5h[4:1],,
{4}6,6,5/7,,
{4}8,1/8,2/7,,
{2}E3,E4,
{2}E5,E6,
{4}5h[8:1]/7h[8:1],5/7,2h[8:1]/4h[8:1],2/4,
{8}1h[4:1],,8,8x,,,,,
{4}7b,7/8,2,1/2,
{4}3,3/4,2/5,,
{4}6h[4:1],5,3h[4:1],4,
{4}6h[4:1],5-1[4:1],,,
{4}2b,1/2,7,7/8,
{4}6,5/6,4/7,,
{4}3h[4:1],4,6h[4:1],5,
{4}4/6,3/5,2/7,1-5[4:1]/8-4[4:1],
{1},
{1}7-3[8:3],
{1}2-6[8:3],
{4}7,7,1/8,,
{4}E3,B3,B4,,
{4}E7,B6,B5,,
{4}B2,B3,B4,B5,
{4}B6,B7,B8,,
{4}E3,B2,B1,,
{4}B6,B7,E8,,
{4}1x/8x,1x/8x,2/7,2/7,
{4}3/6,3/6,4h[4:1]/5h[4:1],,
{1}C1f,
{2}6h[2:1],5h[2:1],
{2}4h[2:1],3x,
{4}4/5,3/6,2/7,1-4[8:3]/8-5[8:3],
{4},,,4/5,
{4}3b,1/2,7,7/8,
{4}6,5/6,4/7,,
{4}3h[4:1],4,6h[4:1],5,
{4}4/6,3/5,2x/7x,,
{4}7,7/8,7,7/8,
{4}6,5,4,3,
{4}2,1/2,2,1/2,
{4}3,4/5,3/6,,
{4}6,5/6,6,5/6,
{4}7,8,1,2,
{4}3,3/4,4/5,4qq1[4:3]/5pp8[4:3],
{1},
{1}2b/7b,
{1},
{1},
{1},
E
&inote_4=
(106){1},
{8}3h[4:1],,4,,6h[4:1],5,5,,
{8}3h[4:1],,5,,4/6h[8:3],,,4,
{8}3h[4:1],,4,,6h[4:1],5,5,,
{8}3h[4:1],,4,5,6,,E4/E5/E6,,
{8}1,1,7/8,6,4/5,3,2/4,1/3,
{8}2/4,5,4/6,7,2/8,3,4/7,4/7,
{8}8,8,1/2,3,4/5,6,5/7,6/8,
{8}5/7,4,3/5,2,1/7,6,4h[4:1]/5h[4:1],,
{8},,,,,3x/6x,,6,
{8}4/7h[1:1],,6,,5,5,6,,
{8}5h[1:1],,6,,7,7,6,,
{8}7h[8:5],,6,,5,5,4/6,,
{8}2h[1:1]/5,,3,,4,4,3,,
{8}4h[1:1],,3,,2,2,3,,
{8}2h[8:5],,3,,4,4,3/5,,
{8}7,6,5,4,3,2,1,8,
{1}2b<6[4:5]/7b>3[4:5],
{4},,,4/5,
{8}5,5,4,4,4/5,4/5,4/5,3/6,
{8}2b/7b,,,,,3x/6x,3x/6x,,
{8}3/4,2/3,1/8,5/6,6/7,1/8,3/4,2/3,
{8}1/8,5/6,6/7,1/8,3/4,2b/5b,,5/6,
{8}5-1[8:1]/6-1[8:1],,,,3-8[8:1]/4-8[8:1],3/4,,,
{8}4/5,6<3[4:1],6,,,,1b,,
{8}5/6,6/7,1/8,3/4,2/3,1/8,5/6,6/7,
{8}1/8,3/4,2/3,1/8,5/6,4b/7b,,3/4,
{8}3-8[8:1]/4-8[8:1],,,,5-1[8:1]/6-1[8:1],5/6,,,
{8}3,2/4,6,5/7,4>1[8:1]/8<5[8:1],4/8,,,
{8}2b/6b,,E2,E1,E8,,B5/E6,,
{8}C1,,E8,E1,E2,,B4/E4,,
{8}C1,,E2,E1,E8,,B5/E6,,
{8}E1,E2,E3,E4,C1xh[4:1],,,,
{8}1/7h[1:1],,6,,5,5,6,,
{8}5h[1:1],,6,,7,7,6,,
{8}8h[8:5],,6,,5,5,4/7,,
{8}6,6,5,5,4,3h[8:1]/5h[8:1],,,
{8}2h[1:1]/4,,3,,4,4,3,,
{8}4h[4:1],,3,,2/4,3/5,4/6,5/7,
{8}8,1/8,2,1/2,7,7/8,1,2/8,
{8}3/4,5/6,7/8,1/2,3/4,5/6,7/8,1,
{8}2b/6b,,,,,4x/5x,4x/5x,,
{1}4qq5[2:1],
{1}5pp4[2:1],
{8}1/8,1/8,2/7,2/7,3/6,3/6,4-1[8:1]/5,,
{4},,4b/5b,2b/7b,
{8}5/6,3/5,1/2,3/4,4/6,7/8,5/6,3/5,
{8}1/2,3/4,4/6,7/8,5/6,4b/7b,,1/2,
{8}1-5[8:1]/2-5[8:1],,,,7-4[8:1]/8-4[8:1],7/8,,,
{8}1-4[8:1],1,5x-8[8:1],5x,4x,,3/7,2/8,
{8}2<7[8:1]/8,,,6x,6x>3[8:1],,,2x,
{8}2xh[4:1],1,1,2/8,3/7,,4/5,4/5,
{8}3,2/4,1,2/8,3,4/5,6,5/6,
{8}5/6,8,3-8[8:1]/4-7[8:1],3/4,,,1/6,7,
{8}7<4[8:1],,,1,1>4[8:1],,,6h[4:1],
{8}5x,3h[4:1],4,7h[8:1],5-1[8:1],,8,,
{8}3-8[8:1]/7-4[8:1],,,,2/6,3/7,4/8>7[2:1],,
{4},,,1x/8x,
{1}C1f/B3/E3/B6/E7,
{1},
{1},
{1},
E
&inote_5=
(106){1},
{24}6h[4:1],,,,,,E5,,,,,4,5,,,5,,,E5,,,4,,,
{24}3h[4:1],,,,,,E5,,,,,5,4,,,4,,,E5,,,5x,,,
{24}6xh[4:1],,,,,,E5,,,,,4,5,,,5,,,E5,,,4,,,
{24}3h[4:1],,,,,,E5,,,,,,2-5[12:1]/6-4[12:1],,,7x,8x,1x,2x/6x,,,,,,
{24}8,,8,5,,5,7,,7,3,,3,6,,6,4,,5h[24:1]/7h[24:1],,,4/8,,,5,
{24}6,,6,4>1[12:1]*<7[12:1],,4,5,,,,,,,,1,8,,8,3,,3,5h[8:1],,,
{24}1,,1,4,,4,2,,2,6,,6,3,,3,5,,2h[24:1]/4h[24:1],,,1/5,,,4,
{24}3,,3,5v2[12:1]*v8[12:1],,5,4,,,,,,,,8,1,,1,6,,6,4h[8:1],,,
{24}1b,,,,,,,,,,,,,,,,,,,,,,,1,
{24}8h[8:1],,,2,,,3h[8:1]/6,,5,5,,2/6,,,5,4,,,3<5[8:1]/6,,,2,,7,
{24}7,,,8,,,3<6[8:1]/6,,,2,,7,7,,,8,,,3/6h[8:3],,,,,4,
{24}4,,,2h[4:1],,4,4,,,6h[4:1],,5,5<8[12:1],,,3h[4:1],,,,,,,,,
{24}2/6,,,3/7,,6,4,,3,5,,6,5/6,,4/7,,,2,8,,7,1,,2,
{24}8,,7,1,,2-6[12:1],8-4[12:1],,7,1,,2x,8x,,,,,,3h[8:3]/6,,,,,5,
{24}5,,,7h[4:1],,5,5,,,3h[4:1],,4,4>1[12:1],,,6h[4:1],,,,,,,,,
{24}3h[8:1]/7h[8:1],,,,,1,8,,8,1,,2/7,,,6,4,,3,5pp1[8:3],,6,4,,,
{2}4h[4:7],E5,
{24}E4,,,,,,,,,,,,E6,,,,,,,,,,,7,
{8}1x-5[12:1],8x-4[12:1],1x-3[12:1],8x-6[12:1],1x-5[12:1],8x-4[12:1],1x,8x,
{48}3,,,,2x/4x,,,,,,4,5,4,,,,,,5x/7x,,,,5x/7x,,,,,,,,,,,,,,2b-6[12:1]/6b,,,,,,,,,,,,
{8}2/7v4[12:1],8,3-1[12:1]/7,2,3/5v8[12:1],6,2<7[12:1]/5,3,
{8}2/6-2[12:1],5,1-5[12:1]/6,8V64[6:1],1x,8x,,3,
{24}4/6<3[4:1],,,3/5,,4,4,,,,,5,5,,,4,,,3/6,,,4qq4[8:1]/5,,,
{24}4pp4[8:1]/5,,,,,,,,,8x,,,8-4[12:1]*<5[12:1],,2x/6x,,,,8-2[12:1],,,,,,
{8}3-5[12:1]/8,4,3/7-1[12:1],8,3-6[12:1]/7,4,3/7-2[12:1],8,
{8}3>8[12:1]/7,4,3/5-8[12:1],4V28[6:1],5x,4x,,1,
{24}4/5,,,6,,6,5pp4[4:1],,,4,,,3,,,3,,,3,,,2/5,,2/5,
{24},,1,8,,8,2,,2,4,,4,5p4[4:1],,5,7,,,,,,,,,
{24}C1,,,,,,1/8,,,,,6,5-3[12:1],,5,7h[8:1],,,5,,,,,,
{24}2h[24:5]/6h[24:5],,,,,,E3/E6,,,,,3,4-6[12:1],,4,2h[8:1],,,4,,2x,,,,
{24}3h[24:5]/7h[24:5],,,,,,E4/E7,,,,,6,5-3[12:1],,5,7h[8:1],,,5,,,,,,
{8}2h[8:1]/6,6,3/7,3/7,4>1[8:1]/8<5[8:1],2/6,,,
{24}1h[8:1]/5,,,4,,,6,,6,4,,3/5,,,3,5,,6,4,,3/5,3/5,,,
{24}4/8h[8:1],,,5,,,3,,3,5,,4/6,,,7,5,,2,4>1[12:1]*<7[12:1],,3x/5x,3x/5x,,,
{24},,,,,8,1,,1,8,,8,7,,7,6,,6,5,,5,4,,4,
{24}3,,3,2,,2,1,,1,8,,8,7,,,4/5,,,3,,3/5,,,,
{24}4/7h[24:5],,,,,1,8,,8,2,,2,1,,1,3,,3,6>4[12:1],,,,,,
{8}8<6[12:1],1,2<8[12:1],3,4>2[12:1],5,6,6,
{8}3/5,3/5,3/5,3/5,2h[12:1]/6h[12:1],2h[12:1]/6h[12:1],2h[12:1]/6h[12:1],2h[12:1]/6h[12:1],
{24}1b,,6,5,,5,4/6,,,8b,,3,4,,4,3/5,,6,5/7,,3,2h[8:1]/4,,,
{24}C1,,,,,,,,,,,,,,,B5,B6,B4,B3,,,,,,
{4}7h[1:1],E5,,E5,
{4}2h[1:1],E5,,E5,
{8}5,5,3/6,3/6,2/7,2/7,4-1[12:1]/5-8[12:1],1/8,
{24},,,,,,,,,,,1,8,,3b/7b,,,5,4>1[12:1],,2b/6b,,,,
{8}4/7v4[12:1],8,3pp5[12:1],2,3/7>2[12:1],8,4-2[12:1]/7,5,
{8}4/6-3[8:1],5,1-5[12:1]/6,8V64[6:1],1x,8x,,3,
{24}4/5,,,7,,7,6h[12:1]/8h[12:1],,,1h[12:1]/7h[12:1],,,2h[12:1]/8h[12:1],,,1h[12:1]/3h[12:1],,,2h[12:1]/4h[12:1],,,2/4,,1,
{24}8,,8,2,,2,4,,4,5,,5,6,,4/7h[8:1],,,2,2/6<3[6:1],,,4,,,
{8}4,5-2[12:1],6,7-4[12:1],8,1-6[12:1],2,3-8[12:1],
{8}4,5,5-2[12:1]*-8[12:1],4/6,5x,,6,5-8[12:1],
{8}4,3-6[12:1],2,1,1<6[12:1]*>4[12:1],2/8,,,
{8}3/7h[8:1],5h[8:1],4h[8:1],2h[8:1],C1f/B4/B5,,8<3[6:1],8,
{8}2,1-6[12:1],2,3-8[12:1],4,5-2[12:1],6,7-4[12:1],
{8}8,1,1p4[12:1]*q6[12:1],2/8,,,2h[8:1]/8,4h[8:1],
{24}5h[8:1],,,7h[8:1],,,1<5[8:1]*>1[4:1],,,1,,,1x,,,,,,,,,,,3,
{24}4,,4,,,6,5,,5,7,,4/8,,,2/6,,,3/7,3-5[12:1]/7-4[12:1],,,2,1,8,
{1}3b/7b,
{1},
{1},
{1},
E
