&title=廻廻奇譚
&wholebpm=185
&artist=Eve TVアニメ「呪術廻戦」第1クールオープニングテーマ
&des=緑風 犬三郎
&shortid=11369
&genre=POPSアニメ
&cabinet=DX
&version=maimai DX UNiVERSE
&chartconverter=Neskol
&lv_2=4
&des_2=
&lv_3=7
&des_3=
&lv_4=9+
&des_4=はっぴー
&lv_5=11+
&des_5=緑風 犬三郎
&lv_6=13
&des_6=シチミヘルツ
&inote_2=
(185){1},
{1},
{1},
{1},
{1},
{4},,,2,
{4},,,2,
{4},,,1,
{4},,,1,
{4},,,8,
{4},,,8,
{4},,,7,
{4},,,7-4[4:3],
{1},
{1},
{2}4,4,
{1}4,
{2}3,3,
{1}3,
{2}2,2,
{1}2,
{2}1,1h[2:1],
{1},
{2}8,8,
{1}8,
{2}7,7,
{1}7,
{2}6,6,
{1}6,
{2}5,5,
{2}4x/5x,4x/5x,
{1}4x-1[4:3],
{1},
{1}8-5[4:3],
{1},
{1}4x-1[4:3],
{1},
{1}8h[4:3],
{4},,,1x,
{4}1x,,,2,
{4}2,,,3,
{4}3,,,4,
{4}4,,,5,
{4}5,,,6,
{4}6,,,7,
{4}7,,,1x/8x,
{4}1x/8x,,,7,
{4}7,,,6,
{4}6,,,5,
{4}5,,,4,
{4}4,,,3,
{4}3,,,2,
{4}2,,,1,
{4}1,,,8,
{4}8,,,1,
{1}1-4[4:3],
{1},
{1}8-5[4:3],
{1},
{2}1,1,
{2}8,7-3[4:3],
{1},
{1},
{4},1x,,2x,
{4},3x,,4x,
{4},5x,,6x,
{4},7x,,8x-4[4:3],
{1},
{1},
{1},
{1}3h[4:3],
{1},
{1}4h[4:3],
{1},
{1}5h[4:3],
{1},
{1}B6,
{1}B7,
{1}B8,
{1}B1,
{1}B2,
{1}B3,
{1}C1hf[4:3],
{4},,,1x,
{4}1,1,,2,
{4}2,2,,3,
{4}3,3,,4,
{4}4,4/5,,5,
{4}5,5,,6,
{4}6,6,,7,
{4}7,7,,8b,
{4},,,8,
{4}8,1/8,,7,
{4}7,7/8,,6,
{4}6,5/6,,4,
{4}4,4/5,,3,
{4}3,3/4,,2,
{4}2,1/2,,8,
{4}8,8,,1x,
{1}1x,
{1}2-6[4:3],
{1},
{1}7-3[4:3],
{1},
{2}2,3,
{2}4,5-8[4:3],
{1},
{1},
{4},7,,7,
{4},8,,8,
{4},1,,1,
{4},2,,2-6[4:3],
{1},
{1},
{1},
E
&inote_3=
(185){1},
{1},
{1},
{4}3,4,5,6,
{4}4/5,4/5,3b/6b,,
{4},,2,2,
{4}1/2,,7,7,
{4}7/8,,2,2,
{4}1/2,,8,8,
{4}1/7,,6,6,
{4}5/6,,3,3,
{4}3/4,,6,6,
{4}5/6,,4,4,
{4}5,5,4h[1:1]/5h[1:1],,
{1},
{2}B2,B3,
{2}B4,B5,
{2}B6,B7,
{2}B8,B1,
{2}B3/B4,B5/B6,
{2}B7/B8,B1/B2,
{2}B3/B4,B5/B6,
{1}C1f,
{4}2xh[4:1],1,1,,
{4}7h[4:1],8,8,,
{4}2h[4:1],1,1,,
{2}7h[4:1]/8h[4:1],7/8,
{4}6h[4:1],5,5,,
{4}3h[4:1],4,4,,
{4}6h[4:1],5,5,,
{8}4/5,,4/5,,4/5,,3x,3x>8[2:1],
{1},
{1}7<4[2:1],
{1}3>8[2:1],
{4}7,7,1/8,,
{1}C1f,
{4},,4,5,
{4}4/5,4/5,3/6,2b/7b,
{4},,,1x/8x,
{4}2,2,1/2,1/2,
{4}7,7,7/8,7/8,
{4}6,6,5,5,
{4}4,4,3/5,,
{4}2,2,1/2,,
{4}7,7,7/8,,
{4}1,1,1/8,2x/7x,
{4},,4x/5x,4x/5x,
{4}6,6,5/6,5/6,
{4}3,3,3/4,3/4,
{4}2,2,1,1,
{4}8,8,7,7,
{1}6<1[2:1],
{1}2>5[2:1],
{4}6,5,4,3,
{4}2,1,8,7,
{1}6<1[2:1],
{1}2q6[2:1],
{1}7p3[2:1],
{1}2>5[2:1],
{4}6,6,7,7,
{4}8,8,1,1,
{1}2h[8:9]/7h[8:9],
{8},,,,1x/8x,1x/8x,,,
{4}2x,2x,1x/2x,,
{4}7,7,7/8,,
{4}6,6,5/6,,
{8}3,,3,,4/5,,3x/6x,3x/6x,
{1},
{1}8<3[1:1],
{1},
{1}1>6[1:1],
{1},
{1}8<3[1:1],
{1},
{1}1x>6[1:1],
{1},
{2}7h[2:1],8h[2:1],
{2}1h[2:1],2x,
{2}3h[2:1],4h[2:1],
{2}5h[2:1],6,
{2}7h[4:1]/8h[4:1],7/8,
{4}1h[4:1]/2h[4:1],,1/2,1/2,
{4}3,4,4/5,3b/6b,
{4},,,1x/8x,
{4}7,7/8,7,7/8,
{4}2,1/2,2,1/2,
{4}3,3,4,4,
{4}5,5,4/6,,
{4}7,7,7/8,,
{4}2,2,1/2,,
{4}8,8,1/8,2x/7x,
{4},,4x/5x,4x/5x,
{4}3,3/4,3,3/4,
{4}6,5/6,6,5/6,
{4}7,7,8,8,
{4}1,1,2,2,
{1}3>8[2:1],
{1}7<4[2:1],
{4}3,4,5,6,
{4}7,8,1,2,
{1}3>8[2:1],
{1}7p3[2:1],
{1}2q6[2:1],
{1}7<4[2:1],
{4}3,3,2,2,
{4}1,1,8,8,
{1}2h[8:9]/7h[8:9],
{8},,,,1x/8x,1x/8x,,,
{4}7x,7x,7x/8x,,
{4}2,2,1/2,,
{4}3,3,3/4,,
{8}5,,5,,5,,4x/5x,4xh[8:13]/5xh[8:13],
{1},
{1},
{1},
{1},
E
&inote_4=
(185){1},
{1},
{1},
{8}3/5,3/5,,4/6,4/6,,3/5,3/5,
{16},,4/6,,4/6,,,,3x/5x,,,2x/6x,,,2x/6x,,
{4},,7h[4:1],5,
{4}4,3/5,2h[4:1],4,
{4}5,4/6,7h[4:1],5,
{8}4,,3/5,,2,,1,1,
{4}8,3/7,2h[4:1],4,
{4}5,4/6,7h[4:1],5,
{4}4,3/5,2h[4:1],4,
{8}5,,3/6,3/6,,4/5,4/5,,
{4}1/8<1[1:1],C1f,,,
{1},
{4}3xh[2:7]/5x,5,5,5,
{4}4,4,4,4,
{4}5,5,5,4,
{4}6,4,5,5,
{4}4/6h[4:7],4,4,4,
{4}5,5,5,5,
{16}4x/6x,,,3xh[16:3]/7xh[16:3],,,,,3x/7x,,,,8,,8h[4:1],,
{8},1,1,,2x/7x,2x/7x,,,
{4}6,5/7,8,1/2,
{4}3,2/4,1,7/8,
{4}6,5/7,8,1/2,
{8}3,,4,4,5,,4/6,,
{4}3,2/4,1,7/8,
{4}6,5/7,8,1/2,
{4}3,2/4,1,7/8,
{8}6,,5,5,4,,3/6,3/6,
{8},4/5,4/5,,6>3[4:1],,,,
{8}1,,1,,2/8,,3/7,3/7,
{8},4x/6x,4x/6x,,3<6[4:1],,,,
{4}8,8,1/7,2/6<4[1:1],
{1}C1f,
{4},,,4/5,
{8}3h[4:1]/7h[4:1],,,2h[4:1]/6h[4:1],,,3h[4:1]/7h[4:1],,
{8},2x/6x,2x/6x,,,,1/2,1-5[8:1]/2-4[8:1],
{8},,,3x/6x,3x/6x,,1/2,1-5[8:1]/2-4[8:1],
{8},,,3x/6x,3x/6x,,7,7h[4:1],
{8},5,5h[4:1],,4h[4:1],,2,2,
{16},,1/8,,1/8,,,,2h[16:3],,,3h[16:3],,,4,,
{16},,5,,5,,,,7h[16:3],,,6h[16:3],,,5,,
{8},4,4,,3/5,,2/6,2/6,
{8},1,1h[4:1],,4-8[8:1],,,,
{8},,,4/5,4/5,,7/8,7-5[8:1]/8-4[8:1],
{8},,,3x/6x,3x/6x,,7/8,7-5[8:1]/8-4[8:1],
{8},,,3x/6x,3x/6x,,1,1h[4:1],
{8},8,8,,2/3,,4/5,,
{4}6/7,1/8,2/3,4>1[4:1]/5<8[4:1],
{8},,,,,1x/8x,1/8,,
{8}2/7,2/7,,6,6h[2:1],,5,,
{4}3h[2:1],4,7h[2:1],6,
{4}2h[2:1],3,5,5-2[4:1]*-8[4:1],
{4},,1,1h[4:3],
{4},4,4,5,
{4}6h[4:3],5,4,3,
{4}2,1>4[4:1]/8<5[4:1],,,
{8}3xh[4:1]/6xh[4:1],,,4h[4:1]/7h[4:1],,,2h[4:1]/5h[4:1],,
{8},3/6,3/6,,8,8>6[4:3],,,
{1},
{8},4/6,4/6,,3/5,3/5,,8b,
{8},2,2,4,,3/5,,4/6,
{8},7h[4:1],,5,5,,3,3/5,
{8},6,6h[4:1],,4,,1,1h[4:1],
{8},8,8,,4>1[4:1]/5<8[4:1],,,,
{1},
{1}C1f,
{1},
{8}4,,,5,,,6h[4:11],,
{1},
{8}5,,,4,,,3h[4:11],,
{1},
{8}4,,,5,,,6h[4:3],,
{1},
{2}4,3h[4:3]/5,
{4},4,5,,
{2}5,4/6h[4:3],
{4},5,4,,
{2}4,3h[4:3]/5,
{4},4,2/5,2/5,
{8}4h[4:1]/7h[4:1],,,2h[4:1]/5h[4:1],,,3h[4:1]/6h[4:1],,
{8},2x/7x,2x/7x,,,,4/5,4-2[8:1]/5-1[8:1],
{8},,,3/8,3/8,,4/5,4-8[8:1]/5-7[8:1],
{8},,,1/6,1/6,,2,2h[4:1],
{8},4,4h[4:1],,5h[4:1],,7,7,
{16},,1/8,,1/8,,,,7h[16:3],,,6h[16:3],,,5,,
{16},,4,,3/5,,,,2h[16:3],,,3h[16:3],,,4,,
{8},5,4/6,,3/7,,2/8,2/8,
{8},7,7h[4:1],,5-1[8:1],,,,
{8},,,3/6,3/6,,4/5,4-2[8:1]/5-1[8:1],
{8},,,3/8,3/8,,4/5,4-8[8:1]/5-7[8:1],
{8},,,1/6,1/6,,8,8h[4:1],
{8},1,1,,6/7,,4/5,,
{4}2/3,1/8,6/7,4>1[4:1]/5<8[4:1],
{8},,,,,1x/8x,1/8,,
{8}2/7,2/7,,3,3h[2:1],,4,,
{4}6h[2:1],5,2h[2:1],3,
{4}7h[2:1],6,4,4v1[4:1]*v7[4:1],
{4},,8,5-2[4:1]/6-1[4:1],
{2},1-6[4:1]/2-5[4:1],
{4},8,7,6,
{4}5,4,3/6,,
{8}2h[4:1]/7h[4:1],,,3h[4:1]/8h[4:1],,,1h[4:1]/6h[4:1],,
{8},2/7,2/7,,1,1<3[4:3],,,
{1},
{8},3/5,3/5,,4/6,4/6,,1b,
{8},7,7,5,,4/6,,3/5,
{8},2h[4:1],,4,4,,6,4/6,
{8},3,3h[4:1],,5,,8,8h[4:1],
{8},1,1,,4/5<4[4:7],,C1f,,
{1},
{1},
{1},
{1},
E
&inote_5=
(185){1},
{1},
{1},
{8}1-5[8:1],,6,6,,8,8-4[8:1],,
{16}3,,3,,,,1/5,,1/5,,,2/6,,,3/7,,
{8},,,,7-3[8:1],,2,2h[4:1],
{8},5,,4/7,,2/5,,8,
{8}8<5[8:1],,1,1>4[8:1],,5,5-8[8:1],,
{8}4-1[8:1],,7,7h[4:1],,5,5h[4:1],,
{8}4,,3/6,,2-6[8:1],,7,7h[4:1],
{8},4,,2/5,,4/7,,1,
{8}1>4[8:1],,8,8<5[8:1],,4,4-1[8:1],,
{8}5-8[8:1],,2,2h[4:1],,4,4h[4:1],,
{8}5,,3q5[1:1]/6,3/6,,,,,
{1},
{4}4/6h[4:1],3,3h[4:1]/5,6,
{4}5/6h[4:1],4,3h[4:1]/4,5,
{4}4/7h[4:1],3,2h[4:1]/5,6,
{4}5/7h[4:1],4,2h[4:1]/4,5,
{4}4/6h[4:1],3,3h[4:1]/5,6,
{4}5/6h[4:1],4,3h[4:1]/4,5,
{16}4x/6x,,,3x/5x,,,2x/4x,,2x/4x,,,,1/8,,1/8,,
{8},4/5,4/5,,3b/6b,3b/6b,,,
{8}4/5,3,4,2,6,5,7,2,
{16}2h[16:3],,,3h[16:3],,,4,,4/5,,4-8[8:1]/5,,,,7-3[8:1],,
{8},2-5[8:1],,8,8,4/7,,3<6[8:1],
{8},8,8-5[8:1],,4-1[8:1],,5x,,
{8}1x/5,6,5,7,3,4,2,7,
{8}7-3[8:1],,1,1>4[8:1],,5,5<8[8:1],,
{8}1,1>4[8:1],,5,5<8[8:1],,1,1-5[8:1],
{8},6,6,,5-1[4:1]/7-3[4:1],,,,
{16},,,,3/5,,,6,5,,5,,4/7h[4:1],,,,
{16}3,,,,4/6,,,3,4,,4,,2h[4:1]/5,,,,
{16}4,,,,3/5,,,6,5,,5,,4/7h[4:1],,,,
{4}3h[4:1],1h[4:1],8h[4:1],6h[4:1],
{1}C1f,
{16},,,,,,4,5,4,,3x/6x,,3x/6x,,,,
{8}2/7,,7/8,1/6,,1/2,3/8,3/8-4[8:1],
{8},1b,1b,,,,2/7,1-4[8:1]/8-5[8:1],
{8},1x/8x,,3/6,3/6,,2/7,1-4[8:1]/8-5[8:1],
{8},1x/8x,,3/6,3/6,,7,7h[4:1],
{8},5,5-1[8:1],,8-3[8:1],,2,2-6[8:1],
{16},,5x,,5x,,,,4/6,,,3/7,,,2/8-4[8:1],,
{16},,3,,3h[4:1],,,,5,,,2/6,,,1-5[8:1]/7,,
{8},6,6h[4:1],,4,,3/7,3/7,
{8},1,1-5[8:1],,1/6<3[8:3],,C1f,,
{8},,,4/5,4/5,,2/7,1-5[8:1]/8-4[8:1],
{8},1x/8x,,3/6,3/6,,2/7,1-5[8:1]/8-4[8:1],
{8},1x/8x,,3/6,3/6,,2,2h[4:1],
{8},4,4<8[4:1],,8>4[4:1],,4<8[4:1],,
{8}8>4[4:1],,4,,8,,2/6,2-6[8:1]/6,
{8},7,7-3[8:1],,4-1[8:1],,8-5[8:1],,
{8}1x,1x,,2,2>6[4:1],,6<2[4:1],,
{8}2>6[4:1],,6,,7,,8,8-4[8:1],
{8},3-7[8:1],,6-2[8:1],,4-1[8:1],,5h[8:5],
{8},,,,2,2pp5[8:5],,6h[8:3],
{8},,,,8,8-5[8:1],,2h[8:3],
{4},4h[4:1],5h[4:1],7h[4:1],
{8}2,,4>1[8:1]/5<8[8:1],,,,,6,
{8}5/7,,3,2/4,,6,5/7,,
{8}3,2/4,5,4/6,3/7,3<6[8:7]/7>2[8:7],,,
{1},
{8},1/8,3/6,,4/5,2-5[8:1]/7-4[8:1],,2x/7x,
{8},,2,2h[4:1],,5,,4/7,
{8},2/5,,8,8<5[8:1],,1,1>4[8:1],
{8},5,5-8[8:1],,4-1[8:1],,7,7h[4:1],
{8},5,5h[4:1],,4,,3/6p4[1:1],3/6,
{1},
{1}C1f,
{1},
{8}E5,,,C1xh[8:3],,,E1,,
{1},
{8}E7,,,C1xh[8:3],,,E3,,
{1},
{8}E3,,,C1xh[8:3],,,E7,,
{1},
{8}7h[8:3],,,5h[8:3],,,4<7[4:1],,
{2},3,
{8}2h[8:3],,,4h[8:3],,,5>2[4:1],,
{2},6,
{8}3h[4:1],,1,1h[4:1],,8h[4:1],,6h[4:1],
{8},3,,5,5,,4/7,4/7,
{8},1/5,1/5,,3-8[8:1]/7-4[8:1],,,,
{8},2b/6b,2b/6b,,,,3/8,1-6[8:1]/2-5[8:1],
{8},1x/2x,,4/7,4/7,,3/8,1-6[8:1]/2-5[8:1],
{8},1x/2x,,4/7,4/7,,8,8h[4:1],
{8},5,5-2[8:1],,7-3[8:1],,1,1-4[8:1],
{16},,8x,,8x,,,,1/7,,,2/6,,,3/5-1[8:1],,
{16},,2,,2h[4:1],,,,8,,,3/7,,,4-8[8:1]/6,,
{8},7,7h[4:1],,1,,2/6,2/6,
{8},8,8-4[8:1],,3>6[8:3]/8,,C1f,,
{8},,,4/5,4/5,,1/6,7-3[8:1]/8-4[8:1],
{8},7x/8x,,2/5,2/5,,1/6,7-3[8:1]/8-4[8:1],
{8},7x/8x,,2/5,2/5,,1,1h[4:1],
{8},4,4<8[4:1],,8>4[4:1],,4<8[4:1],,
{8}8>4[4:1],,4,,8,,3/7,3/7-3[8:1],
{8},2,2-6[8:1],,5-8[8:1],,1-4[8:1],,
{8}8x,8x,,7,7V53[4:1],,3V17[4:1],,
{8}7V53[4:1],,3,,2,,1,1-5[8:1],
{8},6-2[8:1],,3-7[8:1],,5-8[8:1],,4h[8:5],
{8},,,,7,7qq4[8:5],,3,
{8},2,2,,1,1-4[8:1],,7h[8:3],
{4},5h[4:1],4h[4:1],2h[4:1],
{8}7,,4>1[8:1]/5<8[8:1],,,,,3,
{8}2/4,,7,6/8,,2,1/3,,
{8}6,5/7,4,3/5,2/6,2<7[8:7]/6>3[8:7],,,
{1},
{8},1/8,3/6,,4/5,2-5[8:1]/7-4[8:1],,2x/7x,
{8},,6,6h[4:1],,1,,3/8,
{8},1/6h[4:1],,4,4>1[8:1],,5,5<8[8:1],
{8},1,1-4[8:1],,8-5[8:1],,3,3h[4:1],
{8},1,1,,4>5[2:3]/8,,C1f,,
{1},
{1},
{1},
{1},
E
&inote_6=
(185){1},
{4},3p7[4:5]/4v7[4:5],,,
{1},
{8}4/6,5,4,3/5,,6,5/7,,
{16}3,,2/4,,1,,8,,5h[8:1]/7h[8:1],,,2h[8:1]/4h[8:1],,,4/5,,
{8},,,,1-5[8:1],,8,8,
{8},2<7[4:1],,7<4[4:1],,4>1[4:1],,1,
{8}8,7,6,6-3[8:1],,1,1-4[8:1],,
{8}5,6,7,8-5[8:1],,4,3,2,
{8}1,7,2,8,8-4[8:1],,1,1,
{8},7>2[4:1],,2>5[4:1],,5<8[4:1],,8,
{8}1,2,3,3-6[8:1],,8,8-5[8:1],,
{8}4,3,2,1-4[8:1],,5,6,7,
{8}8,2,7,1bq4[8:11],,,,,
{1},
{4}6h[2:7],B5,E4,B4,
{4}E6,B5,E4,B4,
{4}B6,E5,B3,E5,
{4}B7,E1,B2,4/6,
{4}3h[2:5],B4,E6,B5,
{4}B2,E4,E3,B4,
{8}E6,,C1,,E2,,4/8,4/8,
{16},,7,5,6,,6,,3/5,,4/6,,,,,,
{8}3/4,2,2-4[8:1],,5,5-7[8:1],,4,
{8}4V25[2:1],,1,,8,8,,7-5[8:1],
{8},4,4-2[8:1],,5,5-8[8:1],,1,
{8},2,1,3,8,4,7,5/6,
{8},7,7-5[8:1],,4,4-2[8:1],,5,
{8}5V74[2:1],,1,1,,2,2-4[8:1],,
{8}5,5-7[8:1],,4,4-1[8:1],,8,8,
{8},7,8,6,1,5<4[2:1],2,2b,
{8},,,,1,1,2-7[8:1],,
{8}5,5,6-3[8:1],,1,1,2,2<3[8:3],
{8},5,,,8,8,7-2[8:1],,
{8}3,3,4-1[8:1],,8,8,7,1,
{1}C1f,
{16},,,,,,3,4,3,,2/5,,3,,6,,
{8}5/7,,3,2/4,,4/5,3/6,C1f/1b,
{8},,,7/8,6,1v6[8:1]/2q6[8:1],3,1/2,
{8},4/8,,7/8,6,1v6[8:1]/2q6[8:1],3,1/2,
{8},4/8,,2-7[8:1],6-3[8:1],2,6,1>4[8:1],
{8},6,6<1[8:1],,5,5-8[8:1],,1h[4:1],
{16},,8,,2/7,,,,3/4,,,1v4[8:1]/5q1[8:1],,,1/5,,
{16},,3x/7x,,2/6,,,,1/5,,,3v6[8:1]/7q3[8:1],,,3/7,,
{8},4x/8x,3/7,,1p5[8:1],5v2[8:1],1,7x,
{8},8,4,7,3,2-5[8:1]/6-1[8:1],1/5,2/6,
{8},3b/7b,,1/2,3,7p3[8:1]/8v3[8:1],6,7/8,
{8},1/5,,1/2,3,7p3[8:1]/8v3[8:1],6,7/8,
{8},1/5,,7-2[8:1],3-6[8:1],7,3,8,
{16},,1/2,,3/8,,,2,2h[16:3],,,4,4h[16:3],,,5,
{16}5h[16:3],,,7,7h[4:1],,,1,1,,2/6,,3/7,,4b/8b,,
{8},7/8,1/6,2/5,3/4,2,2-5[8:1],6-1[8:1],
{8}2,6,,3,4,5,3,4,
{8}1/2,3/8,4/7,7/8,1/6,2/5,3/4,2p6[8:1]/6v3[8:1],
{8},2/6,,1p5[8:1]*v4[8:1]/5,,1>7[4:1],,C1f,
{8},,1,2/8x,,3,2/4,,
{16}6,,5/7,,,,4/5,,3,4,3,4,3,4,3,4,
{8}2b,,6,5/7,,3,2/4,,
{16}8,,1/7,,,,3,4,3,,4/5,,3/7b,,,,
{8}2/4,1,8,5/7,8,1,2/4,,
{8}4/7,5,6,3,4,1s5[1:1],2,1b,
{1},
{8},4/8,3/7,,1/5,3v8[8:1]/7,,5h[8:3],
{8},,1,2/6,,7>2[4:1],,2>5[4:1],
{8},5<8[4:1],,8,1,2,3,3-6[8:1],
{8},8,8-5[8:1],,4,3,2,1-4[8:1],
{8},5,6,7,8,2,7,1bq4[8:7],
{1},
{1}C1f,
{1},
{16}C1,,,,,,E7,,,,,,E5,E4,E3,,
{1},
{16}C1,,,,,,E3,,,,,,E5,E6,E7,,
{1},
{16}C1,,,,,,E7,,,,,,E5,E4,E3,,
{1},
{8}5,,,5,6>3[4:3],,,,
{2},6,
{8}5,,,5,6>3[4:3],,,,
{2},6,
{8}4,,,4,3<6[4:3],,,,
{8},,,,3,3,4/7,,
{8}2/4,,6,5/7,,4/5,3/6,C1f/1b,
{8},,,1/2,3,7v4[8:1]/8q4[8:1],6,7/8,
{8},2/6,,1/2,3,7v4[8:1]/8q4[8:1],6,7/8,
{8},2/6,,7>2[8:1],3<6[8:1],7,3,8-5[8:1],
{8},3,3-7[8:1],,4,4-1[8:1],,8h[4:1],
{16},,1,,2/7,,,,5/6,,,4p8[8:1]/8v5[8:1],,,4/8,,
{16},,2x/6x,,3/7,,,,4/8,,,2p6[8:1]/6v3[8:1],,,2/6,,
{8},1x/5x,2/6,,8q4[8:1],4v7[8:1],8,2x,
{8},1,5,2,6,3>8[8:1]/7<4[8:1],4/8,3/7,
{8},2b/6b,,7/8,6,1p5[8:1]/2v5[8:1],3,1/2,
{8},3/7,,7/8,6,1p5[8:1]/2v5[8:1],3,1/2,
{8},3/7,,2<7[8:1],6>3[8:1],2,6,1,
{16},,7/8,,1/6,,,7,7h[16:3],,,5,5h[16:3],,,4,
{16}4h[16:3],,,2,2h[4:1],,,8,8,,3/7,,2/6,,1b/5b,,
{8},1/2,3/8,4/7,5/6,7,7<4[8:1],3>8[8:1],
{8}7,3,,6,5,4,6,5,
{8}7/8,1/6,2/5,1/2,3/8,4/7,5/6,3v6[8:1]/7q3[8:1],
{8},3/7,,4/8q4[8:1]*v5[8:1],,8<2[4:1],,C1f,
{8},,1x,1x-4[8:1],,6,7>2[8:1],,
{16}4,,5h[8:3],,,,,,3,4,3,4,3,4,3,4,
{8}2b,,8,7-4[8:1],,3,2<7[8:1],,
{16}5,,4h[4:1],,,,6,5,6,,8,,2b/6,,,,
{8}4/7,3,4,2/5,6<1[8:1],5,2h[8:3],,
{8},4,3,6,5,8z4[1:1],7,8b,
{1},
{8},1/5,2/6,,4/8,2/6v1[8:1],,4h[8:3],
{8},,8,3/7,,2<7[4:1],,7<4[4:1],
{8},4>1[4:1],,1,8,7,6,6-3[8:1],
{8},1,1-4[8:1],,5,6,7,8-4[8:1],
{16},,3x,,3x,,3x,2,1,8,7,6,5,4,3/7bq3[8:11]*v4[8:11],,
{1},
{1},
{1},
{1},
E
