&title=噛み係
&wholebpm=148
&artist=さつき が てんこもり feat.96猫
&des=サファ太
&shortid=11297
&genre=maimai
&cabinet=DX
&version=maimai DX UNiVERSE
&chartconverter=Neskol
&lv_2=2
&des_2=
&lv_3=7+
&des_3=
&lv_4=10+
&des_4=サファ太
&lv_5=13
&des_5=サファ太
&des_6=
&inote_2=
(148){1},
{2}1,1,
{1}1,
{1}1h[1:1],
{1},
{2}8,8,
{1}8,
{1}8h[1:1],
{1},
{2}1b,1,
{2}2,2,
{2}3x,3,
{1}4x/5x,
{2}5b,5,
{2}6,6,
{2}7x,7,
{1}1/8,
{2}8b,8,
{2}7,7,
{2}6x,6,
{2}4/5,4x/5x,
{2}4b,4,
{2}3x,3,
{2}2,2,
{2}1/8,1x/8x,
{1}1-4[4:3],
{1},
{1}8-5[4:3],
{1},
{1}1-5[4:3],
{1},
{1}8-4[4:3],
{1},
{1}B1,
{1}B2,
{1}B3,
{1}B4,
{1}B5,
{1}B6,
{1}B7,
{1}C1hf[1:1],
{1},
{4}8b,8,8,,
{2}7,7,
{4}6x,6,6,,
{2}4/5,4x/5x,
{4}4b,4,4,,
{2}3,3,
{4}2x,2,2,,
{2}1/8,1/8,
{4}1b,1,1,,
{4}2,2,2,,
{4}3x,3,3,,
{4}4,4,4/5,,
{4}5b,5,5,,
{4}6,6,6,,
{4}7,7,7,,
{4}8,8,1/8,,
{1}2h[1:1],
{1},
{1}1h[1:1],
{1},
{1}8h[1:1],
{1},
{1}7h[1:1],
{1},
{1}7h[1:1]/8h[1:1],
{1},
{1}1h[1:1]/2h[1:1],
{1},
{1}3h[1:1]/4h[1:1],
{1},
{1}5h[1:1]/6h[1:1],
{1},
{1}C1f,
{1}B1/B2,
{1}B3/B4,
{1}B5/B6,
{1}B7/B8,
{1}B5/B6/E7,
{1}B3/E3/B4,
{1}B1/E2/B8/E8,
{1}C1xh[1:2]/B2/B3/B6/B7,
{1},
{1},
{1},
{1},
E
&inote_3=
(148){1},
{4}3,3,3/4,,
{1}2>5[8:3],
{4}6,6,5/6,,
{1}7<4[8:3],
{4}3,3,3/4,,
{1}3>8[8:3],
{2}7x/8x,1x/2x,
{4}1/8,1/8,2/7,,
{4}6xh[2:1],,5,5,
{4}4,4,3/5,,
{4}2xh[2:1],,1,1,
{1}8-4[8:3],
{4}3xh[2:1],,4,4,
{4}5,5,4/6,,
{4}7xh[2:1],,8,8,
{4}1,1,2/8,,
{4}3b,3,4,4,
{4}5,5,4/6,,
{4}7b,7,8,8,
{4}1,1,1/8,,
{4}2b,2,1,1,
{4}8,8,1/7,,
{4}6b,6,5,5,
{2}4h[4:1]/5h[4:1],3x/6x,
{2}2h[2:1],1,
{2}7h[2:1],8,
{2}2h[2:1],1,
{2}7h[4:1]/8h[4:1],7/8,
{2}6h[2:1],5,
{2}3h[2:1],4,
{2}6h[2:1],5,
{2}3h[4:1]/4h[4:1],3/4,
{4}2,2,1,1,
{4}8,8,1/7,,
{4}6,6,5,5,
{4}4,4,4/5,,
{4}6,6,7,7,
{4}8,8,1/7,,
{4}2,2,3,3,
{1}4>1[8:3]/5<8[8:3],
{1}C1f,
{4}7xh[4:1],8,7/8,7/8,
{4}6,5,4,3,
{4}2xh[4:1],1,1/2,1/2,
{1}3v5[8:3],
{4}6xh[4:1],5,5/6,5/6,
{4}7,8,1,2,
{4}3xh[4:1],4,3/4,3/4,
{1}5-8[8:3],
{8}1b/2b,,1/2,,3,3,4,,
{8}5/6,,5/6,,7,7,8,,
{8}1b/2b,,1/2,,3,3,4,,
{4}4/5,3/6,2/7,,
{8}7b/8b,,7/8,,6,6,5,,
{8}3/4,,3/4,,2,2,1,,
{8}7b/8b,,7/8,,6,6,5,,
{1}4h[2:1]/5h[2:1],
{2}B5,B6,
{1}B7/E7,
{2}E2,B2,
{1}B3/E3,
{2}B5/E6,E7,
{1}B8/E8,
{2}B1/E2,E3,
{1}B4/E4,
{2}6h[2:1],5h[2:1],
{2}4h[2:1],3,
{2}2h[2:1],1h[2:1],
{2}8h[2:1],7,
{4}6h[4:1],5,5/6,,
{4}3h[4:1],4,3/4,,
{4}5,5,4,4,
{1}4-1[8:3]/5-8[8:3],
{1}C1f,
{1}7<4[8:3],
{4}3,3,3/4,,
{1}2>5[8:3],
{4}6,6,5/6,,
{1}7v4[8:3],
{4}3,3,3/4,,
{1}2v5[8:3],
{1}5qq2[4:5]/6pp1[4:5],
{1},
{1},
{1},
E
&inote_4=
(148){1},
{8}5h[1:1],,4,,4,,3,3,
{4}3h[1:1],4,2,4,
{4}5h[4:3],4,4,4q5[2:1],
{4},,,3/6,
{8}4h[1:1],,5,,5,,6,6,
{4}6h[4:3],5,7,5,
{8}5x/7x,,,3x,3x/4x,,,5,
{4}4/5,3/6,1-5[8:1]/8-4[8:1],,
{4}3b/6b,7h[8:1]/8h[8:1],5h[8:1]/6h[8:1],7h[8:1]/8h[8:1],
{4}4h[8:1]/5h[8:1],1h[8:1]/2h[8:1],4h[8:1]/5h[8:1],5b/7b,
{4}1b/6b,2-4[8:1],1-7[8:1],2q5[2:1],
{4}1x,,7,1/7,
{4}3b/5b,1h[8:1]/2h[8:1],3h[8:1]/4h[8:1],1h[8:1]/2h[8:1],
{4}4h[8:1]/5h[8:1],7h[8:1]/8h[8:1],4h[8:1]/5h[8:1],2b/4b,
{4}3b/8b,2-6[8:1],8-4[8:1],3>6[2:1],
{4}6x,,5x,4/5,
{4}2b/7b,5h[8:1]/6h[8:1],7h[8:1]/8h[8:1],5h[8:1]/6h[8:1],
{4}1h[8:1]/8h[8:1],3h[8:1]/4h[8:1],1h[8:1]/8h[8:1],5b/6b,
{4}4b/8b,7-5[8:1],8-2[8:1],7qq3[2:1],
{8}3x,,,,1x,1x,1x,,
{4}2b/6b,3h[8:1]/4h[8:1],1h[8:1]/2h[8:1],3h[8:1]/4h[8:1],
{4}1h[8:1]/8h[8:1],5h[8:1]/6h[8:1],1h[8:1]/8h[8:1],3b/4b,
{4}1b/5b,2/4,5/6,4/5,
{2}C1hf[2:1],B2/B7,
{2}1-4[4:1],5-8[4:1],
{4}E1,C1,E5,E4/E6,
{2}7-4[4:1],3-8[4:1],
{4}E8,C1,E4,E3/E5,
{2}1>4[4:1],6<1[4:1],
{4}E2,C1,E6,E5/E7,
{4}7h[4:1],5h[4:1],4h[4:1],2h[4:1],
{8}4,4,3,,5/6,,4/7,,
{4}5h[4:3],4,4,6,
{4}4h[4:3]/5,5,3,5,
{4}E6,B7/E7,E4,B2/E3,
{4}8p4[4:1]*q4[4:1],,,3/6,
{4}1/2h[4:3],1,3,1,
{4}7h[4:3]/8,8,6,8,
{8}6,6,5,5,4,4,3,3xh[16:3],
{16},4x,,,2x/5x,,,3x/6x,,,4x/7x,,,5x/6x,,,
{2}4xh[2:1]/5x,3-7[8:1],
{4}1b/6b,5h[8:1]/7h[8:1],1h[8:1]/2h[8:1],5h[8:1]/6h[8:1],
{4}1h[8:1]/3h[8:1],5h[8:1]/6h[8:1],3h[8:1]/4h[8:1],4b/5b,
{4}1b/8b,2-6[8:1],1-5[8:1],2pp6[2:1],
{4}7x,,8,1/7,
{4}3b/5b,4h[8:1]/6h[8:1],1h[8:1]/2h[8:1],5h[8:1]/6h[8:1],
{4}1h[8:1]/3h[8:1],5h[8:1]/6h[8:1],7h[8:1]/8h[8:1],4b/5b,
{4}1b/2b-4[8:1],8-6[8:1],1-5[8:1],8<3[2:1],
{4}4x,,2xh[4:1],1,
{4}3b/8b,5h[8:1]/6h[8:1],1h[8:1]/3h[8:1],6h[8:1]/7h[8:1],
{4}2h[8:1]/4h[8:1],7h[8:1]/8h[8:1],4h[8:1]/5h[8:1],1b/2b,
{4}4b/8b,7-4[8:1],8-3[8:1],6qq2[2:1],
{8}2x,,,,1x,1x,1x,,
{4}2b/6b,3h[8:1]/4h[8:1],6h[8:1]/8h[8:1],2h[8:1]/3h[8:1],
{4}5h[8:1]/7h[8:1],1h[8:1]/2h[8:1],4h[8:1]/5h[8:1],7b/8b,
{4}1b/5b,2/4,5/6,4/5,
{2}C1hf[2:1],B2/B7,
{8}8,8,1,1,7,7,1,1,
{8}6,6,5,5,5/6,,4/7,,
{8}5/6,5,5,5,5/7,7,7,7,
{4}7/8h[4:1],7h[4:1],6h[4:1],5,
{8}4,4,5,5,3,3,5,5,
{8}2,2,1,1,1/2,,3/8,,
{8}1/2,1,1,1,1/3,3,3,3,
{2}3-6[8:1]/4-6[8:1],7-2[8:1]/8-2[8:1],
{8}3x/4x,,3/4,,3h[4:5]/5,5,5,,
{4}4,1,4,2,
{4}7h[4:3]/8,5,6,8>6[2:1],
{4},,8x,8x,
{8}1x/2x,,1/2,,2h[4:5]/8,8,8,,
{4}1,4,5,1,
{4}8-4[8:1],3-1[8:1],5-7[8:1],4>5[4:3],
{1},
{4}C1xh[2:1],,,1b/8b,
{16}2h[16:3],,,3h[16:3],,,4,,5/6,,,,4-8[8:1]/7-4[8:1],,,,
{4},1-5[8:1]/6-1[8:1],,3x/7x,
{16}6h[16:3],,,7h[16:3],,,8,,1/2,,,,3/4-8[8:1],,,,
{4}2,1-5[8:1]/7,6,4/7,
{8}6-2[8:1],,1>6[8:3],,8x,8,8,,
{8}7-3[8:1],,4>7[8:3],,5x,5,5,,
{16}6h[16:3],,,5,,,4/7,,3h[16:3],,,4,,,2h[16:3]/5,,
{16},8h[16:3],,,6h[16:3],,,4h[16:3],,,2>8[8:9],,,C1hf[16:19],,,
{1},
{1},
{1},
{1},
E
&inote_5=
(148){1},
{24}4/5h[8:7],,,,,,4,,,,,,3,,,,,,3,,,3,5,4,
{4}6h[4:3],5,7,5,
{24}3/4h[8:7],,,,,,3,,,,,,2,,,,,,2,,,2,4,3,
{4}5h[4:3],4,6>4[8:1],,
{24}6h[8:7],,,,,,5,,,,,,4,,,,,,4,,,4,5,3,
{4}4h[4:3],3,2>4[8:1],,
{8}5xh[6:1]/7xh[8:3],,,3,2h[8:3]/4h[16:3],,,5,
{8}6,4,3,7,1-5[8:1]*-6[8:1]/8,,,,
{16}4b/7b,,,,8,3,4,3,7,5,6,5,8,1h[8:1],,8,
{16},5/7,,3/4,,2,4,3,6,5,7,4,8bp3[8:1]*q5[8:1],,,,
{16}8b,,,,2x/6x,,2x/6x,,3,4,1,,6,5,8,,
{16}2h[8:1]/4,,5,4h[8:1],,7,5h[8:1],,8-3[8:1]*-4[8:1],,,,,,,,
{16}2b/5b,,,,1,6,5,6,2,4,3,4,1,8h[8:1],,1,
{16},2/4,,5/6,,7,8,6,3,4,2,8,1b-5[8:1],,,,
{16}1b/4b,,,,6,4,6,4,7z3[4:1],3,7,3,7x,,,,
{8}1-5[8:1],,5-3[8:1],6,7h[4:1],,1>7[4:1],,
{16}C1f,,,,8x,,8x,,7,3,4,3,8,1h[8:1],,8,
{16},2/4,,5/6,,7,5,6,3,4,2,5,1bp4[8:1]*q6[8:1],,,,
{16}1b,,,,3x/7x,,3x/7x,,6,5,8,,3,4,1,,
{16}5/7h[8:1],,4,5h[8:1],,2,4h[8:1],,1xv4[8:1]*v6[8:1],,2x/8x,,,,,,
{16}3b/7b,,,,2,6,5,6,1,4,3,4,2,8h[8:1],,1,
{16},2/4,,5/6,,7,8,6,3,4,2,8,1b-5[8:1],,,,
{16}1b/4b,,,,6,4,6,4,7z3[4:1],3,7,3,7x,,,,
{8}1-5[8:1],,5,6,3b/7h[2:1],,,,
{8}1>4[2:1],,,4,5,,7,,
{8}8<5[2:1],,,5,4,,1,,
{4}1h[4:3],3,5,4<8[4:1],
{4}3,5>1[4:1],8,7,
{8}7<4[2:1],,,B5/B6,B2/B3,,1,,
{8}2>5[2:1],,,B3/B4,B6/B7,,8,,
{12}7h[6:1],,5,5h[6:1],,4,4h[6:1],,3,3h[6:1],,4,
{8}4-6[8:1],3,2-4[8:1],2,8-2[8:1],8,5,,
{4}4h[8:1],4h[8:1],4h[8:1]/5h[8:1],4h[8:1]/7h[8:1],
{4}5h[8:1]/6h[8:1],2h[8:1]/4h[8:1],5h[8:1]/7h[8:1],3h[8:1]/4h[8:1],
{8}5/6,7,3/4,2,4/5,6,4/5pp5[4:1],3,
{4}4h[2:1]/5qq5[4:1],,,3/7,
{4}4/5h[8:1],2/5h[8:1],4h[8:1]/5,4h[8:1]/7,
{4}5/6h[8:1],2/4h[8:1],5h[8:1]/6,3h[8:1]/4,
{16}4/5,,4,,6,5,7,,4/8,,3,4,2,,1h[16:3]/5,,
{16},4h[16:3],,,2h[16:3],,,6h[16:3],,,5h[16:3],,,7h[16:3],,,
{2}C1xh[2:1],8-3[8:1]*-4[8:1],
{16}1b/6b,,,,8,2,4,3,7,4,6,5,8,1h[8:1],,8,
{16},5/7,,3/4,,2,4,3,6,5,7,4,8bp3[8:1]*q5[8:1],,,,
{16}8b,,,,2x/6x,,2x/6x,,3,5,1,,6,4,8,,
{16}1/7h[8:1],,4,5h[8:1],,2,3h[8:1],,1-5[8:1]*-6[8:1],,,,,,,,
{16}3b/8b,,,,1,7,5,6,2,5,3,4,1,8h[8:1],,1,
{16},2/4,,5/6,,7,8,6,3,4,2,8,1b-5[8:1],,,,
{16}1b/4b,,,,6,4,6,4,7s3[4:1],3,7,3,7x,,,,
{8}1-5[8:1],,5-2[8:1],6,7-4[8:1],8,1>7[4:1],,
{16}C1f,,,,8x,,8x,,7,2,4,3,8,2h[8:1],,1,
{16},3/4,,5/6,,7,5,6,3,4,2,5,1bp4[8:1]*q6[8:1],,,,
{16}1b,,,,3x/7x,,3x/7x,,6,4,8,,3,5,1,,
{16}7h[8:1]/8,,4,5h[8:1],,2,3h[8:1],,1x<6[8:1]*>4[8:1],,2x/8x,,,,,,
{16}2b/8b,,,,3,7,5,6,1,4,2,3,2,1h[8:1],,2,
{16},3/4,,5/6,,7,8,6,3,4,2,7,1b-5[8:1],,,,
{16}1b/4b,,,,6,4,5,3,7s3[4:1],2,6,3,7x,,,,
{384}1-5[8:1],,,,,,,,,,,,,,,,,,,,,,,,,,,,,,,,,,,,,,,,,,,,,,,,,,,,,,,,,,,,,,,,,,,,,,,,,,,,,,,,,,,,,,,,,,,,,,,,5-1[8:1],,,,,,,,,,,,,,,,,,,,,,,,,,,,,,,,,,,,,,,,,,,,,,,,6,,,,,,,,,,,,,,,,,,,,,,,,,,,,,,,,,,,,,,,,,,,,,,,,7b,C1f,,,,,,,,,,,,,,,,,,,,,,,,,,,,,,,,,,,,,,,,,,,,,,,,,,,,,,,,,,,,,,,,,,,,,,,,,,,,,,,,,,,,,,,,,,,,,,,,,,,,,,,,,,,,,,,,,,,,,,,,,,,,,,,,,,,,,,,,,,,,,,,,,,,,,,,,,,,,,,,,,,,,,,,,,,,,,,,,,,,,,,,,,,,,,,,
{8}1>8[64:75],,,4,4x<2[1:1],,,7,
{4}7>4[32:27],E6,E4,C1,
{24}5<3[4:3],,,,,,,,,2,,,1,,,,,,,,,,4,,
{12}4h[4:1],,3,3h[4:1],,2,2x-6[8:1],,5,5>5[4:3],,,
{8}1,,,4,5x>5[1:1],,,8,
{4}1<5[2:1],E1,C1,E5,
{24}7,,5,,6,,3,,4,,2,,6x,,5,,7,,4,,,4,,,
{8}3-5[8:1],2,1-3[8:1],8,7x-1[8:1],6,5,,
{4}4h[8:1]/5h[8:1],4h[8:1]/8h[8:1],4h[8:1]/5h[8:1],4h[8:1]/7h[8:1],
{8}4h[8:1]/8,7,5h[8:1]/6,7,4/8h[8:1],5,6/7h[8:1],5,
{8}3/4h[8:1],2,1/5h[8:1],2,3h[8:1]/4,5,4/5qq5[4:1],6,
{4}4h[2:1]/5pp5[4:1]*pp5[4:1],,,3/7,
{4}4h[8:1]/5h[8:1],1h[8:1]/5h[8:1],4h[8:1]/5h[8:1],2h[8:1]/5h[8:1],
{8}5h[8:1]/6,7,4/8h[8:1],5,6/7h[8:1],5,3/4h[8:1],2,
{8}1/5-7[8:1],6,4-2[8:1],3,5-1[8:1],6,4,3h[16:3],
{16},1h[16:3],,,7h[16:3],,,5h[16:3],,,3h[16:3],,,1h[16:3],,,
{4}C1xh[2:1],,8-3[8:1]*-4[8:1],C1f,
{16}1x/6x,,,,3,4,,7,8,,6,6,5,,1,1,
{16}8h[8:1],,5,6h[8:1],,7,5h[8:1],,1-5[8:1],,4,,8x,,,,
{16}8h[8:1],,5h[8:1],,8-4[8:1],,5,5,,2,2,,1/2,,3h[16:3]/8,,
{16},1,1,2,4,4,3-7[8:1],,5-1[8:1],,,,,,,,
{16}2x/8x,,3,3,5,5,4,4,6-2[8:1],,5/7,,6,,,,
{16}3>8[8:1],4,,4,3,,5,,6w2[8:1],,5/7,,,,,,
{16}4/8h[4:1],,,,3,2/5,,6,4/7-3[8:1],,5,5,,8,8>3[32:9],,
{16},2>5[32:9],,,4<7[32:9],,,6<8[16:3],,,8>8[8:9],,,C1hf[16:19],,,
{1},
{1},
{1},
{1},
E
