&title=ポッピンキャンディ☆フィーバー!
&wholebpm=190
&artist=キノシタ
&des=隅田川星人
&shortid=11344
&genre=niconicoボーカロイド
&cabinet=DX
&version=maimai DX UNiVERSE
&chartconverter=Neskol
&lv_2=2
&des_2=
&lv_3=7+
&des_3=
&lv_4=10
&des_4=シチミヘルツ
&lv_5=12+
&des_5=隅田川星人
&des_6=
&inote_2=
(190){1},
{1},
{1},
{1},
{1},
{1},
{1},
{1},
{1},
{1},
{1}1,
{1},
{1}1,
{1},
{1}8,
{1},
{1}8,
{1},
{1}1,
{1}1,
{1}2,
{1}2,
{1}3,
{1}3,
{1}4,
{1}4x/5x,
{1}5,
{1}5,
{1}6,
{1}6,
{1}7,
{1}7,
{1}8,
{1}1x/8x,
{1}8-5[4:3],
{1},
{1}1-4[4:3],
{1},
{1}8-5[4:3],
{1},
{1}4,
{1}4b/5b,
{1}B4,
{1}B3,
{1}B2,
{1}B1,
{1}B8,
{1}B7,
{1}B6,
{1}B5,
{1}C1xh[1:1],
{1},
{2}8,8,
{1}8,
{2}7,7,
{1}7,
{2}6,6,
{1}6,
{2}5,5,
{1}4/5,
{2}4,4,
{1}4,
{2}3,3,
{1}3,
{2}2,2,
{1}2,
{2}1,1,
{1}1x/8x,
{2}8,8,
{1}1b/8b,
{1}1-5[4:3],
{1},
{1}8-4[4:3],
{1},
{1}1-5[4:3],
{1},
{1}8,
{1}8x,
{1}7h[4:3]/8h[4:3],
{1},
{1}5h[4:3]/6h[4:3],
{1},
{1}3h[1:1]/4h[1:1],
{1},
{1}1h[1:1]/2h[1:1],
{1},
{1}1x/2x,
{2}1,1,
{2}2,2,
{2}3,3,
{1}4/5,
{2}5,5,
{2}6,6,
{2}7,7,
{1}1x/8x,
{2}8,8,
{2}7,7,
{2}6,6,
{2}4x/5x,4x/5x,
{2}4,4,
{2}3,3,
{2}2,2,
{1}1x/8x,
{2}1x/8x,1x/8x,
{1}1x/8x,
{2}2x/7x,2x/7x,
{1}2x/7x,
{2}3x/6x,3x/6x,
{1}3x/6x,
{2}4x/5x,4x/5x,
{2}3x/6x,3x/6x,
{1},
{1},
{1},
E
&inote_3=
(190){1},
{1},
{1},
{1},
{1},
{1},
{1},
{1},
{1},
{4}4/5,4/5,3b/6b,,
{4}7,7,8,8,
{4}1,1,2/8,,
{4}3,3,4,4,
{4}5,5,4/6,,
{4}6,6,5,5,
{4}4,4,3/5,,
{4}2,2,1,1,
{4}1x/8x,1x/8x,2b/7b,,
{2}6h[2:1],5,
{2}3h[2:1],4,
{2}6h[2:1],5,
{2}3h[4:1]/4h[4:1],3/4,
{1}2x-5[8:3],
{1}6-1[8:3],
{4}2,2,1,,
{4}8,8,1/7,,
{2}2h[2:1],1,
{2}7h[2:1],8,
{2}2h[2:1],1,
{2}7h[4:1]/8h[4:1],7/8,
{1}6x-1[8:3],
{1}2-5[8:3],
{4}6,6,5,,
{4}4/5,4/5,3x/6x,,
{4}2,2,1/2,,
{4}7,7,7/8,,
{4}2,2,1,1,
{4}8,8,1/7,,
{4}6,6,5/6,,
{4}3,3,3/4,,
{4}6,6,5,5,
{4}4x/5x,3x/6x,2x/7x,,
{2}E3,E4,
{1}E5,
{2}E7,E6,
{1}E5,
{1}C1,
{1}E3/E7,
{2}E4/E6,B3/B6,
{2}B2/B7,E2/E8,
{1}C1f,
{4}1x/8x,1x/8x,1x/8x,,
{4}7b,7,7/8,7/8,
{4}2,2,1/2,1/2,
{4}3,3,4,4,
{4}5,4/5,3b/6b,,
{4}7h[4:1],8,7/8,,
{4}2h[4:1],1,1/2,,
{4}8,8,1,1,
{1}1b-4[8:3]/8b-5[8:3],
{4}3b,3,3/4,3/4,
{4}6,6,5/6,5/6,
{4}7,7,8,8,
{4}1,1/8,2b/7b,,
{4}3h[4:1],4,3/4,,
{4}6h[4:1],5,5/6,,
{4}4,4,5,5,
{1}4b-1[8:3]/5b-8[8:3],
{2}8h[2:1],1,
{4}1/8,1/8,2b/7b,,
{1}3-8[8:3],
{4}7,7,7/8,,
{1}6-1[8:3],
{4}2,2,1/2,,
{1}3-6[8:3],
{1}7-3[8:3],
{4}2,2,1,1,
{1}1b>4[8:3]/8b<5[8:3],
{2}3h[2:1],4h[2:1],
{2}5h[2:1],6,
{2}6h[2:1],5h[2:1],
{2}4h[2:1],3,
{1}2>5[8:3],
{4}6,6,5/6,,
{4}7,7,8,8,
{4}1,1,2,2,
{4}3,3,4b/5b,,
{2}5x/6x,3x/4x,
{4}4/5,4/5,3/6,,
{4}7,7/8,2,1/2,
{4}8,1/8,2b/7b,,
{4}6h[4:1],5,5/6,,
{4}3h[4:1],4,3/4,,
{4}5,5,4,4,
{1}4b>1[8:3]/5b<8[8:3],
{4}1/8,1b/8b,1/8,,
{4}2/7,2/7,2/7,,
{4}3,3/4,6,5/6,
{4}4,4/5,3b/6b,,
{4}7h[4:1],8,7/8,,
{4}2h[4:1],1,1/2,,
{4}8,8,1,1,
{1}1b-4[8:3]/8b,
{4}5/6,5/6,5b/6b,,
{4}3/4,3/4,3b/4b,,
{4}1/2,1/2,1b/2b,,
{4}7,7,7/8,,
{4}5/6,5/6,5b/6b,,
{4}3/4,3/4,3b/4b,,
{4}1/2,1/2,1b/2b,,
{4}1/8,2/7,3b/6b,,
{1},
{1},
{1},
E
&inote_4=
(190){1},
{1},
{1},
{1},
{1},
{1},
{1},
{1},
{1},
{8}4/5,4/5,4/5,,2/7,,,,
{4}5h[4:1]/6,8,3/4h[4:1],1,
{4}5h[4:1]/6,8,1/7,2/6,
{4}3/4,1/2,7/8,5/6,
{4}3/4,1/2,7/8,1/6,
{4}3/4h[4:1],1,5h[4:1]/6,8,
{4}3/4h[4:1],1,2/8,3/7,
{4}6h[4:1],8h[4:1],1h[4:1],3h[4:1],
{4}6,4/5,2b/7b,,
{4}5,5pp4[2:1],,,
{4}3,3,2/5,3/5,
{4}4/5,4qq4[2:1]/5,,,
{4}6,6,4/7,3/6,
{4}2-7[4:1]/5,,5,5,
{4}6-3[4:1],,1,1,
{4}2h[4:1],4,6h[4:1],5,
{4}3h[4:1],4,2/5,,
{4}4,4qq5[2:1],,,
{4}6,6,4/7,4/6,
{4}4/5,4/5pp5[2:1],,,
{4}3,3,2/5,3/6,
{4}4/7-2[4:1],,4,4,
{4}3-6[4:1],,8,8,
{4}7h[4:1],5,3h[4:1],4,
{4}5-8[4:1],,,2x/7x,
{8}6,6,5,,3,3,4,,
{8}5,5,4,,3/5,,3/5,,
{8}2,2,1,,7,7,8,,
{8}1,1,8,,1/7,,1/7,,
{8}2,2,4,,7,7,5,,
{8}1,1,8,,2/7,,1/8,,
{8}1/2,1/2,1b/2b,,7/8,7/8,7b/8b,,
{4}4/5,3/6,2/7,,
{4}B3,E4,E3/B4,,
{4}B6,E6,B5/E7,,
{4}B4,B3,B5,B6,
{4}E5,E4/E6,C1xh[2:1],,
{1},
{4},,,8h[4:1],
{4}7h[4:1],6h[4:1],5h[4:1],4h[4:1],
{4}3h[4:1],2h[4:1],1h[4:1],8,
{1}C1f/B3/B6,
{8}8,8,1,1,2/7,,,,
{4}1/7,2/8,1/6,3/8,
{8}1/6,,5/7,,1/2,1/2,3/8,,
{8}1/7,,2/8,,7/8,7/8,7-4[4:1]/8-3[4:1],,
{2},1/6,
{4}2/8,1/7,3/8,1/6,
{8}3/8,,2/4,,7/8,7/8,1/6,,
{4}1b/2b,7b/8b,5/6,3>8[4:1]/4<7[4:1],
{4},,1x,1x,
{4}2/8,1/7,3/8,1/6,
{8}3/8,,2/4,,7/8,7/8,1/6,,
{8}2/8,,1/7,,1/2,1/2,1-6[4:1]/2-5[4:1],,
{2},3/8,
{4}1/7,2/8,1/6,3/8,
{8}1/6,,5/7,,1/2,1/2,3/8,,
{4}7b/8b,1b/2b,3/4,5>7[2:1]/6,
{1},
{4}3/5,4/6,3h[4:1]/7h[4:1],,
{2}2-5[8:1]/6-1[8:1],3b/7b,
{4}2h[4:1],4h[4:1],5h[4:1],7h[4:1],
{4}8h[4:1],1,2/8,,
{4}7h[4:1],5h[4:1],4h[4:1],2h[4:1],
{4}1h[4:1],8,1/7,,
{4}8h[4:1],6,5/7,,
{4}1h[4:1],3,2/4,,
{4}6h[4:1],8h[4:1],1h[4:1],3h[4:1],
{4}5,4/6,3b/7b,,
{4}E1,E2,E3,E4,
{4}E5,E6,C1/E7,,
{4}E1,E8,E7,E6,
{4}E5,E4,C1/E3,,
{4}1xh[4:3],,,8,
{4}2/7,3/6,4/5,,
{4}8-5[2:1],,4x,4x,
{4}4x-1[2:1],,8x,8x,
{4}8x,1/8,2/7,,
{8}3/5,3/5,,,4/6,4/6,,,
{4}1/8,4/5,2b/7b,,
{8}2/8,,1/7,,2/8,2/8,2>5[4:1]/8<5[4:1],,
{2},3/7,
{4}2/8,1/7,3/8,1/6,
{8}3/8,,2/4,,7/8,7/8,1/6,,
{1}C1f,
{4}3h[2:1]/6,,1x,1x,
{4}4/5h[4:1],1b,2/8,1/7,
{8}3/8,,2/4,,7/8,7/8,1/6,,
{8}2/8,,1/7,,2/8,2/8,2>5[4:1]/8<5[4:1],,
{2},3/7,
{4}1/7,2/8,1/6,3/8,
{8}1/6,,5/7,,1/2,1/2,3/8,,
{4}7b/8b,1b/2b,3/4,5>2[4:1]/6<1[4:1],
{4},,8x,8x,
{8}1/7,1/7,1-4[8:1]/7-4[8:1],,,,,,
{8}2/8,2/8,2-5[8:1]/8-5[8:1],,,,,,
{8}3/6,3/6,3-1[8:1]/6-8[8:1],,,,,,
{4}1/8,2/7,3b/6b,,
{8}2/8,2/8,2-5[8:1]/8-5[8:1],,,,,,
{8}1/7,1/7,1-4[8:1]/7-4[8:1],,,,,,
{8}3/6,3/6,3-1[8:1]/6-8[8:1],,,,,,
{2}2-5[8:1]/6-1[8:1],3b/7b,
{1},
{1},
{1},
E
&inote_5=
(190){1},
{1},
{1},
{1},
{1},
{1},
{1},
{1},
{1},
(190){16}4h[8:1],,5,4,5,,3/6,,2b/7b,,,,,,,,
{8}7-5[8:1],7,3-1[8:1],3,7-5[8:1],7,2,2,
{16}7h[16:3],,,8,7,,1/6,,1/6-4[8:1],,,,3,,,,
{8}2-4[8:1],2,6-8[8:1],6,2-4[8:1],2,7,7,
{16}2h[8:1],,1,2,1,,3/8,,3/8-4[8:1],,,,1b,,,,
{8}2-4[8:1],2,6-8[8:1],6,2-4[8:1],2,7,7,
{16}2h[16:3],,,1,2,,3/8,,3/8-5[8:1],,,,4,,,,
{16}3,4,3,6,5,6,3,4,3,,7,,8,,1,,
{8}2/5,3,4/7,6,1/5,,C1,,
(190){4}7x>1[8:1],2,3<5[8:1],6,
{8}7>1[8:1],,2,2-6[8:1],,7-3[8:1],,2h[8:3],
{8},4,4,,3/5,,4qq4[16:5],4,
{8}6,,7,7h[4:1],,5,4,3xh[4:1],
{8},5,6,7xh[4:1],,5,4,3xh[4:1],
{8},5,6,7xh[4:1],,5,5>1[4:1],,
{8}1<5[4:1],,5,,8,,4/6,4/6,
{8},3/5,3/5,,2/6>3[8:1],,,,
(190){2}1x-5[8:1]/2x-4[8:1],7x-5[8:1]/8x-4[8:1],
{8}1x/2x,,3x/7x,3x/7x,,4x/6x,,5x-1[8:1]/7x-5[8:1],
{2},2x-4[8:1]/4x-8[8:1],
{8}5xs1[8:3]/7x<2[8:3],,,,,,,2xh[4:1]/8xh[4:1],
{8},,2x/8x,,1x/7x,1x/7x,1x/7x,,
{8}2x/6x,2x/6x,2x/6x,2xh[4:1]/6xh[4:1],,,4x-1[8:1]/5x-8[8:1],,
{8}4x/5x,,2x/7x,2x/7x,,4x/5x,4x/5x,4xp1[16:7]/5xq8[16:7],
{4},,,C1,
(190){8}6,6,5,7,3,3,4,2,
{8}6,6,4,4,3h[8:1]/5h[8:1],,4h[8:1]/6h[8:1],,
{8}3,3,4,2,6,6,5,7,
{8}3,3,5,5,4,4x/5x,4x/5x,4x/5x,
{8}6,6,5,8,3,3,4,1,
{8}1x/8x,1x/8x,1x/8x,1x/8x,1x/8x,,3/6,,
{8}2b,1b,8b,7b,6b,5b,4b,3b,
{4}B6/E6,E1/B8,B4/E5,B2/E2,
(190){4}6xh[1:1],E7,E5,E1,
{4}3h[1:1],E3,E5,E1,
{4}7xh[4:1],5h[4:1],4h[4:1],2,
{32}1x,2x,3x,4x,5x,6x,7x,8x,1x,2x,3x,4x,5x,6x,7x,8x,1x,,,,,,,,,,,,,,,,
{1}8b,
{12},,,,,,,,,6h[6:1],,5,
{12}7,,,3h[6:1],,4,2,,,6h[6:1],,5,
{12}7,,,3h[6:1],,4,2,,1/8,,5/7,,
{1}C1f/B3/B6,
{16}3/6,,5,4,5,,3,,3,,8b,,8b,,8b,,
(190){8}2-6[8:1],2,4<2[4:1],4,8,,3x,3xh[4:1],
{8},4-8[8:1],4,2,2s6[16:3],,7x,7xh[4:1],
{8},B4/B5,B7/E8,B1/E2,B6/E6,B4/E4,C1,1x-5[8:1],
{8},7,7-3[8:1],,3b/7b,,2x/4x,2x/4x,
{8},1-5[8:1],6<4[4:1],1,6,,5x,5xh[4:1],
{8},6,6,3,3x/6x,3x/6x,4xq8[8:1]/5x<7[8:1],,
{16}4x>2[8:1]/5xp1[8:1],,,,4x/5x,,,,7h[8:1],,8,7,8,,1/6,,
{8}1b/6b<3[4:1],,,,,1x,1x,1x,
(190){8}7-3[8:1],7,5>7[4:1],5,1,,6x,6xh[4:1],
{48},,,,,,5qq4[4:1],,,,,,5,,,,,,8,,,,,,8,,,,,,,,,,,,6,,,,,,4x,E4,B3,B2,E2,,
{48},,,,,,,,,,,,5x,E6,B6,B7,E8,,,,,,,,1x,,,,,,1x,,,,,,1x,,,,,,2x/8x-4[8:1],,,,,,
{8},4,3<6[8:1],,3b/6b,,2x/7x,2x/7x,
{8},8-4[8:1],3>5[4:1],8,3,,4x,4xh[4:1],
{8},3,3,6,2x/7xh[1:0],2x/7xh[1:0],1x-5[8:1]/8xh[1:0],,
{16}1xw5[8:1],,,,1x,,,,7xh[8:1],,5,7,5,,4/8,,
{8}4b/8b<3[4:1],,,,,,2x,3,
{384}4,,,,,,,,,,,,,,,,,,,,,,,,,,,,,,,,,,,,,,,,,,,,,,,,5,,,,,,,,,,,,,,,,,,,,,,,,,,,,,,,,,,,,,,,,,,,,,,,,6,,,,,,,,,,,,,,,,,,,,,,,,,,,,,,,,,,,,,,,,,,,,,,,,7,,,,,,,,,,,,,,,,,,,,,,,,,,,,,,,,,,,,,,,,,,,,,,,,1/8,,,,,,,,,,,,,,,,,,,,,,,,,,,,,,,,,,,,,,,,,,,,,,,,,,,,,,,,,,,,,,,,,,,,,,,,,,,,,,,,,,,,,,,,,,,,,,,,4>1[8:1]*>1[8:1]/5,,,,,,,,,,,,,,,,,,,,,,,,,,,,,,,,,,,,,,,,,,,,,,,,,,,,,,,,,,,,,,,,,,,,,,,,,,,,,,,,,,,,,,,,,,,,,,,5b,
{48}4b,E6,E7,E8,,,,,,,,,1x,,,,1x,,,,8x,,,,2x/7x,,,,,,,,,,,,1-4[8:1]/8-5[8:1],,,,,,,,,,,,
(190){16}1b/8b,,,,,,,,7,,E5,E4,E3,,8,,
{8}8h[4:1],,6h[4:1],,4h[4:1],,2,2,
{16}8,,E2,E3,E4,,7,,7h[4:1],,,,5h[4:1],,,,
{8}4V68[4:1],,,1,1,,3x/7x,,
{16}2h[4:1],,,,4h[16:3],,,5,5h[4:1],,,,8,,,,
{8}4/7,6,2/5,3,4/5-8[8:1],,1,,
{8}2,2h[8:1],4,4h[8:1],5,5h[8:1],7,7,
{8}1b,B8/E8,B2/B3,B6/E6,C1,,1x/8x,,
(190){8}3h[4:1]/5h[4:1],,,4h[4:1]/6h[4:1],,,3h[4:1]/5h[4:1],,
{8},4h[4:1]/6h[4:1],,,E3,,E7,,
{8}2h[4:1]/5h[4:1],,,4h[4:1]/7h[4:1],,,2h[4:1]/5h[4:1],,
{8},4h[4:1]/7h[4:1],,,B6,,B3,,
{32}5x<8[16:3],,,,,,,,,,,,,,,,,,,,,,,,E2,B2,B3,B4,E5,,,,
{8}8x,,1x/7x,,2/6,2/6,2/6,2/6,
{8}3/7-3[8:1],,4,4-1[8:1],,8,,2b/7b,
{32},,,,6,,5,,7,,,,3,,4,,2,,,,6,,,,6h[8:1],,,,4x,3x,2x,1x,
{32}8x,7x,6x,5x,4x,3x,2x,1x,8x,7x,6x,5x,4x,3x,2x,1x,8b,,,,,,,,,,,,,,,,
(190){8}2/4,2/4,,,5/7,5/7,,,
{4}2x/7x,4x/5x,1xh[4:1]/8xh[4:1],,
(190){8}B5/E6/B7/E8,,B2/E2/B4/E4,,C1,,1x/8x,1x/8x-4[8:1],
{8},2,2-6[8:1],,2b/6b,,5x/7x,5x/7x,
{8},1-5[8:1],6<4[4:1],1,6,,5x,5xh[4:1],
{16},,6,,6,,3,,2/7,,2x/7x,3x/6x,4xh[2:1]/5xh[4:1],,,,
{2},6>3[8:1],
{16}1h[8:1],,8,1,8,,2,,2,,7x,,7x,,7x,,
(190){8}2-5[8:1]/6-1[8:1],,2b/6b,,4/8,,3/7,3/7h[4:1],
{8},5-1[8:1],8-4[8:1],5,8,,2,2h[4:1],
{8},B4/B5,B2/E2,B8/E8,B3/E4,B5/E6,C1,8x-4[8:1],
{8},2,2-6[8:1],,2b/6b,,5x/7x,5x/7x,
{8},1-5[8:1],6<4[4:1],1,6,,5x,5xh[4:1],
{8},6,6,3,2x/7x,2x/7x,1x/8x<5[8:1]*>3[8:1],,
{16}8xw4[8:1],,,,8x,,,,2xh[8:1],,4,2,4,,3/5,,
{4}2b/6b,4x-1[8:1]/5x-8[8:1],4x/5x,2x/7x,
(190){24}4/7,,,4/7,,,4/7,,,,,,E7,,,,E3,,,,E5,,,,
{16}2x/5x,,2x/5x,,2/5,,,,B8/E8/3x,,,B1/E2/6x,,,,,
{16}3/6,,3/6,,3/6,,,,C1f/B4/B5/E5,,,,,,,C1f/B6/B7/E7,
{16},,,,B1/C1f/E1/B8,,,,,C1f/B2/B3/E3,,,,,,,
{24}1x/7x,,,1/7,,,1/7,,,,,,E7,,,,E3,,,,E5,,,,
{128}2x/5x,,,,,,,,,,,,,,,,2x/5x,,,,,,,,,,,,,,,,2/5,,,,,,,,,,,,,,,,,,,,,,,,,,,,,,,,C1f/B3/B4/E4,B5,E6,B6,,,,,,,,,,,,,,,,,,,,,,,,,,,,,,,,,,,,,,,,,,,,,,,,,,,,,,,,,,,,,
{8}1x/8x,1x/8x,1p4[16:3]/8<5[16:3],,,,,,
{12}2b/7b,,,8,8,1,2b/7b,,,,,,
{1},
{1},
{1},
E
