&title=ノイローゼ
&wholebpm=200
&artist=蜂屋ななし
&des=はっぴー
&shortid=11351
&genre=niconicoボーカロイド
&cabinet=DX
&version=maimai DX UNiVERSE
&chartconverter=Neskol
&lv_2=3
&des_2=
&lv_3=7+
&des_3=
&lv_4=10
&des_4=Jack
&lv_5=13
&des_5=はっぴー
&des_6=
&inote_2=
(200){1},
{1},
{1},
{1},
{1},
{1},
{1}1,
{1}1,
{1}2,
{1}2,
{1}3,
{1}3,
{1}4,
{1}4/5,
{1}5,
{1}5,
{1}6,
{1}6,
{1}7,
{1}7,
{1}8,
{1}1/8,
{1}8-5[4:5],
{1},
{1},
{1}1,
{1}1-4[4:5],
{1},
{1},
{1}8,
{1}8-4[4:5],
{1},
{1},
{1}1,
{1}1-5[4:5],
{1},
{1},
{1}8x,
{2}8b,8,
{1}8,
{2}7,7,
{1}7,
{2}6,6,
{1}6,
{2}5,5,
{1}4/5,
{2}4,4,
{1}4,
{2}3,3,
{1}3,
{2}2,2,
{1}2,
{2}1,1,
{1}1/8,
{1}8-5[4:5],
{1},
{1},
{1}4,
{1}4-1[4:5],
{1},
{1},
{1}8,
{1}B1,
{1}B8,
{1}B2,
{1}B7,
{1}B3,
{1}B6,
{1}B4,
{1}B5,
{1}B6,
{1}B7,
{1}B8,
{1}B1,
{1}B2,
{1}B3,
{1}B4,
{1}C1xh[1:1],
{1},
{2}1x,1,
{1}2,
{2}3,3,
{1}4,
{2}5,5,
{1}6,
{2}7,7,
{1}1/8,
{2}8,8,
{2}7,7,
{1}6,
{1}4/5,
{2}4,4,
{2}3,3,
{1}2,
{1}1x/8x,
{1}1h[1:1]/2h[1:1],
{1},
{1}3h[1:1]/4h[1:1],
{1},
{1}5h[1:1]/6h[1:1],
{1},
{1}7h[1:1]/8h[1:1],
{1},
{1}7,
{1}7/8,
{1}6,
{1}5/6,
{1}4,
{1}3/4,
{1}2,
{1}1/8,
{1}1h[1:1]/8h[1:1],
{1},
{1}2h[1:1]/7h[1:1],
{1},
{1}B2/B7,
{1}B3/B6,
{1}B4/B5,
{1}C1xh[4:3],
{1},
{1},
{1},
E
&inote_3=
(200){1},
{1},
{1}3h[1:1],
{1}4h[1:1],
{1}5h[1:1],
{1}6,
{2}7h[2:1],8,
{2}2h[2:1],1,
{2}7h[2:1],8,
{2}1h[4:1]/2h[4:1],1/2,
{2}3h[2:1],4,
{2}6h[2:1],5,
{2}3h[2:1],4,
{2}4h[4:1]/5h[4:1],3/6,
{4}7,7,8,,
{4}2,2,1,,
{4}7,7,8,,
{4}1,1,2/8,,
{4}3,3,4,,
{4}6,6,5,,
{4}3,3,4,,
{4}4/5,4/5,3b/6b,,
{1}7-3[8:3],
{1}2-5[8:3],
{1}6-1[8:3],
{4}2x,2x,1x/2x,,
{1}3-8[8:3],
{1}7-3[8:3],
{1}2-5[8:3],
{4}6x,6x,5x/6x,,
{1}7h[1:1],
{1}8h[1:1],
{1}1h[1:1],
{1}2,
{1}3h[1:1],
{1}4h[1:1],
{1}5h[1:1],
{2}6,3/6,
{4}2b,2,1/2,1/2,
{4}3,4,3/5,,
{4}6,6,5/6,5/6,
{4}7,8,1/7,,
{4}2h[4:1],1,1,,
{4}7h[4:1],8,8,,
{4}1,1,8,8,
{1}1>4[8:3]/8<5[8:3],
{4}6b,6,5/6,5/6,
{4}7,8,1/7,,
{4}2,2,1/2,1/2,
{4}3,4,3/5,,
{4}6h[4:1],5,5,,
{4}3h[4:1],4,4,,
{4}5,5,4,4,
{1}4>1[8:3]/5<8[8:3],
{4}B7,B6,E6,,
{4}B2,B3,E4,,
{4}E7,B6,B5,,
{4}E3,B3,B4,,
{4}E6,B6,B7,,
{4}E4,B3,B2,,
{4}B7,B8,B1,B2,
{1}C1f,
{1}8x-4[8:3],
{4}3,3,3/4,,
{1}2-5[8:3],
{4}6,6,5/6,,
{1}7-4[8:3],
{4}3,3,3/4,,
{1}2-5[8:3],
{4}6,6,4/5,,
{1}6<1[8:3],
{4}2,2,1/2,,
{1}3>8[8:3],
{4}7,7,7/8,,
{1}6<1[8:3],
{4}2,2,1/2,,
{4}7,7/8,2,1/2,
{4}8,1/8,2h[2:1]/7h[2:1],,
{1},
{4}6b,5/6,6,5/6,
{4}7,8,1/7,,
{4}2,1/2,2,1/2,
{4}3,4/5,3/6,,
{4}6h[4:1],5,5/6,,
{4}3h[4:1],4,3/4,,
{4}5,5,4,4,
{1}4-1[8:3]/5-8[8:3],
{4}2b,1/2,2,1/2,
{4}3,4,3/5,,
{4}6,5/6,6,5/6,
{4}7,8,1/7,,
{4}2h[4:1],1,1/2,,
{4}7h[4:1],8,7/8,,
{4}1,1,8,8,
{4}1/8,1/8,2b/7b,,
{2}5h[4:1]/6h[4:1],5/6,
{2}3h[4:1]/4h[4:1],3/4,
{4}6,6,5,5,
{4}4,4,3/5,,
{4}2,2,1/2,,
{4}7,7,7/8,,
{4}6,5,5/6,4,
{4}3,2x/5x,,,
{2}1h[4:1]/2h[4:1],1/2,
{2}7h[4:1]/8h[4:1],7/8,
{4}2,2,1,1,
{4}8,8,1/7,,
{4}6,6,5/6,,
{4}3,3,3/4,,
{4}2,1,1/2,8,
{4}7,1x/6x,,,
{4}7,7,8,8,
{4}1,1,2/8,,
{4}3,3,4,4,
{4}5,5,4/5,,
{4}6,6,5,5,
{4}4,4,3/5,,
{4}2,2,1,1,
{4}1/8,1/8,2/7,2x/7x,
{1},
{1},
{1},
E
&inote_4=
(200){1},
{1},
{1}3h[24:11]/4h[2:1],
{1}5h[2:1]/6h[24:11],
{4}4h[2:1]/5h[24:11],,,3/6,
{4}2h[24:11]/7h[2:1],,,1/8,
{4}2,2,2-4[16:3],5,
{4}7,7,7-5[16:3],4,
{4}2,1,8,2/7,
{4}3/5,4/6,3v2[16:5]/7v6[16:5],,
{4},E1,C1,E5,
{4}3/6,7,2,4/5,
{4}7,7/8,2,1/2,
{4}8-5[4:1],1-4[4:1],,,
{4}7,8,7-5[16:3],4,
{4}2,1,2-4[16:3],5,
{4}7,8,1,2/7,
{4}4/6,3>8[16:5]/7<4[16:5],,,
{4}E7,E5,E3,E1,
{4}2/6,5,4,3/7,
{4}6,5/7,3,2/4,
{4}1-4[4:1],8-5[4:1],,,
{2}4h[1:1],B3/E4,
{4}5h[2:1],,6,5,
{4}4,4,5,5,
{4}4/6,3/7,2/8,,
{2}5h[1:1],E6/B6,
{2}4h[1:1],3,
{4}5,5,4,4,
{4}3/5,2/6,1/7,,
{4}3,3,2/4h[2:1],,
{4}3,3/4,2/5,,
{4}6,6,5h[2:1]/7,,
{4}6,5/6,4/7,,
{4}4h[4:1]/6,3h[4:1],2,,
{4}3/5h[4:1],6h[4:1],7,,
{2}1-3[16:3]/8,5-7[16:3],
{4}8,1/7,2/6,E5,
{4}1xh[4:1]/8x,3h[4:1],5h[4:1],7h[4:1],
{4}8,1-5[4:1]/6,8,,
{8}4/6,,2/5,,3/7,,1,1,
{8},2/4,,5/7,,8x,8x,,
{4}2/6,5/6,3/7,3/4,
{4}2/5,5/6,4/7,3/4,
{8}1/5,,4/6,4/6,,3-8[4:1]/7-4[4:1],,,
{8},,,2x/6x,2x/6x,,8b,,
{4}4h[4:1]/6,2h[4:1],8h[4:1],6h[4:1],
{4}5,3/8-4[4:1],1,,
{8}3/5,,4/7,,2/6,,8,8,
{8},5/7,,2/4,,1x,1x,8,
{4}8h[4:1],7h[4:1],6-4[16:3],,
{4}1h[4:1],2h[4:1],3-5[16:3],,
{8}8,,1/7,1/7,,3qq4[8:5]/5pp4[8:5],,,
{4},,,1b/7b,
{4}3h[4:5]/5x,4,5,4,
{8}5,,4,,6,6,5,,
{4}4h[4:5]/7,5,7,5,
{8}7,,5,,3,3,4,,
{4}2/5h[4:5],4,2,4,
{8}2,,4,,6,6,5,,
{4}4/7,3/6,2/5,4>5[4:3],
{1},
{4}7,7/8,6,5,
{8}4/5,,6,6,5,,3/8,,
{4}2,1/2,3,4,
{8}4/5,,3,3,4,,1/6,,
{4}7,7/8,3,3/4,
{8}2/5,,1,1,8,,2/7,,
{4}6h[4:1],5h[4:1],4h[4:1],3,
{4}2/5,1v3[16:5]/8V64[16:5],,,
{4}2,1/2,3,4,
{8}5/6,,3,3,4,,1/6,,
{4}7,7/8,6,5,
{8}3/4,,6,6,5,,3/8,,
{4}2,1/2,6,5/6,
{8}4/7,,8,8,1,,3/6,,
{4}2h[4:1],4h[4:1],5h[4:1],7,
{4}1/8,4qq4[2:1]/5pp5[2:1],,,
{12},,,,,,4x,5x,4x,5x,,,
{4}2x/7xh[4:1],5h[4:1],3h[4:1],1h[4:1],
{4}8,3-6[4:1]/7-2[4:1],,,
{8}1/7,,4/5,,2/8,,1,1,
{8},2/4,,5/7,,8x,8x,,
{4}4/7,3/4,2/5,5/6,
{4}4/8,2/4,1/5,5/7,
{8}4/8,,3/5,3/5,,2-5[4:1]/6-1[4:1],,,
{8},,,8x,8x,1x,1b,,
{8}3/6,3/6,,2h[4:1],,3,,7h[4:1],
{8},6,,1x/8x,1x/8x,,,7/8,
{8}7/8,7/8,,1/2,1/2,1/2,,5/7,
{8},4/5,,2/4,,1x>4[4:1]/8x<5[4:1],,,
{4},2x/7x,3,2/4,
{8}6,,5/7,,1/8,1/8,2x/7x,,
{8}4,4,5,5,,3>6[2:1]/6,,,
{4},,4x/5x,2b/7b,
{4}3h[4:1],4h[4:1],5,5/6,
{4}6h[4:1],5h[4:1],4,3/4,
{2}2>5[4:1],6<1[4:1],
{4}2,1/2,3/8,,
{8}6,6,5,,3,3,4,,
{4}2/5,3/4,5/6,4/7,
{8}1xh[4:1]/8xh[4:1],,,2xh[4:1]/4xh[4:1],,,5xh[4:1]/7xh[4:1],,
{8},3xV15[8:3]/6xV84[8:3],,,,,,,
{4}3/6,1q5[4:1]/2>5[4:1],,,
{4}3/6,7<4[4:1]/8p4[4:1],,,
{4}1/2,3/4,5/6,7/8,
{4}1/6,2/5,3/4-8[4:1],,
{4}2h[4:1],1,7h[4:1],8,
{4}5/6,3/4,4/5,2/7,
{8}1xh[4:1]/8xh[4:1],,,5xh[4:1]/7xh[4:1],,,2xh[4:1]/4xh[4:1],,
{8},3xh[4:1]/6xh[4:1],,,C1f/B2/B3/B6/B7,,,,
{8}1/8,1/8,,2h[4:1],,4,,3h[4:1],
{8},5,,4h[4:1],,5,5,,
{8}2/7,2/7,,5h[4:1],,4,,6h[4:1],
{8},5,,7h[4:1],,8,8,,
{8}1/6,1/6,,2-4[8:1],,5,,7-5[8:1],
{8},4,,2h[4:1],,1,1,,
{8}3/8,3/8,,7-5[8:1],,4,,2-4[8:1],
{8},5,,5h[4:1],,4,4x/5x,,
{1},
{1},
{1},
E
&inote_5=
(200){1},
{1},
{16}4h[2:1]/6h[1:1],,,,,,,,,,,,,,,3x,
{2}3xh[4:3],5h[1:1],
{16}4h[2:1],,,,,,,,,,,6x,6xh[4:3],,,3x,
{1}3xh[2:1],
{4}4/7h[2:1],4,5,3,
{4}2h[2:1]/5,5,4,6,
{4}4/7h[2:1],4,5,3,
{4}2h[2:1]/5,5,4,3/5,
{4}6>3[4:1],1,1>4[4:1],7,
{4}8-4[4:1],3,2,1/6-8[8:1],
{4}2-4[8:1],1-5[8:1],5-2[8:1]*-8[8:1],,
{4}3<5[8:1]/7<5[8:1],,2x/8x,1b,
{8}3h[8:1]/5h[8:1],,4h[8:1]/6h[8:1],,3h[8:1]/5h[8:1],,3,5,
{8}6-4[8:1],,1-3[8:1],,7,7h[4:1],,4,
{8}4qq5[8:3],,6,6,,8-4[8:1],,2,
{4}2,1-4[8:1]/8-5[8:1],,2/7,
{4}3/6h[4:1],8h[4:1],1h[4:1],3h[4:1],
{8}5,5,4,4,6,7,3,2,
{4}8h[2:1],6,1h[2:1],3,
{4}8,8w4[4:1],,,
{4}7V53[2:1],,B5,B7/B8,
{4}1,1<6[4:1]*>4[4:1],,,
{4}2V46[2:1],,B4,B1/B2,
{4}8,8v3[4:1]*v5[4:1],,,
{2}1>4[4:1],B2/B3,
{2}8<5[4:1],B6/B7,
{2}4>1[4:1],5<8[4:1],
{4}3-8[8:1],4-7[8:1],1x,,
{8}3<6[4:1],,,,7,7,5,,
{8}6>3[4:1],,,2,2h[4:1],,8,8,
{6},1/7,2/6,3/5,4/6,3/7,
{12}2h[6:1],,4h[6:1],,5h[6:1],,7,,,1/8,,,
{4}2/6,3V17[4:1]/7V53[4:1],,,
{4}4/8,1V35[4:1]/5V71[4:1],,,
{16}3,,3,,6,,6,,4,5,4,5,4,5,4,5,
{4}4,1/8,3/6>4[8:1],E3,
{8}1,1-4[8:1]*-6[8:1],2/8,,,7-4[8:1],,3,
{8},2-6[8:1],,8,8,,5/7,8,
{8}8<5[8:1],,3,3>8[8:1],,5,5,6h[4:1],
{8},3,3V17[4:1],7,6x,6x,6x,,
{4}5<1[4:1],1>5[4:1],5<1[4:1],1,
{4}5,2-4[8:1]/8-6[8:1],,3x/7x,
{8}8,1-3[8:1],4,5,,8<3[4:1],5,4h[2:1],
{8},,,1x,1v4[8:1]*v6[8:1],,,,
{8}2/8,2p6[8:1]/8,,6<1[8:1],,5,,4>1[8:1],
{8},7,,8x,8x,,4/7,3,
{8}3/5,,1/8,2>4[8:1]/7,,5,,8<6[8:1],
{8},5,,1-5[8:1],7x-3[8:1],1x,7x,1xh[4:1],
{8},8,8,,C1f/B3/B4,C1f/B5/B6,,1,
{8}1,2/8z4[8:3],,3,3,2,1h[4:1],,
{8}4,5,6,4/7,,3qq5[2:1],6pp4[8:3],,
{8},,,,2x/7x,2x/7x,2x-5[8:1]/7x,,
{4}6-1[8:1],3-8[8:1],7-4[8:1],2-5[8:1],
{8}6-1[8:1],,3-8[8:1],,7,7,7-2[8:1],,
{4}3-6[8:1],8-5[8:1],4-1[8:1],7-2[8:1],
{8}3-6[8:1],,8-5[8:1],,4,4,4/6h[4:1],,
{8}3,2-6[8:1],5,6,,8-4[8:1],5,4,
{8},2-6[8:1],6,7h[4:1],,1,1h[4:1],,
{8}6,7-3[8:1],4,3,,1-5[8:1],4,5,
{8},7,7,5,4,4/5,3/6,,
{8}1/8,,B4/E4/B5/E6,,3/6,,1/8,1/8,
{16},,6,5,7,,3,4,2-6[8:1],,8x,,2/8x,,,,
{8}5/7,,2/4v1[8:1]*v7[8:1],,,,8x,8x,
{16},,2,4,3,,7,5,6-4[8:1],,1x,,1x/6,,,,
{8}2h[4:1],8,7h[4:1],1,2h[4:1],8,7,1/7,
{16},,3,4,2,,6,5,7,,B3/E3/E4,,B6/E6/E7,,,,
{4}1>4[4:1],4<7[4:1],7>2[4:1],2,
{8}5w1[8:1],,,,2x/8x,3x/7x,3x/7x,,
{8}2/8,,B4/E4/B5/E6,,3/6,,1/8,1/8,
{16},,3,4,2,,6,5,7-3[8:1],,1b,,1b/7,,,,
{8}2/4,,5v2[8:1]*v8[8:1]/7,,,,1x,1x,
{16},,7,5,6,,2,4,3-5[8:1],,8b,,3/8b,,,,
{8}7h[4:1],4,2h[4:1],5,7h[4:1],4,2,2/5,
{16},,7,5,6,,2,4,3,,B7/E7/E8,,B2/E2/E3,,,,
{4}8<5[4:1],5>2[4:1],2<7[4:1],7,
{8}4w8[8:1],,,,2x>1[2:1]/6x,7x,8x,,
{16},,,,,,,,4,5,4,5,2x,,,,
{8}7/8,7-3[8:1]/8-4[8:1],1/6,,,2>5[8:1]/5,,6,
{8},7-3[8:1],,2,2,,1-4[8:1],1,
{8}8-5[8:1],8,3-6[8:1],3,7-2[8:1],7,3,3h[4:1],
{8},6,6V82[4:1],2,3x,3x,3x,,
{4}4>8[4:1],8<4[4:1],4>8[4:1],8,
{4}4,3-5[8:1]/7-5[8:1],,3/7,
{8}1,8-6[8:1],5,4,,1>6[4:1],4,5xh[2:1],
{8},,,8x,8-3[8:1]*-5[8:1],,,,
{8}1/7,1/7q3[8:1],,3>8[8:1],,4,,5<8[8:1],
{8},2,,1x,1x,,2/8,3/7,
{8}4/6,4/6h[4:1],,3,3,2h[4:1]/5,,6,
{8},3/7,,8-4[8:1],2x-6[8:1],8x,2x,8xh[4:1],
{8},1,1,,C1f/B5/B6,C1f/B3/B4,,8,
{8}8,1s5[8:3]/7,,6,6,7,8h[4:1],,
{8}5,4,3,2/7,,1-4[8:1]/8-5[8:1],,,
{8},3/6,3/6,,B5/E5/B6/E7,,B3/E3/B4/E5,,
{8}7>2[8:1],,2,,3<6[8:1],,7,8,
{4}8V64[4:1]*V24[4:1],,,3/5,
{8}2,2h[4:1],,4h[4:1],,5-8[8:1]*v2[8:1],,,
{8},4/6,,1,1,2/8,2/8,,
{8}5/7,6,4/5,3,2-6[8:1]/4,,8,8xv3[8:1]*v5[8:1],
{8},,,1xv4[8:1]*v6[8:1],,,,,
{8}8,1-6[8:1]/7-4[8:1],2/6,1x/7x,,8,8,1-6[8:1]/7-4[8:1],
{16}2/6,,1x/7x,,,,,,,,,3x/5x,,,4x/6x,,
{16}7h[16:3],,,6h[16:3],,,5,,3/4,,,,2/5,,1,,
{16}1h[16:3],,,3h[16:3],,,4,,3x/5x,,,,4/6v4[8:1],,,,
{8}3,3v5[8:1],,6h[4:1],,4,,3/7,
{16},,1/8,,1/8,,1/8,,E3,B3,B4,B5,E6,,,,
{8}7,7,2/8,2/8,1-5[8:1],,6,6>3[8:1],
{8},2<7[8:1],,5,,4,3/5,,
{8}1,2-5[8:1]/8-3[8:1],3/7,2b/8b,,1,1,2-5[8:1]/8-3[8:1],
{8}3/7,2b/8b,,1,1,3/7,3/7,,
{8}3,3h[4:1],4,5h[4:1],2,2h[4:1],4,6h[4:1],
{8}3,3h[4:1],5,7,5-1[8:1],8,8,,
{8}6,6h[4:1],5,4h[4:1],7,7h[4:1],3,2h[4:1],
{8}6,6h[4:1],4,3,4-8[8:1],1,1,,
{8}2,2h[4:1],8,7h[4:1],3,3h[4:1],8,7h[4:1],
{8}2,2h[4:1],8,6,1-5[8:1],8,8,,
{8}7,7h[4:1],1,2h[4:1],6,6h[4:1],1,2h[4:1],
{8}7,7,4,3V17[4:1]/8,3/8,7x,5x,3x,
{1},
{1},
{1},
E
